#TITLE:Dreams Come True;
#SUBTITLE:;
#ARTIST:Helblinde & 3R2;
#TITLETRANSLIT:;
#SUBTITLETRANSLIT:;
#ARTISTTRANSLIT:;
#CREDIT:Zaia;
#BANNER:../_bn-1.png;
#BACKGROUND:../bg-1.png;
#LYRICSPATH:;
#CDTITLE:;
#MUSIC:Helblinde & 3R2 - Dreams Come True.ogg;
#OFFSET:0.008;
#SAMPLESTART:65.986;
#SAMPLELENGTH:19.300;
#SELECTABLE:YES;
#BPMS:0.000=200.000;
#STOPS:;
#BGCHANGES:;
// cache tags:
#FIRSTBEAT:4.000;
#LASTBEAT:732.000;
#SONGFILENAME:Songs/Index Tournament 1/Dreams Come True - [Zaia]/Dreams Come True.sm;
#HASMUSIC:1;
#HASBANNER:1;
#MUSICLENGTH:228.716;
// end cache tags

//---------------dance-single - Zaia----------------
#NOTES:
     dance-single:
     Zaia:
     Challenge:
     15:
     1.000,1.000,0.044,0.227,1.000,1962.000,10.000,52.000,0.000,1.000:

0000
0000
0000
0000
,
1000
0000
0010
0000
0100
0000
0001
1000
0100
1000
0001
0000
0010
0000
0001
1000
,
0001
0000
0100
0000
0001
0000
1000
0100
0010
0100
1000
0000
0001
0000
0100
0010
,
1000
0000
0001
0000
0010
0000
0100
1000
0001
1000
0010
0000
0100
0000
0001
0010
,
0001
0000
0010
0000
0100
0000
1000
0001
0100
0001
1000
0000
0010
0000
0100
0001
,
1000
0000
0100
0000
0010
0000
0001
1000
0010
1000
0001
0000
0100
0000
0001
1000
,
0001
0000
0010
0000
0001
0000
1000
0010
0100
0010
1000
0000
0001
0000
0010
0100
,
1000
0000
0001
0000
0100
0000
0010
1000
0001
1000
0100
0000
0010
0000
0001
0100
,
0001
0000
0100
0000
0010
0000
1000
0001
0010
0001
1000
0000
0100
0000
0010
0001
,
1000
0100
0010
0001
0100
0001
0010
0100
,
1000
0001
1000
0010
1000
0100
0010
0100
,
1000
0010
0100
0001
0010
0001
0100
0010
,
1000
0001
1000
0100
1000
0010
0100
0010
,
1000
0001
1000
0001
1000
0010
0100
0001
,
0010
0100
1000
0001
0100
0010
0100
0001
,
1000
0100
0010
0100
1000
0001
0010
0100
,
1000
0000
0001
0000
0100
0000
0001
0000
1000
0001
1000
0001
0010
0000
0000
0000
,
0100
1000
0001
1000
0010
0100
0001
0010
0100
0010
0001
0100
0001
1000
0010
0100
,
0001
1000
0001
0100
0010
1000
0001
0100
0010
0100
0001
0100
0010
1000
0001
1000
,
0100
1000
0001
0100
0001
1000
0100
1000
0010
0100
0010
1000
0100
1000
0001
0010
,
0001
1000
0001
0010
0100
1000
0001
0010
0100
0010
0001
0010
0100
1000
0001
1000
,
0020
0030
0000
0000
0200
0300
0000
0000
0001
0000
0000
0000
2000
3000
0000
0000
0002
0003
0000
0000
0020
0030
0000
0000
0200
0300
0000
0000
2000
3000
0000
0000
,
0010
0000
0000
0000
2000
3000
0000
0000
0100
0000
0000
0000
0020
0030
0000
0000
0002
0003
0000
0000
2000
3000
0000
0000
0002
0003
0000
0000
0200
0300
0000
0000
,
0010
0000
0000
0000
2000
3000
0000
0000
0002
0003
0000
0000
1000
0000
0000
0000
0002
0003
0000
0000
0010
0000
0000
0000
0200
0300
0000
0000
0010
0000
0000
0000
,
0002
0003
0000
0000
0200
0300
0000
0000
0002
0003
0000
0000
2000
3000
0000
0000
0020
0030
0000
0000
2000
3000
0000
0000
0200
0300
0000
0000
0020
0030
0000
0000
,
0001
1000
0001
0010
0100
1000
0010
0100
0010
1000
0100
1000
0001
0010
0100
1000
,
0001
1000
0100
0010
0001
1000
0100
0010
0100
1000
0100
0010
0001
1000
0001
0100
,
0001
1000
0100
1000
0001
0100
0001
0010
0100
0010
0001
0100
0001
1000
0010
1000
,
0001
1000
0010
0100
0001
1000
0010
0100
0010
1000
0010
0100
0001
1000
0001
0010
,
0200
0000
0000
0000
,
0000
0000
0000
1301
,
1002
0000
0000
0000
,
1003
0000
0010
0000
0100
0000
0010
0000
1000
0100
1000
0001
0010
0001
1000
0001
,
0100
0000
0010
0000
0000
1000
0000
0001
,
0010
0000
0100
1000
0000
0010
0000
0100
,
0000
0001
0000
0000
0000
0010
0100
1000
,
0010
0000
0100
0001
0000
1000
0100
1000
,
0001
0000
0100
0010
0000
1000
0000
0001
,
0010
0000
0100
1000
0000
0001
0000
0100
,
0020
0000
0000
2030
3000
0000
0000
0000
,
0000
0001
0010
0000
0001
0000
1000
0000
,
0010
0100
0001
0010
0200
0000
1300
0002
,
0000
0003
0100
0002
0000
2003
0000
0000
,
3000
0000
0000
0100
0010
0001
1000
0020
,
0000
0000
0000
0030
,
0100
0000
0000
0000
0001
0000
1000
0100
,
0000
0010
0000
0100
0000
1000
0000
0000
,
0001
0100
0010
0100
0001
0010
0100
1000
,
0010
0100
0010
1000
0100
1000
0001
0010
,
0001
0100
0001
1000
1010
0000
1001
0000
,
0001
0010
0100
0010
0001
0100
0010
1000
,
0100
1000
0001
1000
1100
0000
0110
0000
,
0011
0001
0100
0001
0010
0100
1000
0010
,
0110
0100
0001
1000
1001
0001
0010
0001
,
0010
0100
1000
0000
0010
0100
0001
0000
0010
0000
0001
0000
1000
0000
0000
0000
,
0010
0100
0001
1000
0100
1000
0001
0100
0010
0100
0001
0010
0100
1000
0001
1000
,
0010
0100
0001
1000
0100
1000
0001
0100
0010
0100
0001
1000
0100
1000
0001
1000
,
0100
0010
0001
1000
0010
1000
0001
0010
0100
0010
0001
0100
0010
1000
0001
1000
,
0100
0010
0001
1000
0010
1000
0001
0010
0100
0010
0001
1000
0010
1000
0001
0010
,
0100
1000
0010
1000
0001
0100
0001
0010
0001
1000
0100
0010
0100
1000
0001
1000
,
0010
1000
0100
0010
0001
0100
0010
0100
0001
1000
0001
0010
0100
1000
0001
1000
,
0010
0100
0001
0010
0001
1000
0100
1000
0010
0100
0001
1000
0001
0010
0100
1000
,
0001
1000
0010
0100
0010
1000
0001
1000
0100
0010
0001
0010
0200
0000
0000
0000
,
1300
0010
1000
0001
0010
0001
1000
0010
0100
0010
1000
0100
0010
0001
1000
0001
,
0100
0010
1000
0001
0010
0001
1000
0010
0100
0010
1000
0001
0010
0001
1000
0001
,
0010
0100
1000
0001
0100
0001
1000
0100
0010
0100
1000
0010
0100
0001
1000
0001
,
0010
0100
1000
0001
0100
0001
1000
0100
0010
0100
1000
0001
0100
0001
1000
0100
,
1000
0001
1000
0010
0100
0001
1000
0001
0100
0010
1000
0001
0010
0001
0100
0010
,
1000
0001
1000
0010
1000
0100
0010
0001
1000
0001
0100
0010
0100
0001
0010
0100
,
1000
0100
0010
0001
0100
0010
1000
0001
0100
0001
0010
0100
1000
0010
1000
0001
,
0100
0010
0100
0001
0010
0001
1000
0100
1000
0001
0010
0100
1000
0001
1000
0010
,
0100
0001
1000
0010
1000
0001
1000
0100
0010
0100
1000
0001
0010
0100
1000
0010
,
0100
0001
1000
0001
0100
0010
0100
0001
1000
0001
0010
0100
1000
0100
0010
0001
,
1000
0100
1000
0001
1000
0100
1000
0001
,
0100
0010
1000
0001
1000
0010
0100
0010
1000
0001
0010
0100
1000
0010
1000
0001
,
0200
0000
0000
0000
0310
1000
0001
1000
0100
1000
0001
0010
0100
1000
0001
1000
,
0010
0100
0001
0010
0100
1000
0001
1000
0010
0100
0010
1000
0100
1000
0001
0010
,
0100
1000
0001
1000
0010
1000
0001
0100
0001
1000
0001
0010
0100
0010
0001
1000
,
0001
0100
0010
1000
0100
1000
0001
0010
0100
0010
0001
1000
0010
1000
0001
0010
,
0100
1000
0001
1000
0010
0100
0010
1000
0001
0010
0001
1000
0001
0100
0010
0100
,
0001
1000
0100
0010
0001
1000
0001
0100
0001
1000
0001
0010
0100
1000
0001
1000
,
0010
0100
0001
0010
0100
1000
0001
0100
0010
1000
0010
0100
0001
1000
0001
0010
,
0100
0000
0000
0000
1000
0000
0000
0000
0000
0000
0000
0000
0001
0100
0001
0100
,
0010
1000
0001
0100
0010
1000
0001
1000
0100
1000
0001
0010
0100
1000
0001
1000
,
0010
0100
0001
0010
0100
1000
0001
1000
0010
0100
0010
1000
0100
1000
0001
0010
,
0100
1000
0001
1000
0010
1000
0001
0100
0001
1000
0001
0010
0100
0010
0001
1000
,
0001
0100
0010
1000
0100
1000
0001
0010
0100
0010
0001
1000
0010
1000
0001
0010
,
0100
1000
0001
1000
0010
0100
0010
1000
0001
0010
0001
1000
0001
0100
0010
0100
,
0001
1000
0100
0010
0001
1000
0001
0100
0001
1000
0001
0010
0100
1000
0001
1000
,
0010
0100
0001
0010
0100
1000
0001
0100
0010
1000
0010
0100
0001
1000
0001
0010
,
0100
1000
0001
1000
0010
0100
0001
1000
0001
1000
0100
0010
0100
1000
0001
1000
,
0010
0100
0001
0100
0010
1000
0001
1000
0100
0010
0001
1000
0001
1000
0010
0100
,
0001
0010
0001
1000
0001
0100
0010
0100
0001
0010
0001
1000
0001
0010
0100
1000
,
0100
0010
0001
1000
0010
1000
0001
1000
0010
0100
0001
1000
0001
1000
0100
0010
,
0001
0100
0001
1000
0001
0010
0001
1000
0100
0000
0000
0000
0000
0000
0000
0000
,
0010
0001
1000
0001
0100
0010
0100
0001
,
0010
0000
0100
0000
1000
0000
0001
0000
1000
0000
0010
0000
0100
0010
1000
0001
,
1000
0100
1000
0001
0010
0001
1000
0001
,
0100
0000
0010
0000
1000
0000
0001
0000
1000
0000
0100
0000
1000
0010
1000
0001
,
1000
0001
0100
0001
0010
0100
1000
0100
,
1000
0000
0001
0000
0100
0000
0010
0000
1000
0000
0001
0000
0010
0100
1000
0001
,
0100
0001
1000
0001
0010
0100
1000
0001
,
0100
0000
0001
0000
1000
0000
0100
0000
1000
0000
0001
0000
0010
0100
1000
0100
,
0010
0001
0100
0001
0010
0100
1000
0001
,
0100
0010
1000
0001
1000
0100
1000
0001
,
0010
0001
1000
0010
0100
0010
1000
0001
,
0010
0100
0010
0100
1000
0100
1000
0100
,
0010
0001
1000
0010
1000
0100
1000
0001
,
0010
0001
0100
0010
1000
0000
0000
0000
,
0001
1000
0010
0100
0001
1000
0100
1000
0001
1000
0010
0100
0001
1000
0100
1000
,
0001
0010
0001
0100
0010
1000
0001
0010
0001
1000
0001
0100
0010
1000
0001
0010
,
0001
1000
0100
0010
0001
1000
0010
1000
0001
0000
0000
0000
1000
0000
0000
0000
,
0001
1000
0100
0010
0001
1000
0010
1000
0001
1000
0100
0010
0001
1000
0010
1000
,
0001
0100
0001
0010
0100
1000
0001
0100
0010
0000
0000
0000
1000
0000
0000
0000
,
0001
0010
0100
1000
0001
1000
0010
0100
0010
1000
0001
1000
0100
0010
0001
1000
,
0001
0100
0010
1000
0001
0100
0010
0100
0001
1000
0010
0100
0001
0010
0100
1000
,
0001
0000
1000
0000
0001
0000
1000
0000
0100
0010
0001
0100
0010
0000
0000
0000
,
1000
0100
0010
0002
0000
2003
0000
0000
,
0000
0000
3000
0000
,
0010
0100
0001
0020
0000
0230
0000
0000
,
0000
0000
0000
0000
0300
0000
0000
1000
,
0002
0000
0103
0020
0000
0030
0000
1000
,
0001
0010
0001
0200
0000
0300
0000
0010
,
2000
0000
3001
0010
0200
0000
1300
0002
,
0000
0003
1000
0020
0000
0130
0101
0000
,
0001
0010
0001
0100
0010
1000
0001
0100
,
0001
1000
0001
0010
0001
1000
0001
0100
,
0010
1000
0100
1000
0001
0010
0100
1000
,
0001
1000
0010
1000
0001
0010
0001
1000
,
0010
0100
0001
1000
0001
0010
0100
1000
,
0001
0100
0010
1000
0100
1000
0001
0100
,
0001
0010
0100
1000
0001
1000
0010
0100
,
0001
1000
0100
1000
0001
0010
0100
1000
,
0001
0100
0001
0100
0001
0100
0001
0100
,
0010
1000
0010
1000
0010
1000
0010
1000
,
0001
0010
0001
0010
0001
0010
0001
0010
,
0100
1000
0100
1000
0001
0010
0100
1000
0001
1000
0010
0100
0001
1000
0100
1000
,
0002
0000
0103
0010
0100
0001
1000
0100
,
0010
0001
0100
0010
0100
0001
1000
0100
,
0010
0001
0100
0010
0100
0001
1000
0100
,
0010
0001
0100
0010
0100
0001
1000
0100
,
0010
0001
0010
0100
1000
0010
0100
0001
,
0010
0100
1000
0010
0100
0001
0010
0100
,
2000
0000
0000
0000
,
3002
0000
0000
0000
0103
0000
0000
0000
0010
1000
0010
0000
0100
0001
0100
0000
,
0010
0100
0001
1000
0100
1000
0001
0100
0010
0100
0001
0010
0100
1000
0001
1000
,
0010
0100
0001
1000
0100
1000
0001
0100
0010
0100
0001
1000
0100
1000
0001
1000
,
0100
0010
0001
1000
0010
1000
0001
0010
0100
0010
0001
0100
0010
1000
0001
1000
,
0100
0010
0001
1000
0010
1000
0001
0010
0100
0010
0001
1000
0010
1000
0001
0010
,
0100
1000
0010
1000
0001
0100
0001
0010
0001
1000
0100
0010
0100
1000
0001
1000
,
0010
1000
0100
0010
0001
0100
0010
0100
0001
1000
0001
0010
0100
1000
0001
1000
,
0010
0100
0001
0010
0001
1000
0100
1000
0010
0100
0001
1000
0001
0010
0100
1000
,
0001
1000
0010
0100
0010
1000
0001
1000
0100
0010
0001
0010
0100
1000
0001
0100
,
0010
0100
0001
1000
0100
1000
0001
0100
0010
0100
0001
0010
0100
1000
0001
1000
,
0010
0100
0001
1000
0100
1000
0001
0100
0010
0100
0001
1000
0100
1000
0001
1000
,
0100
0010
0001
1000
0010
1000
0001
0010
0100
0010
0001
0100
0010
1000
0001
1000
,
0100
0010
0001
1000
0010
1000
0001
0010
0100
0010
0001
1000
0010
1000
0001
0010
,
0001
1000
0001
0100
0010
1000
0001
1000
0010
0100
0001
1000
0100
1000
0010
0100
,
0001
1000
0001
0100
0001
0010
0100
1000
0001
1000
0010
0100
0010
1000
0100
0010
,
0001
0010
0100
1000
0010
0100
0001
1000
0010
1000
0100
0010
0001
0100
0001
1000
,
0010
0100
0010
1000
0100
1000
0001
0010
0001
1000
0100
0010
0001
1000
0001
0100
,
0010
1000
0001
0100
0001
1000
0001
0010
0100
0010
0001
1000
0100
0010
0001
0100
,
0010
1000
0001
1000
0010
0100
0010
1000
0001
1000
0100
0010
0001
0010
0100
1000
,
0001
0010
0001
0100
0010
1000
0100
1000
0001
0100
0001
0010
0100
1000
0010
1000
,
0002
0000
0000
0000
0000
0000
0000
0000
0000
0000
0000
0000
1003
0100
1000
0100
,
0010
0000
0100
0000
0010
0000
0001
1000
0010
1000
0001
0000
0100
0000
0001
1000
,
0001
0000
0010
0000
0001
0000
1000
0010
0100
0010
1000
0000
0001
0000
0010
0100
,
1000
0000
0001
0000
0100
0000
0010
1000
0001
1000
0100
0000
0010
0000
0001
0100
,
0001
0000
0100
0000
0010
0000
1000
0001
0010
0001
1000
0000
0100
0000
0010
0001
,
1000
0000
0010
0000
0100
0000
0001
1000
0100
1000
0001
0000
0010
0000
0001
1000
,
0001
0000
0100
0000
0001
0000
1000
0100
0010
0100
1000
0000
0001
0000
0100
0010
,
1000
0000
0001
0000
0010
0000
0100
1000
0001
1000
0010
0000
0100
0000
0001
0010
,
0001
0000
0010
0000
0100
0000
1000
0001
0100
0001
1000
0000
0100
0000
0010
0001
,
1000
0000
0010
0000
0100
0000
0001
1000
0100
1000
0001
0000
0010
0000
0001
1000
,
0001
0000
0100
0000
0001
0000
1000
0100
0010
0100
1000
0000
0001
0000
0100
0010
,
1000
0000
0001
0000
0010
0000
0100
1000
0001
1000
0010
0000
0100
0000
0001
0010
,
0001
0000
0010
0000
0100
0000
1000
0001
0100
0001
1000
0000
0010
0000
0100
0001
,
1000
0000
0100
0000
0010
0000
0001
1000
0010
1000
0001
0000
0100
0000
0001
1000
,
0001
0000
0010
0000
0001
0000
1000
0010
0100
0010
1000
0000
0001
0000
0010
0100
,
1000
0000
0001
0000
0100
0000
0010
1000
0001
1000
0100
0000
0010
0000
0001
0100
,
0001
1000
0001
1000
0100
0010
0100
1000
0001
0100
0001
0100
0010
1000
0001
1000
,
0200
0000
0000
0000
,
0000
0000
0000
0000
,
0300
0000
0000
0000
;
