#TITLE:Hyrule Overworld;
#SUBTITLE:Princess "Z" Trigger Mix;
#ARTIST:Nintendo;
#TITLETRANSLIT:;
#SUBTITLETRANSLIT:;
#ARTISTTRANSLIT:;
#CREDIT:The HIDDEN MESSAGE! The meaning of life is ;
#BANNER:hyrule_bn.png;
#BACKGROUND:hyrule_bg.png;
#LYRICSPATH:;
#CDTITLE:Mrmoo-cdtitle.png;
#MUSIC:zelda.mp3;
#OFFSET:-1.446;
#SAMPLESTART:46.019;
#SAMPLELENGTH:12.000;
#SELECTABLE:YES;
#BPMS:0.000=139.993;
#STOPS:;
#BGCHANGES:280.000=K8107-bg.png=1.000=0=0=1,
283.000=hyrule_bg.png=1.000=0=0=1,
99999=-nosongbg-=1.000=0=0=0 // don't automatically add -songbackground-
;
// cache tags:
#FIRSTBEAT:8.000;
#LASTBEAT:566.000;
#SONGFILENAME:Songs/longs versions/zelda remix/steps.sm;
#HASMUSIC:1;
#HASBANNER:1;
#MUSICLENGTH:252.107;
// end cache tags

//---------------dance-single - Heavy----------------
#NOTES:
     dance-single:
     Heavy:
     Hard:
     10:
     0.628,0.842,0.167,0.627,0.476,909.000,42.000,158.000,0.000,2.000:
0000
0000
0000
0000
,
0000
0000
0000
0000
,
2000
0000
0000
0000
,
3200
0000
0000
0000
0000
0000
1300
0100
,
0020
0000
0000
0000
0000
0030
0001
0100
,
0020
0000
0000
0000
0000
0030
1000
0100
,
0020
0000
0000
0000
0000
0000
0031
1000
,
0100
0020
0000
0000
0000
0000
0000
0130
,
1001
0010
0000
0100
0001
1000
0010
0100
0001
0010
0000
0100
0010
0001
0100
0000
,
1020
0000
0000
0000
0000
0001
0130
0020
,
0000
0000
0000
0000
0000
0130
1000
2000
,
0000
0000
0000
0000
3000
0100
0010
2002
,
0000
0000
0000
0000
0000
0000
3103
0010
,
0002
0000
0000
0000
0000
1000
0103
0000
,
0020
1000
0100
1000
0001
0100
1000
0100
0031
1000
0100
0010
0100
0000
0010
0000
,
0001
0100
0010
1000
0001
0100
0010
0001
1000
0010
0100
1000
0010
0000
1000
0000
,
1000
0001
0010
0100
0010
0100
0001
0001
0001
1000
1000
0100
0010
0000
0100
0000
,
0001
1000
0100
1000
0010
0001
0100
0000
0001
0010
0100
0001
0100
0000
1000
0100
,
0010
1000
0001
0001
0100
0001
0010
0100
0001
0100
0010
1000
0001
0000
1000
0000
,
0100
0001
0010
0100
1000
0010
0100
0001
,
1000
0100
0010
0100
0010
0001
1000
0001
,
0010
0100
1000
0001
0100
0001
1000
0100
,
1000
0010
0001
0100
1000
0001
0010
0220
,
0000
0000
0000
0330
1001
0000
0000
0000
0110
0000
1001
0000
0001
0000
0220
0000
,
0000
0000
0000
0330
0001
0000
0000
0000
1000
0100
0010
0100
0001
0000
1000
0000
,
0001
0010
0100
0000
0010
1000
0001
0010
,
0000
0000
0000
0000
0220
0000
0000
0330
0001
0010
0100
0010
0001
0000
0010
0000
,
0001
1000
0100
0000
1000
0100
0010
1000
,
0000
0000
0000
0001
0000
0000
0000
1000
0100
0010
0001
0010
0001
0000
2000
0000
,
0000
0000
0000
3000
0002
0000
0000
0000
0103
0000
0010
0000
0001
1000
0100
0010
,
0100
1000
0100
1000
0010
0001
0010
0001
1000
0100
0010
0100
0000
1001
0000
0000
,
0000
0020
0000
0032
0000
2000
0003
3200
,
0000
0000
0000
0000
0000
0000
0310
0000
0000
0001
0000
0000
1000
0000
0100
0010
,
0001
0000
0000
0000
0000
0000
0010
0100
0010
0000
0000
0000
0000
0000
0001
1000
,
0001
0010
0100
0010
0001
1000
0001
0020
,
0000
0030
0002
0000
0000
0000
0203
0000
0000
0000
2300
0000
0000
0000
3002
0000
,
0000
0000
0023
0000
0000
0030
0001
0000
0000
1000
0000
0000
0001
0000
0000
0100
,
0010
0001
1000
0100
0001
1000
0010
0100
0010
1000
0001
0100
0000
0010
0000
0010
,
0100
0001
0010
0001
0100
0010
0100
0001
1000
0001
0100
0000
0001
0000
0200
0000
,
0000
2300
0000
3002
0000
0023
0000
0230
,
0000
0000
0000
0000
0000
0000
0000
0000
0301
0000
1000
0000
0100
0000
0010
0001
,
0020
0000
0000
0000
0000
0000
0130
1000
0100
0000
0000
0000
0000
0000
0010
0001
,
0020
0000
0000
0000
0000
0000
0000
0032
,
0000
2003
0000
3200
0000
0320
0000
0032
,
0000
0000
0000
0000
0000
0000
1003
0000
0000
1000
0000
0000
0010
0000
0001
0010
,
0001
0000
1000
0000
0100
0000
0010
0000
0001
0000
0010
0000
0001
0000
0010
1000
,
0010
0001
1000
0001
1000
0010
0100
0010
0100
0001
1000
0001
0100
0000
0020
0000
,
0000
0000
0032
0000
0000
0000
2000
0003
0000
0000
0200
3000
0000
0000
0320
0000
,
0000
0000
0000
0000
0000
0030
0001
0000
0000
1000
0000
0000
0100
0000
0010
0001
,
0020
0000
0000
0000
0000
0000
0031
0100
0002
0000
0000
0000
0000
0000
0013
0100
,
0020
0000
0000
0000
0000
0000
0030
0002
,
0000
2003
0000
3200
0000
0320
0000
0032
,
0000
0000
0000
0000
0000
0003
1000
0000
0000
0100
0000
0000
0010
0000
0000
0001
,
0010
0001
1000
1000
0100
0010
0010
0001
0010
0010
0001
1000
0100
0000
0001
0000
,
0100
1000
0010
0001
0100
0010
0100
1000
0001
0100
1000
0001
0010
0010
0002
0000
,
0000
0000
2003
0000
3100
0001
0001
0020
,
0000
0000
0000
0030
0001
0000
0000
1000
0100
1000
0100
0010
0001
0000
0002
0000
,
0000
0003
1000
0000
0100
0010
0010
0002
,
0000
0000
0000
0000
1003
0000
0000
0100
0010
0001
0010
0001
1000
0000
0100
0000
,
0010
0000
0001
0000
2000
0000
0000
3000
0100
0000
0010
0000
0001
0000
0020
0000
,
0000
0000
0000
0000
0031
0000
0000
0000
1000
0100
0010
0001
0000
0100
0010
0001
,
0100
0010
0100
0001
0010
1000
0100
0100
0100
0010
0100
0000
0001
0000
1001
0000
,
1000
0100
1000
0010
1000
0001
1000
0100
1000
0010
1000
0001
1000
0000
0220
0000
,
0000
0330
0000
0000
1001
0000
0000
0000
0001
0000
0010
0000
0100
0000
2020
0000
,
0000
0000
0000
0000
3030
0001
0000
0001
0100
1000
0100
1000
0010
0000
0001
0000
,
1000
0001
0020
0000
0130
0001
1000
0002
,
0000
0000
0000
0000
0000
0013
0000
0100
0010
1000
0010
1000
0001
0000
0010
0000
,
0001
1000
0002
0000
0013
0100
0010
0002
,
0000
0000
0000
0000
0003
1000
0000
0000
0001
0010
0100
0010
0001
0000
2000
0000
,
0010
3000
0001
0000
0200
0000
0000
0000
0310
0000
0001
0000
1000
0000
0100
0000
,
1000
1000
1000
1000
1000
1000
1000
1000
1000
1000
1000
1000
1000
0000
0002
0000
,
0000
0000
2003
0000
0000
3000
0200
0000
0000
0000
0320
0000
0000
0000
0032
0000
,
0000
2000
0003
0002
3000
0203
0000
0320
,
0000
0000
0032
0000
0000
0000
2003
0000
0000
0000
3002
0000
0000
0000
2000
0003
,
0000
3200
0000
0320
0000
0032
0000
2003
,
0000
3000
0100
0000
0100
1000
0100
0020
,
0000
0000
0000
0030
0000
0001
0000
0000
1000
0000
0100
0000
0010
0000
0002
0000
,
0000
0000
0000
0000
1003
0000
0000
0000
0100
0000
0010
0000
0001
0000
0010
0010
,
0100
0010
0100
0010
0001
1000
0001
0010
0100
0010
0001
0010
0001
0000
0020
0000
,
0000
0230
0000
0302
0000
2003
0000
3200
,
0000
0000
0000
0000
0000
0000
0302
0000
0000
1000
0003
0000
0100
0000
0010
0001
,
0010
0000
0000
0000
0000
0000
0001
1000
0001
0000
0000
0000
0000
0000
0010
0100
,
0010
0000
0000
0001
0001
0001
0001
1001
,
0000
0110
0000
1001
0000
0110
0000
2002
,
0000
0000
0000
0000
3003
0000
0100
0000
0000
0010
0000
0000
1000
0000
0010
0100
,
0010
0000
1000
0001
0010
0100
0010
0001
,
1000
0010
0001
0010
0100
0010
0010
0001
0010
1000
0001
1000
0001
0000
0020
0000
,
0000
0032
0000
2000
0003
0200
3000
0020
,
0300
0030
0000
1001
0000
0000
0000
0110
,
0000
0000
0000
0000
0000
0000
0000
1001
,
0000
0000
0000
0000
0000
0000
0000
1001
,
0000
0000
0000
0000
0000
0000
0000
1001
,
0000
0000
0000
0000
0000
0000
0000
0110
,
0000
0000
0000
0000
0000
0000
0000
0110
,
0000
0000
0000
0000
0000
0000
0000
0110
,
0000
0000
0000
0000
0000
0000
0000
2000
,
0000
0000
0000
0000
0000
0000
0000
0000
0000
0000
0000
0000
0000
0000
3100
0010
,
0001
1000
0100
0010
0001
1000
0100
0010
0001
0010
1000
0001
0010
0100
0010
0001
,
0010
1000
0010
0001
0010
1000
0100
0010
0001
0010
0001
1000
0100
0000
0011
0000
,
0000
1000
0000
0001
0000
0100
0000
0002
,
0000
0000
0000
0000
0000
0000
1003
0000
0000
0100
0000
0000
0010
0000
0001
0010
,
0001
0000
0000
0000
0000
0000
1000
0001
1000
0000
0000
0000
0000
0000
0001
0010
,
0001
1000
0001
1000
0001
0010
0001
2000
,
0000
3002
0000
0023
0000
0230
0000
0302
,
1000
0100
1000
1000
0100
1000
1003
0100
0010
0010
0100
0000
1000
0000
0100
0000
,
0100
0000
0010
0001
1000
0001
0010
0001
1000
0010
0100
1000
0010
0000
0000
0001
,
0100
1000
0010
0100
0001
0010
0001
1000
0100
1000
0010
0100
1000
0100
0010
0000
,
0000
0100
0000
0100
0000
1000
0000
0200
,
0000
0000
0000
0000
0300
0000
0001
0000
0000
1000
0000
0000
0100
0000
0001
0100
,
0001
0000
0000
0000
0000
0000
1000
0001
1000
0000
0000
0000
0000
0000
1000
0001
,
1000
0100
0001
0100
1000
0001
1000
0010
0100
0010
0100
0001
0100
0000
0002
0000
,
0000
0000
2003
0000
0000
0000
3200
0000
0000
0000
2300
0000
0000
0000
3001
0010
,
0100
1000
0100
0010
0001
0010
0100
1000
0100
0000
0100
0000
1000
0000
0001
0000
,
1000
0100
0010
0100
0010
0001
0010
0100
0010
0100
1000
0000
0001
0000
1000
0010
,
0010
0010
1000
0001
0010
1000
0100
0010
0100
0001
1000
0100
0010
0000
2000
0000
,
0000
3002
0000
0203
0000
2300
0000
3002
,
0000
1003
0010
2000
0000
3001
1000
0002
,
0000
1003
0001
0200
0000
0301
1000
0200
,
0000
0000
0301
0000
1000
0000
0200
0000
0001
0010
0301
1000
0100
0001
0002
1000
,
0100
0010
1003
0001
0100
1000
0010
0100
0001
0000
0100
0000
1000
0000
0002
0000
,
0000
0003
1000
0100
2000
3000
0001
1002
,
0000
0003
0100
0020
0000
0031
1000
0002
,
0000
0013
0100
2000
0000
3000
0001
0210
,
0000
0300
0011
2000
0000
3000
0010
0001
,
2000
3000
0010
0100
2000
3020
0000
0032
,
0000
0000
0013
0110
0000
0001
1000
0200
,
0000
0000
0300
0000
0011
0000
2000
0000
0100
0010
3100
1000
0100
0010
0002
0010
,
0100
1000
0013
0100
1000
0000
0110
0000
0000
0000
0100
0000
0010
0000
0002
0000
,
0000
0000
0000
0000
1003
0100
0010
0020
,
0000
0000
0000
0000
0030
1001
0100
0020
,
0000
0000
0000
0000
0000
1031
0100
0020
,
0000
0000
0000
0000
0030
1001
0100
0020
,
0000
0000
0000
0000
0130
1000
0001
0010
,
0100
0010
0001
1000
0100
0010
0000
2000
,
0000
0000
0000
0000
0000
0000
0000
3200
,
0000
0000
0000
0000
0300
0001
1100
0100
,
0020
0000
0000
0000
0000
0130
1000
0021
,
0000
0000
0000
0000
0030
0001
1000
0022
,
0000
0000
0000
0000
0033
0000
0000
2020
,
0000
3030
0000
0000
,
0000
2002
0000
0000
0000
0000
0000
0000
,
0000
0000
3003
0000
;
