#TITLE:Asu No Hikari;
#SUBTITLE:;
#ARTIST:Nhato feat. IA;
#TITLETRANSLIT:;
#SUBTITLETRANSLIT:;
#ARTISTTRANSLIT:;
#CREDIT:;
#BANNER:asu no hikari bn.png;
#BACKGROUND:asu no hikari bg.png;
#LYRICSPATH:;
#CDTITLE:cdtitlecondortalon.png;
#MUSIC:Asu No Hikari.ogg;
#OFFSET:0.012;
#SAMPLESTART:84.812;
#SAMPLELENGTH:14.435;
#SELECTABLE:YES;
#DISPLAYBPM:67.000:133.000;
#BPMS:0.000=133.000,128.000=66.500,159.000=266.000,161.000=133.000,161.500=66.500,162.000=133.000,163.500=266.000,163.750=133.000,163.875=66.500,164.000=133.000,164.500=266.000,164.750=133.000,164.875=66.500,165.000=133.000,165.250=266.000,165.500=133.000,165.625=66.500,165.750=133.000,167.000=266.000,167.500=133.000,167.750=66.500,168.000=266.000,169.000=133.000,169.500=66.500,170.000=133.000,171.500=266.000,171.750=133.000,171.875=66.500,172.000=133.000,172.500=266.000,172.750=133.000,172.875=66.500,173.000=133.000,173.250=266.000,173.500=133.000,173.625=66.500,173.750=133.000,176.000=266.000,177.000=133.000,177.500=66.500,178.000=133.000,179.500=266.000,179.750=133.000,179.875=66.500,180.000=133.000,180.500=266.000,180.750=133.000,180.875=66.500,181.000=133.000,181.250=266.000,181.500=133.000,181.625=66.500,181.750=133.000,182.000=266.515,184.000=266.000,185.000=133.000,185.500=66.500,186.000=133.000,191.000=265.337,192.000=266.000,193.000=133.000,193.500=66.500,194.000=133.000,196.000=266.000,197.000=133.000,197.500=66.500,198.000=266.000,199.000=133.000,199.500=66.500,200.000=266.000,201.000=133.000,201.500=66.500,202.000=133.000,203.500=266.000,203.750=133.000,203.875=66.500,204.000=133.000,204.500=266.000,204.750=133.000,204.875=66.500,205.000=133.000,205.250=266.000,205.500=133.000,205.625=66.500,205.750=133.000,208.000=266.000,208.500=133.000,208.750=66.500,209.000=266.000,209.500=133.000,209.750=66.500,210.000=133.000,212.000=266.000,212.500=133.000,212.750=66.500,213.000=266.000,213.500=133.000,213.750=66.500,214.000=266.515,216.000=266.000,216.500=133.000,216.750=66.500,217.000=266.000,217.500=133.000,217.750=66.500,218.000=133.000,219.500=266.000,221.250=133.000,222.125=66.500,223.000=133.000,224.000=66.500,256.000=133.000,320.000=66.500;
#STOPS:159.000=0.677
,182.000=0.226
,183.000=0.226
,191.000=0.075
,191.333=0.075
,191.667=0.075
,214.000=0.226
,215.000=0.226
;
#BGCHANGES:;
// cache tags:
#FIRSTBEAT:31.000;
#LASTBEAT:342.000;
#SONGFILENAME:Songs/Index Tournament 1/[CondorTalon] Asu No Hikari/Asu No Hikari.sm;
#HASMUSIC:1;
#HASBANNER:1;
#MUSICLENGTH:194.768;
// end cache tags

//---------------dance-single - CondorTalon----------------
#NOTES:
     dance-single:
     CondorTalon:
     Challenge:
     10:
     0.545,0.615,0.488,0.585,0.339,532.000,95.000,114.000,28.000,0.000:
0000
0000
0000
0000
,
0000
0000
0000
0000
,
0000
0000
0000
0000
,
0000
0000
0000
0000
,
0000
0000
0000
0000
,
0000
0000
0000
0000
,
0000
0000
0000
0000
,
0000
0000
0000
0000
0000
0000
0001
1000
,
1001
0000
0000
0000
0011
0000
0010
0000
0100
0000
0000
1000
0001
0000
0001
0000
,
1010
0000
1000
0001
0100
0000
0001
0000
1000
0000
0000
0010
1000
0000
1000
0000
,
1001
0000
0000
0000
0110
0000
1000
0000
0001
0000
0000
0010
0100
0000
0100
0000
,
0011
0000
0001
0000
1100
0000
1000
0000
0010
0000
0000
0100
0001
0000
0001
0000
,
0011
0000
0010
0000
0001
0000
1000
0000
0010
0000
1000
0001
0100
0000
0001
0000
,
1000
0000
0100
0000
0010
0000
0001
0000
1000
0000
0001
0100
0001
0000
0010
0000
,
0001
0000
1000
0000
0100
0000
1000
0000
0001
0000
0100
0010
0000
0010
0100
0000
,
0002
0003
0120
0030
2000
3000
0001
0010
,
0011
0000
0001
0000
1001
0000
1000
0000
0010
0000
0100
0001
1000
0000
0100
0000
,
1100
0000
1000
0000
1010
0000
0010
0000
0100
0000
0001
1000
0010
0000
1000
0000
,
1001
0000
0001
0000
0011
0000
0010
0000
0100
0000
1000
0100
0010
0000
0001
0000
,
1001
0000
1000
0000
1010
0000
0010
0000
0100
0000
0001
1000
0001
0000
1000
0000
,
00M0
00M0
00M0
00M0
1001
0000
0001
0000
0010
0000
0100
1000
0100
0000
1000
0000
,
1001
0000
0010
0000
1001
0000
1000
0000
0010
0000
0100
0001
0100
0000
0001
0000
,
1000
0000
0100
0000
0110
0000
0010
0000
0001
0000
1000
0010
1000
0000
0001
0000
,
0011
0000
0010
0000
0110
0000
0100
0000
1000
0000
0001
0010
0100
0010
0004
0000
,
1003
0010
1010
1000
0001
0010
0011
0001
,
1000
0010
1010
1000
0100
0010
0110
0100
,
1000
0001
1001
1000
0100
0010
0110
0100
,
1000
0001
0101
0100
0010
1000
1100
0100
,
0010
0001
0011
0010
0001
1000
1010
0010
,
0100
0001
0101
0100
0010
1000
1100
0100
,
0010
0001
0011
0010
0001
1000
1010
0010
,
1000
0000
1000
0000
1000
0000
0100
0010
0001
1000
0010
0100
0001
1000
0100
0010
,
0002
0000
0000
0000
2003
0000
3010
0200
0000
0000
0320
0000
0230
0000
0302
0000
,
2003
0000
0000
0000
3200
0000
0000
0320
0000
0000
0000
0000
0031
1000
0010
1000
,
0002
0000
0000
0023
0000
0000
0230
0000
0000
0000
2300
0000
3002
0000
2003
0000
,
3200
0000
1300
0002
0000
0103
0020
0000
0000
0000
0000
0000
1030
0001
0100
0001
,
0200
0000
0000
0000
0302
0000
1003
0200
0000
0000
0320
0000
0032
0000
2003
0000
,
3200
0000
0000
0000
0320
0000
0000
0230
0000
0000
1300
0000
0001
0100
0001
0100
,
0020
0000
0000
1030
0100
0010
0001
0010
0200
0000
1300
0001
2000
0000
3002
0000
,
0023
0000
0130
2000
0000
0000
0000
0000
3000
0000
00M0
0000
MMMM
0000
0M00
0000
,
2M02
0000
0000
0000
0000
0000
0000
0003
3010
0000
0010
0000
0010
0000
0202
0000
,
0303
0000
0000
0000
0000
0000
2002
0000
0000
0000
0000
0000
3003
0000
0000
2200
0000
0000
0000
0000
0000
3300
0000
0000
0100
0000
0010
0000
0001
0000
2000
0000
0000
0000
0000
0000
0020
0000
0000
0000
0000
0000
0000
0000
0000
3030
0000
0000
,
0202
0000
0000
0000
0000
0000
0000
0300
1003
0100
0010
0100
1000
0001
2000
0000
,
3000
0000
0000
0000
0000
0000
2002
0000
0000
0000
0000
0000
3003
0000
0000
0202
0000
0000
0000
0000
0000
0303
0000
0000
0100
0000
0000
0000
0000
0000
0001
0000
0000
0000
0000
0000
1000
0000
0001
0000
1000
0000
0001
0000
0000
0100
0000
0000
,
0020
0000
0000
0000
1030
1000
1000
2200
,
3300
0000
0220
0000
0330
0022
0000
0033
1001
0000
0000
0000
1000
0000
0000
0000
,
2020
0000
0000
0000
0000
0000
0000
0030
3001
0010
0100
1000
0100
0010
0200
0000
,
0300
0000
0000
1000
0000
0000
0001
0000
0000
0000
0000
0000
1000
0000
0000
0010
0000
0000
0000
0000
0000
1000
0000
0000
0001
0000
0000
0000
0000
0000
4000
0000
0000
0000
0000
0000
3100
0000
0000
0000
0100
0000
0000
0000
0100
0000
0000
0000
,
2002
0000
0000
0000
0000
0000
0000
0000
0000
0000
0000
0000
0000
0000
0003
0000
3001
0000
0010
0000
0100
0000
0010
0000
0001
1000
0001
0000
1000
0000
0000
0000
,
2002
0000
0000
0000
0000
0000
0000
0003
3040
0000
0000
0000
0000
0000
0000
0030
,
2200
0000
0000
0000
0000
0000
0000
0300
3001
0010
0100
1000
0001
0100
0020
0000
,
0030
0000
0000
0000
0000
0000
2002
0000
0000
0000
0000
0000
3003
0000
0000
2200
0000
0000
0000
0000
0000
3300
0000
0000
0001
0000
0000
0000
0000
0000
1000
0000
0000
0000
0000
0000
0010
0000
0100
0000
0001
0000
0100
0000
0000
0010
0000
0000
,
2000
0000
0000
0000
0000
0000
0000
0000
0000
0000
0000
0000
0000
0000
0000
3000
2000
0000
0000
0000
0000
0000
0000
0000
0000
0000
0000
0000
0000
0000
0000
0000
3010
0000
0000
0000
0000
0000
0000
0000
0100
0000
0000
0000
0000
0000
0000
0000
0001
0000
0000
0000
0000
0000
0000
0000
1000
0000
0000
0000
0000
0000
0000
0000
,
2000
0000
0000
0000
0000
0000
0000
0000
0000
0000
0000
0000
0000
0000
0000
3000
2000
0000
0000
0000
0000
0000
0000
0000
0000
0000
0000
0000
3000
0000
0000
0000
0011
0000
0000
0000
0000
0000
0000
0000
0000
0000
0000
0000
0000
0000
0000
0000
0010
0000
0000
0000
0000
0000
0000
0000
0000
0000
0000
0000
0000
0000
0000
0000
,
0200
0000
0000
0000
0000
0000
0000
0000
0000
0000
0000
0000
0000
0000
0000
0300
0200
0000
0000
0000
0000
0000
0000
0000
0000
0000
0000
0000
0000
0000
0000
0000
1300
0000
0000
0000
0001
0000
0000
0000
1000
0000
0000
0000
0010
0000
0000
0000
1000
0000
0000
0000
0100
0000
0000
0000
0020
0000
0000
0000
0000
0000
0000
0000
,
0000
0000
0000
0030
,
0MM0
0000
0000
0000
1000
0100
0010
0002
0000
0000
0000
0000
2003
0000
3010
0200
,
0000
0000
0302
0000
0000
0100
0100
1000
1000
0100
0100
0010
0010
1000
1000
0010
,
0013
0000
0000
0000
0001
0010
0100
0020
0000
0000
0000
0000
0032
0000
0103
0020
,
0000
0000
2030
0000
0000
0100
0100
0010
0010
0001
0001
0100
0100
0001
0001
0010
,
3M10
0000
0000
1000
0001
2000
0000
32M0
0000
0000
0000
0000
0000
0000
0000
0000
,
030M
0000
0000
1000
0001
0200
0000
M320
0000
0000
0000
0000
0000
0000
0000
0000
,
003M
0000
2000
0000
3002
0000
0000
0M23
0000
0000
0000
0000
0230
0000
0310
M002
,
0000
0000
0000
0000
0000
0000
0000
0M03
0000
0000
0000
M000
0100
0010
0100
0001
,
1MM0
1001
0101
1100
,
0110
0000
1001
0000
1010
0010
0110
0100
,
0202
0300
2003
3000
,
2020
0000
0030
0000
3002
0013
0200
1300
,
1001
1100
1001
0110
,
1001
0000
0000
0000
1100
0000
0000
0000
0100
0010
0001
1000
0010
0100
0001
1000
,
0001
0011
0110
1100
,
1001
0000
0101
0000
0010
0400
0310
0100
,
1001
1100
0110
0011
,
1010
0000
1001
0000
1100
0100
1100
1000
,
1002
1000
2003
0001
,
3200
0010
2300
3002
,
0043
0000
0030
0200
,
0000
0000
0000
0000
1300
0000
0000
0000
0001
0100
0001
0100
0010
1000
0100
0010
,
0002
0000
0000
0000
1003
1000
0020
0000
,
0000
0000
0M30
0000
000M
0000
0000
000M
,
M100
0000
0000
0000
0000
0000
0000
0000
0101
0000
0000
0000
0000
0000
1000
0000
0000
0000
0010
0000
0000
0010
0000
0000
0110
0000
0000
0000
0100
0000
0000
0000
,
0001
0000
0000
0000
1000
0000
0000
0000
1010
0000
0000
0000
0010
0000
0100
0000
0000
0000
0001
0000
0000
0001
0000
0000
1001
0000
0000
0000
1000
0000
0000
0000
,
0010
0000
0000
0000
0100
0000
0000
0000
0101
0000
0001
0000
1000
0000
0010
0000
0000
0000
0100
0000
0000
0100
0000
0000
0101
0000
0001
0000
1000
0000
0010
0000
,
0100
0000
0000
0000
0001
0000
1000
0000
1010
0000
0010
0000
0100
0000
0001
0000
0000
0000
1000
0000
0000
1000
0000
0000
1100
0000
0000
0000
0000
0000
0000
0000
,
0002
0000
0000
0000
,
0000
0000
0003
0000
;
