#TITLE:Eternal Snow;
#SUBTITLE:- Full Moon wo Sagashite 3rd Ending;
#ARTIST:Changin' My Life;
#TITLETRANSLIT:;
#SUBTITLETRANSLIT:;
#ARTISTTRANSLIT:;
#CREDIT:;
#BANNER:Eternal Snow-logo.jpg;
#BACKGROUND:Eternal Snow-bg.jpg;
#LYRICSPATH:;
#CDTITLE:cdtitle02.png;
#MUSIC:01 - Eternal Snow (edit).mp3;
#OFFSET:0.460;
#SAMPLESTART:100.000;
#SAMPLELENGTH:12.000;
#SELECTABLE:YES;
#BPMS:0.000=107.000;
#STOPS:;
#BGCHANGES:;
// cache tags:
#FIRSTBEAT:4.000;
#LASTBEAT:324.000;
#SONGFILENAME:Songs/Otaku's Dream 1st Anime Mix/Tweety3187 - Eternal Snow (Full Moon wo Sagashite ED3)/Trance.sm;
#HASMUSIC:1;
#HASBANNER:1;
#MUSICLENGTH:187.663;
// end cache tags

//---------------dance-single - Copied from----------------
#NOTES:
     dance-single:
     Copied from:
     Hard:
     7:
     0.615,0.626,0.970,0.512,0.013,530.000,182.000,96.000,0.000,0.000:
0000
0000
0000
0000
,
1000
0100
1000
0100
2020
0000
0000
3030
,
0001
0100
0001
0100
0022
0000
0000
0033
,
1000
0100
0010
0002
0000
0103
0010
0100
,
1000
0010
0100
1000
0010
0100
0001
0010
,
1001
1001
0010
0100
1100
0001
0010
0100
,
0011
0000
1001
0000
0010
0000
0100
0000
1010
0000
0001
0000
0100
0000
0010
1000
,
0110
0110
0001
1000
0101
0010
0100
1000
,
0020
0000
0032
0000
0203
0000
1300
0100
,
2001
0010
0001
3010
1100
0010
0001
0010
,
2001
0020
3030
0100
0011
0100
0010
1000
,
1001
0010
0001
0010
1100
1100
0001
0100
,
0011
1000
0010
0100
1001
0010
1100
0010
,
1002
0100
1000
0013
1100
0000
0100
0010
,
1001
0000
0010
0000
0101
0000
0102
0000
1000
0000
0003
0000
1020
0000
0000
0030
,
0201
0010
0301
2001
0000
3010
0001
0010
,
1100
0001
0010
0100
1001
0010
1100
0010
,
2001
0010
0100
3001
0011
0000
1000
0010
,
0110
0001
1010
0100
1001
0000
0100
0010
,
1100
0001
0000
0010
1100
1100
0011
0012
,
0100
1000
0100
0013
1000
0100
1010
0001
,
0210
0001
0001
0301
1010
0000
0100
0100
,
0011
0000
1000
0000
0011
0000
0012
0000
0103
0000
0000
0000
1020
0000
0000
0030
,
0210
1000
1300
0012
0000
0023
0230
2300
,
0010
0100
0001
3010
0110
0001
1010
0110
,
0210
0000
0000
0000
0001
0000
0000
0000
0010
0000
0000
0000
0001
0000
0000
0000
0310
0000
0000
0000
0002
0000
0000
0000
0023
0000
0000
0000
0230
0000
0000
0300
,
2010
0100
0010
0100
3010
0101
0010
1100
,
0120
1000
0100
0031
0000
1000
0010
0001
,
0110
0001
0010
0100
1010
0001
1020
0130
,
2001
0010
0100
0001
0010
0100
0001
3010
,
1100
0000
0000
0000
0000
0000
1100
0000
0000
0000
0000
0000
1100
0000
0000
0000
0020
0000
0000
0000
0000
0000
0032
0000
0000
0000
0000
0000
0023
0000
0000
0030
,
1200
0010
1000
0301
1010
0100
0010
1100
,
1100
0001
0110
0110
0000
0110
0000
0011
,
0000
0000
0000
0000
,
1001
0000
0000
0010
0101
0010
1100
0012
,
0100
0010
1003
0010
1100
0000
0110
0110
,
1020
0001
0100
0031
1200
0301
0011
0012
,
0100
1000
0010
0103
1010
0001
0010
0110
,
1010
0001
0110
0110
0001
0000
1010
0001
,
0110
0001
0010
1000
0110
0001
0010
0001
,
0210
0001
1000
0310
0001
0010
1100
1100
,
0201
0310
1001
0210
0301
0012
0103
0010
,
1200
0000
0000
0310
1001
0010
0011
0210
,
0001
1000
0310
0001
1100
0000
0100
1020
,
0100
0031
0100
1000
0011
0000
0010
0010
,
1200
0010
0001
1300
0011
0100
0010
0100
,
1001
0000
0110
0012
1003
0000
0110
1000
,
0101
0010
1000
0100
1010
0001
0010
0100
,
0011
0100
0010
1000
1010
0100
1001
1002
,
0010
0103
0110
0100
1010
0001
0100
2010
,
0000
0002
0000
3000
0000
0000
0000
0003
,
0110
0000
0101
0000
,
1000
0100
0020
2030
3002
0000
0203
0320
,
0000
0000
0030
0002
0023
0032
0000
2003
,
3200
0000
0310
0020
0000
0000
0230
0302
,
0000
0000
0000
0000
0000
0000
0003
0010
,
0200
0000
2300
3020
0000
0032
0103
0200
,
0000
0000
0000
0310
0020
0000
0031
0002
,
0000
0000
0003
2000
,
3020
0000
0032
0203
0000
2300
0000
3020
,
0000
0000
0000
0000
0000
0000
0030
0000
1001
0000
0000
1001
0000
0000
1001
0000
,
0011
0000
0000
0100
1010
0100
1001
0120
,
1000
0100
0031
0100
1001
0000
1100
1100
,
0201
0010
1000
0310
2001
3010
0110
0120
,
1000
0001
0100
1030
0101
0010
0100
1100
,
0101
0010
1100
1100
0010
0000
0101
0010
,
1100
0010
0100
0001
1100
0010
0100
0010
,
2100
0010
0001
3100
0010
0100
1001
1001
,
2010
3100
0011
2100
3010
0120
1030
0100
,
2001
0000
0000
3100
0011
0100
0110
2100
,
0010
0001
3100
0010
1001
0000
1000
0201
,
1000
0310
1000
0001
0110
0000
0100
0100
,
2001
0100
0010
3001
0110
1000
0100
1000
,
0011
0000
1100
0120
0031
0000
1100
0001
,
1010
0100
0001
1000
0101
0010
0100
1000
,
0110
1000
0100
0001
0101
1000
0011
0021
,
0100
1030
1100
1000
0101
0010
1000
0102
,
0000
0020
0000
0003
0000
0000
0000
0030
,
1100
0000
0000
0100
0000
0000
0100
0000
1010
0000
0100
0000
0001
0000
1000
0000
,
0110
0001
1000
0010
0101
1000
0001
0100
,
1001
0100
0010
0100
0011
0100
1000
0010
,
0101
0000
0000
0000
;

//---------------dance-single - Copied from Copied f----------------
#NOTES:
     dance-single:
     Copied from Copied f:
     Medium:
     4:
     0.308,0.367,0.490,0.245,0.000,267.000,92.000,46.000,0.000,0.000:
0000
0000
0000
0000
,
2001
0000
0001
3000
,
0102
0000
0100
0003
,
0210
0000
0010
0300
,
1020
1030
0001
0010
,
1001
0001
0100
0100
,
0011
0010
1000
1000
,
1100
0100
0011
0001
,
0101
0100
1001
0001
,
1001
0010
0200
0301
,
1000
0010
0200
0310
,
1000
0001
1000
0010
,
0001
1000
0010
0100
,
1001
0001
1100
0000
,
0110
0001
0010
0100
,
1200
1300
1001
0000
,
1010
0001
0100
0010
,
1100
0010
0200
1300
,
0001
0100
0002
1003
,
1000
0010
1001
0110
,
1001
0010
0001
0100
,
0011
1000
0200
0301
,
0010
1000
2000
3001
,
2002
3003
0010
1000
,
0010
0100
0001
0010
,
2010
0000
0010
3000
,
0102
0000
0100
0003
,
0201
0000
0001
0300
,
2001
0000
0001
3000
,
1020
0000
1000
0030
,
0210
0000
0010
0300
,
2001
0000
0001
3000
,
0011
1010
0110
1001
,
0101
0000
0000
0000
,
2001
0000
3001
0010
,
0100
0010
1000
0100
,
0012
0000
0010
0103
,
1001
0010
0100
0010
,
0110
0001
1000
0100
,
1010
0100
0001
0010
,
0110
0001
0010
1000
,
0101
1010
0101
1010
,
2100
0000
0100
3001
,
0011
0100
0010
0001
,
1010
0001
0010
0100
,
1001
0100
0010
1000
,
1001
0000
1001
0000
,
0011
0100
1000
0010
,
1100
0001
0010
0100
,
0022
0033
2200
3300
,
2002
0000
0000
0000
,
3003
0000
0000
0000
,
1000
1000
1000
1000
,
1000
1000
1000
1000
,
0001
0001
0001
0001
,
0001
0001
0001
0001
,
0010
0010
0010
0010
,
0010
0010
0010
0010
,
0100
0100
0100
0100
,
2002
0000
0000
0000
,
0000
3003
0000
0000
0000
0000
0000
0000
,
1001
0010
2001
3001
,
0101
0001
0210
0310
,
1010
0001
1002
1003
,
0110
1000
0201
0301
,
0011
1000
2001
3010
,
0101
1000
0120
1030
,
1010
0100
0021
0031
,
1001
0110
1001
0110
,
1001
0010
0201
0301
,
0011
0100
2100
3010
,
0110
1000
2001
3001
,
0101
0010
0201
0310
,
1001
0100
2001
3001
,
0110
0001
1200
1300
,
1001
0010
1001
0100
,
0001
0010
0100
1000
,
0202
0000
0000
0000
,
0000
0000
0303
0000
,
1001
1000
0001
0100
,
0010
1000
0001
0010
,
1001
0000
0000
0000
;
