#TITLE:Come Home;
#SUBTITLE:(2016 Update);
#ARTIST:Ganar;
#TITLETRANSLIT:;
#SUBTITLETRANSLIT:;
#ARTISTTRANSLIT:;
#CREDIT:;
#BANNER:BN.png;
#BACKGROUND:BG.png;
#LYRICSPATH:;
#CDTITLE:../CDTitleKIRBY.png;
#MUSIC:Come Home (2016 Update) - Ganar.ogg;
#OFFSET:-0.197;
#SAMPLESTART:84.550;
#SAMPLELENGTH:29.999;
#SELECTABLE:YES;
#BPMS:0.000=170.000;
#STOPS:;
#BGCHANGES:;
// cache tags:
#FIRSTBEAT:1.000;
#LASTBEAT:687.250;
#SONGFILENAME:Songs/Index Tesseract/Come Home - [Kirby5464]/Come Home.sm;
#HASMUSIC:1;
#HASBANNER:1;
#MUSICLENGTH:244.271;
// end cache tags

//---------------dance-single - ----------------
#NOTES:
     dance-single:
     :
     Challenge:
     14:
     0.916,1.000,0.070,0.925,0.876,1297.000,17.000,226.000,0.000,0.000:
0000
0000
0001
0010
0100
1000
0001
0010
,
0001
1000
0100
1000
0001
0010
0100
0010
,
0001
1000
0100
1000
0001
0100
0010
2000
,
3002
0023
0230
2300
3002
0203
0320
0000
,
0000
0000
0000
0000
,
0000
0000
0000
0230
,
0000
0000
0000
0000
,
0000
0000
0000
2300
,
0000
0000
0000
0000
,
0000
0000
0000
0000
0000
0000
3002
2003
,
3002
0023
0230
2300
3002
0023
0032
2003
,
3200
0320
0230
2300
3002
0203
0302
0000
,
0000
2003
0000
3020
,
0000
0230
0000
0302
,
0000
2003
0000
3200
,
0000
0320
0000
0032
,
0000
2003
0000
3020
,
0000
0230
0000
0302
,
0000
0023
0000
0230
,
0000
2300
0000
3002
,
0000
0203
0000
0302
,
0000
2003
0000
3020
,
0000
0230
0000
0302
,
0000
2003
0000
3020
,
0000
2030
0000
3002
,
0000
0023
0000
0230
,
0000
0000
2300
0000
0000
0000
3002
0203
,
0320
2030
3200
0320
0032
2003
3001
0100
,
0001
1000
0100
1000
0001
0010
0100
0010
,
0001
1000
0010
0100
0001
0010
0100
1000
,
0001
0010
0001
1000
0100
1000
0001
0010
,
0100
1000
0001
0010
0001
1000
0010
1000
,
0001
0010
0001
1000
0100
0010
0100
1000
,
0001
0100
0010
1000
0100
0010
0001
1000
,
0100
1000
0001
0010
0001
1000
0100
0010
,
0001
1000
0100
1000
0001
0100
0001
0010
,
0100
1000
0001
0100
0010
1000
0100
0010
,
0100
1000
0001
0100
0001
0010
0100
1000
,
0001
0010
0001
1000
0100
1000
0010
0100
,
0010
1000
0100
0010
0001
1000
0010
0100
,
0001
0010
0100
0010
0001
1000
0010
1000
,
0100
0010
0001
1000
0100
1000
0001
0010
,
0001
1000
0010
0100
0001
0010
0100
1000
,
0002
0203
0320
2030
3002
0023
0032
2003
,
3020
0000
0230
0302
0023
0230
0000
2300
,
3020
0230
0000
0302
4003
3000
0020
0230
,
0302
0000
2003
3200
2300
3020
0000
0230
,
0302
2003
0000
3002
0023
0032
0003
2000
,
3020
0000
0230
0302
0023
0230
0000
2300
,
3020
2030
0000
3002
0403
0300
0000
0002
,
2003
0000
3020
0230
0302
0023
0000
0032
,
2003
3002
0000
0203
0320
2030
3001
0000
,
0101
0110
1010
0011
,
1100
0110
1001
0101
,
1100
0011
0110
1001
,
1010
0000
0101
0000
0110
0000
1000
0100
,
0010
0000
0001
0000
1000
0000
0000
0010
0000
0000
0100
0000
0001
0000
0010
0000
,
0100
0000
1000
0000
0001
0000
0000
0100
0000
0000
0001
0000
1000
0100
0010
0001
,
1000
0010
0100
0001
1000
0001
0010
0100
1000
0001
0010
0001
1000
0000
0040
0000
,
0430
0000
0304
0000
1003
0000
0100
0000
0020
0000
0032
0000
1003
0010
0100
0001
,
0010
0001
1000
0100
0010
0100
1000
0001
0010
0100
1000
0010
0100
0010
1000
0100
,
1000
0001
0010
0001
1000
0100
0010
0001
4000
0000
3000
0000
0010
0100
0001
0010
,
0100
0010
0001
1000
0100
1000
0001
0010
0001
1000
0010
1000
0100
0010
0001
1000
,
0010
0100
0001
1000
0001
0100
0020
0000
2030
0000
3002
0000
0103
0010
1000
0100
,
0010
0001
1000
0100
0010
0100
1000
0001
0100
0001
0010
0100
1000
0001
0010
0001
,
1000
0100
1000
0010
0100
0010
1000
0001
0400
0000
0300
0000
0001
0010
0100
1000
,
0001
0100
0010
1000
0001
1000
0100
0010
0001
1000
0100
1000
0001
0010
0100
0010
,
0001
1000
0010
1000
0100
0010
0002
0000
2003
0000
3020
0000
0130
0010
1000
0100
,
0010
0001
1000
0100
0010
0100
1000
0001
0100
0001
0010
0100
1000
0001
0010
0001
,
1000
0100
1000
0010
0100
0010
1000
0001
4000
0000
3000
0000
0001
0010
0100
1000
,
0001
0100
0010
1000
0001
1000
0100
0010
0001
1000
0100
1000
0001
0010
0100
0010
,
0001
1000
0010
1000
0100
0010
0002
0000
2003
0000
3020
0000
1030
0100
0010
0001
,
0100
0010
1000
0100
0010
0100
1000
0001
0010
0100
1000
0010
0100
0010
1000
0100
,
1000
0001
0010
0001
1000
0100
0010
0001
0400
0000
0300
0000
0010
0100
0001
0010
,
0100
0010
0001
1000
0100
1000
0001
0010
0002
0000
2003
0000
3200
0000
0320
0000
,
0032
0000
2003
0000
3002
0000
0203
0000
0320
0000
2030
0000
3010
0100
0001
0010
,
0100
1000
0001
0010
0100
0010
0001
1000
0010
1000
0100
0010
0001
1000
0100
1000
,
0001
0010
0001
0100
0010
0100
0001
1000
0040
0000
0030
0000
1000
0100
0010
0001
,
1000
0010
0100
0001
1000
0001
0010
0100
1000
0001
0010
0001
1000
0100
0010
0100
,
1000
0001
0100
0001
0010
0100
2000
0000
3002
0000
0203
0000
0310
0100
0001
0010
,
0100
1000
0001
0010
0100
0010
0001
1000
0010
1000
0100
0010
0001
1000
0100
1000
,
0001
0010
0001
0100
0010
0100
0001
1000
0004
0000
0003
0000
1000
0100
0010
0001
,
1000
0010
0100
0001
1000
0001
0010
0100
1000
0001
0010
0001
1000
0100
0010
0100
,
1000
0001
0100
0001
0010
0100
2000
0000
3002
0000
0203
0000
0301
0010
0001
1000
,
0010
1000
0001
0010
0100
0010
0001
1000
0100
0010
0001
0100
0010
0100
0001
0010
,
0001
1000
0100
1000
0001
0010
0100
1000
0040
0000
0030
0000
0100
0010
1000
0100
,
0010
0100
1000
0001
0010
0001
1000
0100
1000
0001
0100
0001
0010
0100
1000
0001
,
0100
0010
1000
0001
1000
0010
0200
0000
0302
0000
2003
0000
3010
0100
0001
0010
,
0100
1000
0001
0010
0100
0010
0001
1000
0010
1000
0100
0010
0001
1000
0100
1000
,
0001
0010
0001
0100
0010
0100
0001
1000
0004
0000
0003
0000
1000
0100
0010
0001
,
1000
0010
0100
0001
1000
0001
0010
0100
1000
0001
0010
0001
1000
0000
0010
0000
,
1000
0001
0100
0020
2030
3002
0203
0000
,
0000
0000
0000
0000
,
0000
0000
0000
0320
,
0000
0000
0000
0000
,
0000
0000
0000
2030
,
0000
0000
0000
0000
,
0000
0000
0000
3002
,
0000
0000
0000
0000
,
0000
0000
0000
0023
,
0000
0000
0000
0000
,
0000
0000
0000
0230
,
0000
0000
0000
0000
,
0000
0000
0000
2300
,
0000
0000
0000
0000
,
0000
0000
0000
3002
,
0000
0000
0000
0000
,
0000
0000
0000
0023
,
0000
0000
0000
0000
,
0000
0000
0000
0230
,
0000
0000
0000
0000
,
0000
0000
0000
0320
,
0000
0000
0000
0000
,
0000
0000
0000
0032
,
0000
0000
0000
0000
0000
0000
2003
3200
,
0320
0032
2003
3020
2030
3002
0203
0000
,
0000
0000
0000
0000
,
0000
0000
0000
0302
,
0000
0000
0000
0000
,
0000
0000
0000
0023
,
0000
0000
0000
0000
,
0000
0000
0000
0230
,
0000
0000
0000
0000
,
0000
0000
0000
1300
,
0000
0001
0000
0100
,
0000
0010
0000
1000
,
0000
0100
0000
0010
,
0000
0001
0000
1000
,
0000
0100
0000
0010
,
0000
0100
0000
1000
,
0001
0010
0100
1000
,
0001
0000
0100
0000
0001
0000
2000
3002
,
0203
0000
0320
2030
3200
0320
0000
0032
,
0203
0320
0000
2030
3004
0003
0200
0320
,
2030
0000
3002
0023
0032
0203
0000
0320
,
2030
3002
0000
2003
3020
0000
0130
0001
,
1000
0000
0010
0000
0100
0000
0000
0001
0000
0000
1000
0000
0100
0000
0010
0000
,
0001
0000
1000
0000
0010
0000
0000
0100
0000
0000
0010
0000
1000
0100
0010
0001
,
1000
0010
0100
0001
0010
0100
0010
0001
1000
0010
1000
0001
0100
0000
0040
0000
,
4030
0000
3400
0000
0340
0000
0034
0000
0403
0000
0340
0000
1030
0001
1000
0100
,
0010
0001
1000
0100
0010
0100
1000
0001
0100
0001
0010
0100
1000
0001
0010
0001
,
1000
0100
1000
0010
0100
0010
1000
0001
0400
0000
0300
0000
0001
0010
0100
1000
,
0001
0100
0010
1000
0001
1000
0100
0010
0001
1000
0100
1000
0001
0010
0100
0010
,
0001
1000
0010
1000
0100
0010
0002
0000
2003
0000
3020
0000
1030
0100
0010
0001
,
0100
0010
1000
0100
0010
0100
1000
0001
0010
0100
1000
0010
0100
0010
1000
0100
,
1000
0001
0010
0001
1000
0100
0010
0001
4000
0000
3000
0000
0010
0100
0001
0010
,
0100
0010
0001
1000
0100
1000
0001
0010
0001
1000
0010
0100
0001
1000
0001
0010
,
0100
1000
0001
0100
0010
1000
0002
0000
0203
0000
0320
0000
0130
0010
1000
0100
,
0010
0001
1000
0100
0010
0100
1000
0001
0100
0001
0010
0100
1000
0001
0010
0001
,
1000
0100
1000
0010
0100
0010
1000
0001
0400
0000
0300
0000
0001
0010
0100
1000
,
0001
0100
0010
1000
0001
1000
0100
0010
0001
1000
0100
1000
0001
0010
0100
0010
,
0001
1000
0010
1000
0100
0010
0002
0000
2003
0000
3020
0000
0130
0010
1000
0100
,
0010
0001
1000
0100
0010
0100
1000
0001
0100
0001
0010
0100
1000
0001
0010
0001
,
1000
0100
1000
0010
0100
0010
1000
0001
4000
0000
3000
0000
0001
0010
0100
1000
,
0001
0100
0010
1000
0001
1000
0100
0010
0001
1000
0100
1000
0002
0000
0023
0000
,
0032
0000
2003
0000
3020
0000
2030
0000
3002
0000
0203
0000
0310
0100
0001
0010
,
0100
1000
0001
0010
0100
0010
0001
1000
0010
1000
0100
0010
0001
1000
0100
1000
,
0001
0010
0001
0100
0010
0100
0001
1000
0040
0000
0030
0000
1000
0100
0010
0001
,
1000
0010
0100
0001
1000
0001
0010
0100
1000
0001
0010
0001
1000
0100
0010
0100
,
1000
0001
0100
0001
0010
0100
2000
0000
3002
0000
0203
0000
0301
0010
0100
1000
,
0010
0100
0001
0010
0100
0010
0001
1000
0100
0010
0001
0100
0010
0100
0001
0010
,
0001
1000
0100
1000
0001
0010
0100
1000
0004
0000
0003
0000
0100
0010
1000
0100
,
0010
0100
1000
0001
0010
0001
1000
0100
1000
0010
0100
0001
0010
0100
1000
0001
,
0010
0100
0010
0001
1000
0010
0200
0000
0302
0000
2003
0000
3010
0100
0001
0010
,
0100
1000
0001
0010
0100
0010
0001
1000
0010
1000
0100
0010
0001
1000
0100
1000
,
0001
0010
0001
0100
0010
0100
0001
1000
0040
0000
0030
0000
1000
0100
0010
0001
,
1000
0010
0100
0001
1000
0001
0010
0100
1000
0001
0010
0001
1000
0100
0010
0100
,
1000
0001
0100
0001
0010
0100
2000
0000
3002
0000
0203
0000
0310
0100
0001
0010
,
0100
1000
0001
0010
0100
0010
0001
1000
0010
1000
0100
0010
0001
1000
0100
1000
,
0001
0010
0001
0100
0010
0100
0001
1000
0004
0000
0003
0000
1000
0100
0010
0001
,
1000
0010
0100
0001
1000
0001
0010
0100
1000
0000
0001
0000
0100
0000
0010
0000
,
1000
0000
0001
0000
0100
0000
0020
0000
2030
0000
3002
0000
2003
3000
0000
0000
,
0000
0000
0000
0000
;
