#TITLE:Genom Eld Och Vatten;
#SUBTITLE:;
#ARTIST:Sarek;
#TITLETRANSLIT:;
#SUBTITLETRANSLIT:;
#ARTISTTRANSLIT:;
#CREDIT:;
#BANNER:Genom eld och vatten.jpg;
#BACKGROUND:Genom eld och vatten bg.jpg;
#LYRICSPATH:;
#CDTITLE:Izzy MiniLittle copy.png;
#MUSIC:Genom Eld och Vatten - Sarek.mp3;
#OFFSET:0.000;
#SAMPLESTART:42.533;
#SAMPLELENGTH:12.000;
#SELECTABLE:YES;
#BPMS:0.000=141.000;
#STOPS:;
#BGCHANGES:0.000=Genom Eld och Vatten.avi=1.000=1=1=0,
444.000=Genom eld och vatten bg.jpg=1.000=0=0=1,
99999=-nosongbg-=1.000=0=0=0 // don't automatically add -songbackground-
;
// cache tags:
#FIRSTBEAT:24.500;
#LASTBEAT:444.000;
#SONGFILENAME:Songs/Izzy/Genom Eld och Vatten/Genom Eld och Vatten.sm;
#HASMUSIC:1;
#HASBANNER:1;
#MUSICLENGTH:196.649;
// end cache tags

//---------------dance-single - ----------------
#NOTES:
     dance-single:
     :
     Hard:
     7:
     0.527,0.564,0.605,0.168,0.008,573.000,119.000,33.000,0.000,0.000:
0000
0000
0000
0000
,
0000
0000
0000
0000
,
0000
0000
0000
0000
,
0000
0000
0000
0000
,
0000
0000
0000
0000
,
0000
0000
0000
0000
,
0000
2000
0000
0000
3200
0000
0000
0000
,
0000
0000
0310
0000
0001
0000
0010
0000
0000
0000
0000
0000
0000
0100
1000
0000
,
0000
0110
0000
0000
0000
0000
0000
1001
,
0000
0000
0000
0000
0000
0000
1000
0100
,
1000
0000
0100
0000
0010
0000
0001
0010
,
0100
0000
0100
0000
0010
0001
0010
0100
,
1000
0100
0010
0001
,
1001
1000
0100
0001
0100
1000
0010
0001
,
0010
1000
0100
0001
0100
1000
0010
0001
,
0010
1000
0100
0010
0001
0010
0100
1000
,
0001
0100
0010
1000
0010
0100
0001
0010
,
0100
1000
0010
0100
0001
1000
0001
0001
,
0010
0010
0100
0100
1000
1000
1000
0100
,
0010
0001
0010
0100
1000
0100
0010
0001
,
2002
0000
3003
0000
,
0000
1010
0101
0110
0000
0001
0100
0010
,
1000
0100
0001
0010
0100
1000
0001
0010
,
1000
0100
0010
0100
0010
0100
1000
0001
,
1000
0001
1000
0001
0010
0100
1000
0010
,
0100
0001
0010
0100
1000
0100
0010
0001
,
0100
0010
0100
0001
1000
0001
0100
0010
,
0100
0001
0010
0100
0010
0100
1000
0001
,
1001
0000
0000
0000
,
0000
1100
0011
1001
0000
0001
0010
0100
,
1000
0100
1000
0100
1000
0100
0010
0001
,
0010
0001
0010
0100
0001
1000
0100
0010
,
0001
0100
0010
1000
0001
0100
0001
0010
,
0001
0100
0010
1000
0100
1000
0010
0100
,
0001
0010
0100
1000
0100
0001
0001
0010
,
0010
0100
0100
1000
1000
0100
0001
0010
,
0100
0001
1000
0001
0010
0100
1000
0100
,
1001
0001
0001
0001
0001
0000
0010
0100
,
0110
0000
0001
0000
1000
0000
0100
0010
,
0001
0100
0010
1000
,
2000
0000
0000
0001
3010
0000
0100
0000
,
2002
0000
0000
0000
3003
0000
1100
0110
,
0022
0000
0033
1010
0101
0000
1100
0000
,
0011
0110
1001
0110
,
1001
0000
0000
0000
0000
0000
1000
0001
,
0100
0000
0010
0100
0010
0000
1000
0000
0001
0000
0000
0000
0010
0000
0100
0000
,
1001
0000
0011
0000
1100
0000
0001
0100
,
0010
1100
0110
0011
,
2000
0000
0000
0001
3010
0000
0110
0000
,
1001
0000
0000
0000
0000
0000
0100
0100
,
0200
0000
0300
0010
0001
0000
1000
0000
,
0011
0101
0110
1001
,
1010
1100
0110
1001
,
2002
0000
3003
0010
,
0010
0100
0100
0001
,
1000
0100
0010
0100
1000
0000
0000
0001
,
0010
0100
0010
0001
0010
0000
0100
0000
,
1000
0100
0010
0001
0110
0000
1000
0100
,
0010
0001
0010
0100
1000
0010
0100
0001
,
0010
0100
1000
0100
0010
0001
0100
0010
,
1000
0100
1000
0010
1000
0001
1000
0010
,
1000
0100
1000
0100
1000
0100
0010
0001
,
0010
0001
0100
0010
0100
0010
1000
0001
,
1000
0001
0010
0100
0010
0001
1000
0100
,
2002
0000
0000
3003
,
0000
1001
0110
1001
0000
0001
0010
0100
,
1000
0100
1000
0100
1000
0100
0010
0001
,
0010
0001
0010
0100
0001
1000
0100
0010
,
0001
0100
0010
1000
0001
0100
0001
0010
,
0001
0100
0010
1000
0100
1000
0010
0100
,
0001
0010
0100
1000
0100
0001
0001
0010
,
0010
0100
0100
1000
1000
0100
0001
0010
,
0100
0001
1000
0001
0010
0100
1000
0100
,
1001
0001
0001
0001
0001
0000
0010
0100
,
0110
0000
0001
0000
1000
0000
0100
0010
,
0001
0100
0010
1000
,
2000
0000
0000
0001
3010
0000
0100
0000
,
2002
0000
0000
0000
3003
0000
1100
0110
,
0022
0000
0033
1010
0101
0000
1100
0000
,
0011
0110
1001
0110
,
1001
0000
0000
0000
0000
0000
1000
0001
,
0100
0000
0010
0100
0010
0000
1000
0000
0001
0000
0000
0000
0010
0000
0100
0000
,
1001
0000
0011
0000
1100
0000
0001
0100
,
0010
1100
0110
0011
,
2000
0000
0000
0001
3010
0000
0110
0000
,
1001
0000
0000
0000
0000
0000
0100
0100
,
0200
0000
0300
0010
0001
0000
1000
0000
,
0011
0101
0110
1001
,
1010
1100
0110
1001
,
2002
0000
3003
0001
,
0001
1000
1000
0110
,
0001
0010
0100
1000
1001
0000
0000
1000
,
0100
0010
0001
0010
0100
0000
1000
0000
,
0010
0100
0001
1000
0110
0000
0001
0000
,
1001
0010
0110
1000
,
1000
0100
0010
0100
1000
0000
0000
0001
,
0001
0010
0100
0010
0001
0000
1001
0000
,
0001
0001
0001
0001
0001
1001
0110
1001
,
0110
1001
0110
1001
1001
0000
0001
0000
,
1000
0000
0100
0010
0001
0000
0100
0000
,
0010
0000
1000
0000
2000
0000
0000
0001
,
3010
0100
2002
0000
,
3003
0000
1100
0110
0022
0000
0033
1010
,
0101
1100
0011
0110
,
1001
0110
1001
0011
,
1100
0110
2002
0000
,
3003
0000
0001
0001
0001
0000
0000
0100
,
1000
0110
0011
1100
,
0101
1010
0110
0101
,
1010
1001
0110
0000
,
2002
0000
0000
0000
,
3003
0000
0000
0000
;

//---------------dance-single - Standard----------------
#NOTES:
     dance-single:
     Standard:
     Medium:
     5:
     0.363,0.423,0.102,0.122,0.003,456.000,20.000,24.000,0.000,0.000:
0000
0000
0000
0000
,
0000
0000
0000
0000
,
0000
0000
0000
0000
,
0000
0000
0000
0000
,
0000
0000
0000
0000
,
0000
0000
0000
0000
,
0000
2000
0000
0000
3200
0000
0000
0000
,
0000
0000
0310
0000
0001
0000
0010
0000
0000
0000
0000
0000
0000
0100
1000
0000
,
0000
0110
0000
0000
0000
0000
0000
1001
,
0000
0000
0000
0000
0000
0000
1000
0100
,
1000
0100
0010
0001
,
0100
0000
0100
0000
0010
0000
0010
0100
,
1000
0100
0010
0001
,
1001
0000
0100
0000
0100
0000
0010
0001
,
0010
0000
0100
0000
0100
0000
0100
1000
,
0100
0100
0001
0100
,
0001
0010
0010
0001
,
0100
0010
0010
0010
0000
0000
0001
1000
,
0001
0100
1000
1000
,
0010
0010
1000
0010
,
2002
0000
3003
0000
,
0000
1000
0100
0010
0000
0000
0100
0010
,
1000
0000
0001
0010
0100
0000
0001
0010
,
1000
0000
0010
0100
0010
0000
0000
1000
,
1000
0000
0000
0001
0010
0000
0100
0000
,
1000
0100
0010
0001
0000
0000
0010
0001
,
0100
0000
0100
0000
1000
0000
0100
0010
,
0100
0010
0010
1000
,
1001
0000
0000
0000
,
0000
0001
0010
0100
0000
0001
0010
0100
,
1000
0000
1000
0000
1000
0000
0010
1000
,
0010
1000
0010
0100
0001
0000
0100
0010
,
0001
0000
0000
0001
0100
0000
0001
0000
,
0001
0100
0010
1000
0100
0000
0010
0100
,
0001
0000
0100
1000
0100
0000
0001
0010
,
0010
0000
0100
1000
1000
0000
0001
0100
,
0001
0000
0000
0001
0010
0000
1000
0000
,
0001
1000
0001
1000
0001
0000
0010
1000
,
0010
0000
0001
0000
1000
0000
0100
0010
,
0001
0100
0010
1000
,
1000
0000
0000
0001
0010
0000
0100
0000
,
2002
0000
0000
0000
3003
0000
1000
0100
,
0020
0000
0030
0001
0100
0000
1000
0000
,
0100
0010
0001
0010
,
1001
0000
0000
0000
0000
0000
1000
0001
,
0100
0010
0100
0001
1000
0000
0010
0100
,
0010
0000
0001
0000
1000
0000
0010
0100
,
0010
0100
0010
0001
,
1000
0000
0000
0001
0010
0000
0001
0000
,
1000
0000
0000
0000
0000
0000
0100
0010
,
0100
0000
0000
0010
0001
0000
1000
0000
,
0110
0001
0010
0100
,
1000
0100
0010
0001
,
2002
0000
3003
0010
,
0010
0100
0100
0001
,
1000
0010
1000
0000
,
0001
0010
0010
0100
,
1000
0000
0010
0000
1001
0000
1000
0100
,
0010
0000
0001
0010
0100
0000
0100
0001
,
0010
0000
1000
0100
0000
0000
0000
0000
,
2000
0000
3000
0001
1000
0000
0001
0000
,
1000
0100
1000
0100
0000
0000
0010
0000
,
0010
0100
0100
1000
,
1000
0000
0010
0100
0000
0000
1000
0000
,
2002
0000
0000
3003
,
0000
0010
0100
0010
0000
0001
0010
0100
,
1000
0000
1000
0000
1000
0000
0010
0001
,
0010
0001
0010
0100
0001
0000
0100
0010
,
0001
0000
0000
0001
0001
0000
0100
0000
,
0010
0000
0010
1000
0100
0000
0100
0100
,
0001
0000
0100
1000
0100
0000
0001
0010
,
0100
0000
1000
0100
1000
0000
0001
0010
,
0001
0000
0000
0100
0010
0000
0100
0000
,
0001
1000
0001
1000
0001
0000
0010
1000
,
0010
0000
0001
0000
1000
0000
0100
0010
,
0001
0100
0010
1000
,
1000
0000
0000
0001
0010
0000
0100
0000
,
2002
0000
0000
0000
3003
0000
1000
0100
,
0020
0000
0030
0001
0100
0000
1000
0000
,
0100
0010
0001
0010
,
1001
0000
0000
0000
0000
0000
1000
0001
,
0100
0010
0100
0001
1000
0000
0010
0100
,
0010
0000
0001
0000
1000
0000
0010
0100
,
0010
0100
0010
0001
,
1000
0000
0000
0001
0010
0000
0001
0000
,
1000
0000
0000
0000
0000
0000
0100
0010
,
0100
0000
0000
0010
0001
0000
1000
0000
,
0110
0001
0010
0100
,
1000
0100
0010
0001
,
2002
0000
3003
0001
,
0001
1000
1000
0010
,
0001
0000
0100
0010
0001
0000
0000
0000
,
1000
0000
0001
0010
0100
0000
1000
0000
,
0010
0100
0001
1000
0010
0000
0001
0000
,
1000
0010
0100
1000
,
1000
0000
0010
0100
0001
0000
0000
0000
,
0001
0000
0100
0010
0001
0000
1001
0000
,
0001
0001
0001
0001
0001
1000
0001
1000
,
0001
1000
0010
1000
0010
0000
0001
0000
,
1000
0000
0100
0010
0001
0000
0100
0000
,
0010
0000
1000
0000
1000
0000
0000
0001
,
0010
0100
2002
0000
,
3003
0000
1000
0100
0020
0000
0030
0001
,
0100
1000
0100
0010
,
0001
0010
0100
1000
,
0100
0110
2002
0000
,
3003
0000
0001
1000
0001
0000
0000
0100
,
1000
1000
0100
0010
,
0001
0010
0100
1000
,
0100
0010
0001
0000
,
2002
0000
0000
0000
,
3003
0000
0000
0000
;

//---------------dance-single - Light----------------
#NOTES:
     dance-single:
     Light:
     Easy:
     4:
     0.283,0.310,0.092,0.122,0.000,347.000,18.000,24.000,0.000,0.000:
0000
0000
0000
0000
,
0000
0000
0000
0000
,
0000
0000
0000
0000
,
0000
0000
0000
0000
,
0000
0000
0000
0000
,
0000
0000
0000
0000
,
0000
2000
0000
0000
3200
0000
0000
0000
,
0000
0310
0000
0010
0000
0000
0000
1000
,
0000
0010
0000
0000
0000
0000
0000
1001
,
0000
0000
0000
1000
,
1000
0100
0010
0001
,
0100
0100
0010
0010
,
1000
0100
0010
0001
,
1000
0100
0100
0010
,
0010
0100
0100
0100
,
0100
0100
0001
0100
,
0001
0010
0010
0001
,
0100
0010
0000
0001
,
0001
0100
1000
1000
,
0010
0010
1000
0010
,
2002
0000
3003
0000
,
0000
0100
0010
0100
,
1000
0001
0100
0001
,
1000
0010
0010
0000
,
1000
0000
0010
0100
,
1000
0010
0000
0010
,
0100
0100
1000
0100
,
0100
0010
0010
1000
,
1001
0000
0000
0000
,
0000
0010
0000
0010
,
1000
1000
1000
0010
,
0010
0010
0001
0100
,
0001
0000
0100
0001
,
0001
0010
0100
0010
,
0001
0100
0100
0001
,
0010
0100
1000
0001
,
0001
0000
0010
1000
,
0001
0001
0001
0010
,
0010
0001
1000
0100
,
0001
0100
0010
1000
,
1000
0000
0010
0100
,
2002
0000
3003
1000
,
0020
0030
0100
1000
,
0100
0010
0001
0010
,
1001
0000
0000
1000
,
0100
0100
1000
0010
,
0010
0001
1000
0010
,
0010
0100
0010
0001
,
1000
0000
0010
0001
,
1000
0000
0000
0100
,
0100
0000
0001
1000
,
0110
0001
0010
0100
,
1000
0100
0010
0001
,
2002
0000
3003
0010
,
0010
0100
0100
0001
,
1000
0010
1000
0000
,
0001
0010
0010
0100
,
1000
0010
1001
1000
,
0010
0001
0100
0100
,
0010
1000
0000
0000
,
2000
3000
1000
0001
,
1000
1000
0000
0010
,
0010
0100
0100
1000
,
1000
0010
0000
1000
,
2002
0000
0000
3003
,
0000
0100
0000
0010
,
1000
1000
1000
0010
,
0010
0010
0001
0100
,
0001
0000
0001
0100
,
0010
0010
0100
0100
,
0001
0100
0100
0001
,
0100
1000
1000
0001
,
0001
0000
0010
0100
,
0001
0001
0001
0010
,
0010
0001
1000
0100
,
0001
0100
0010
1000
,
1000
0000
0010
0100
,
2002
0000
3003
1000
,
0020
0030
0100
1000
,
0100
0010
0001
0010
,
1001
0000
0000
1000
,
0100
0100
1000
0010
,
0010
0001
1000
0010
,
0010
0100
0010
0001
,
1000
0000
0010
0001
,
1000
0000
0000
0100
,
0100
0000
0001
1000
,
0110
0001
0010
0100
,
1000
0100
0010
0001
,
2002
0000
3003
0001
,
0001
1000
1000
0010
,
0001
0100
0001
0000
,
1000
0001
0100
1000
,
0010
0001
0010
0001
,
1000
0010
0100
1000
,
1000
0010
0001
0000
,
0001
0100
0001
1001
,
0001
0001
0001
0001
,
0001
0010
0010
0001
,
1000
0100
0001
0100
,
0010
1000
1000
0000
,
0010
0100
2002
0000
,
3003
1000
0020
0030
,
0100
1000
0100
0010
,
0001
0010
0100
1000
,
0100
0110
2002
0000
,
3003
0001
0001
0000
,
1000
1000
0100
0010
,
0001
0010
0100
1000
,
0100
0010
0001
0000
,
2002
0000
0000
0000
,
3003
0000
0000
0000
;

//---------------dance-single - Beginner----------------
#NOTES:
     dance-single:
     Beginner:
     Beginner:
     2:
     0.160,0.168,0.076,0.000,0.000,205.000,15.000,0.000,0.000,0.000:
0000
0000
0000
0000
,
0000
0000
0000
0000
,
0000
0000
0000
0000
,
0000
0000
0000
0000
,
0000
0000
0000
0000
,
0000
0000
0000
0000
,
0000
0000
0100
0000
,
0000
0000
0000
0000
,
0000
0000
0010
0000
0000
0000
0000
1001
,
0000
0000
0000
1000
,
0000
0100
0000
0001
,
0000
0100
0000
0010
,
0000
0100
0000
0001
,
0001
0000
0010
0000
,
0100
0000
0100
0000
,
0100
0000
0100
0000
,
0010
0000
0001
0000
,
0010
0000
0001
0000
,
1000
0000
1000
0000
,
0010
0000
1000
0000
,
1001
0000
0010
0000
,
0100
0000
0001
0000
,
1000
0000
0100
0000
,
1000
0000
0010
0000
,
1000
0000
0010
0000
,
1000
0000
0100
0000
,
0100
0000
1000
0000
,
0100
0000
0010
0000
,
0110
0000
1000
0000
,
0010
0000
0001
0000
,
1000
0000
1000
0000
,
0010
0000
0001
0000
,
0001
0000
0100
0000
,
0001
0000
0100
0000
,
0001
0000
0100
0000
,
0010
0000
1000
0000
,
0001
0000
0010
0000
,
0001
0000
0001
0000
,
0010
0000
1000
0000
,
0001
0000
0010
0000
,
1000
0000
0010
0000
,
1001
0000
1000
0000
,
0010
0000
0100
0000
,
0100
0000
0001
0000
,
0011
0000
1000
0000
,
0100
0000
1000
0000
,
0010
0000
1000
0000
,
0010
0000
0010
0000
,
1000
0000
0010
0000
,
1000
0000
0001
0000
,
0100
0000
0001
0000
,
0010
0000
0010
0000
,
1000
0000
0010
0000
,
1001
0000
0010
0000
,
0100
0000
0100
0000
,
1000
0000
1000
0000
,
0100
0000
0010
0000
,
1000
0000
1001
0000
,
0010
0000
0100
0000
,
0010
0000
0010
0000
,
1000
0000
1000
0000
,
1000
0000
0001
0000
,
0010
0000
0100
0000
,
1000
0000
0100
0000
,
1001
0000
0001
0000
,
0100
0000
0010
0000
,
1000
0000
1000
0000
,
0010
0000
0001
0000
,
0001
0000
0001
0000
,
0010
0000
0100
0000
,
0001
0000
0100
0000
,
0100
0000
1000
0000
,
0001
0000
0010
0000
,
0001
0000
0001
0000
,
0010
0000
1000
0000
,
0001
0000
0010
0000
,
1000
0000
0010
0000
,
1001
0000
1000
0000
,
0010
0000
0100
0000
,
0100
0000
0001
0000
,
1001
0000
1000
0000
,
0100
0000
1000
0000
,
0010
0000
1000
0000
,
0010
0000
0010
0000
,
1000
0000
0010
0000
,
1000
0000
0100
0000
,
0100
0000
0001
0000
,
0110
0000
0010
0000
,
1000
0000
0010
0000
,
1001
0000
0001
0000
,
0001
0000
1000
0000
,
0001
0000
0001
0000
,
1000
0000
0100
0000
,
0010
0000
0010
0000
,
1000
0000
0100
0000
,
1000
0000
0001
0000
,
0001
0000
0001
0000
,
1000
0000
0001
0000
,
1000
0000
0010
0000
,
1000
0000
0001
0000
,
0010
0000
1000
0000
,
0010
0000
1001
0000
,
1000
0000
0010
0000
,
0100
0000
0100
0000
,
0001
0000
0100
0000
,
0100
0000
1001
0000
,
0001
0000
0001
0000
,
1000
0000
0100
0000
,
0001
0000
0100
0000
,
0100
0000
0001
0000
,
1001
0000
0000
0000
;

//---------------dance-single - Challenge----------------
#NOTES:
     dance-single:
     Challenge:
     Challenge:
     12:
     1.000,1.000,1.000,0.168,1.000,1187.000,404.000,33.000,0.000,7.000:
0000
0000
0000
0000
,
0000
0000
0000
0000
,
0000
0000
0000
0000
,
0000
0000
0000
0000
,
0000
0000
0000
0000
,
0000
0000
0000
0000
,
0000
2002
0000
0000
3223
0000
0000
0000
,
0000
0000
1331
0000
0110
0000
1001
0000
0000
0000
0000
0000
1000
0100
1000
0100
,
0000
0110
0000
0000
0000
0000
0000
1001
,
0000
0000
0000
0000
0000
0000
0000
0000
0000
0000
0000
0000
1000
0100
1000
0100
,
1000
0000
1100
0000
0011
0000
1010
0000
0101
0000
0110
0000
0001
0010
0100
1000
,
0100
1001
0110
1100
0011
0101
1010
0110
,
1001
0011
1100
0011
1100
0110
1001
0110
,
1000
0100
0010
0001
0010
0100
1000
0100
0010
0001
0100
0010
0100
0010
0100
0010
,
0100
0010
0100
0010
1000
0001
1000
0001
1000
0001
1000
0001
1000
0001
1000
0100
,
0010
0100
1000
0100
0010
0001
0010
0100
1000
0100
0010
0100
1000
0100
0010
0001
,
0010
0100
0010
0001
0010
0100
1000
0100
0010
0001
0010
0100
0010
0001
1000
0010
,
0100
0001
1000
0010
0100
0010
1000
0001
0100
0010
1000
0001
0100
0010
0001
1000
,
0100
0010
0001
0010
0100
1000
0001
0010
0100
1000
0100
0010
0100
1000
0010
0100
,
0001
0010
0100
0010
0001
0010
0100
1000
0100
0010
0001
0010
0100
1000
0100
0010
,
2002
0000
0000
0000
3003
1001
0110
1001
,
0110
0000
1001
1001
1001
1001
1001
1001
0000
0000
0000
0000
1000
0100
0010
0100
,
1000
0100
1000
0100
0010
0100
1000
0100
1000
0001
0010
0001
0010
0100
0010
0100
,
0010
0100
1000
0100
0010
0001
0010
0100
0010
0100
0010
0001
1000
0010
0100
0001
,
0100
0010
1000
0001
0010
0100
1000
0100
0010
0100
1000
0001
0100
0010
0100
1000
,
0001
1000
0001
1000
0010
0100
0010
1000
0001
0100
0010
0100
1000
0100
1000
0100
,
0010
0001
0010
0001
0010
0100
0010
0001
0010
0100
0001
1000
0010
0100
0001
1000
,
0010
0100
0001
0100
0010
1000
0001
0100
0010
0001
0010
0100
1000
0100
0010
0001
,
1001
1100
0011
0110
1001
1010
0101
0110
,
1001
0000
0000
0000
0110
0000
0110
0000
0110
0000
0110
0000
0110
0000
0000
0000
0000
0000
0000
0000
0001
0010
0001
0010
0001
0010
0001
0010
0001
0000
0010
0000
,
0100
1000
0100
0010
0001
0010
0100
1000
0100
0010
0001
0010
0100
0010
0001
0100
,
0010
0100
0010
0100
0010
1000
0010
0100
0001
1000
0010
0100
0001
1000
0100
0010
,
0001
0100
0010
1000
0001
0100
0010
0001
0010
0100
1000
0100
0010
0001
0010
0100
,
1000
0010
0100
0010
1000
0100
1000
0001
0010
0001
1000
0100
1000
0001
0010
0001
,
1000
0100
1000
0010
0100
0010
0001
0010
0100
1000
0100
0010
0100
0010
0100
0010
,
0001
0100
0001
0010
0100
1000
0010
0100
0001
0010
0100
1000
0100
0010
0001
0100
,
0010
0100
0001
0010
0001
1000
0100
1000
0100
0010
0001
0010
0100
1000
0100
0010
,
1001
0000
0001
0000
0001
0000
0001
0000
0001
0000
0001
0000
0001
0000
0001
0000
0001
0000
0000
0000
0000
0000
0000
0000
0001
0010
0001
0010
0001
0010
0001
0010
,
0001
0000
0000
0000
1100
0000
0000
0000
0011
0000
0000
0000
0110
0000
0000
0000
1001
0000
0000
0000
0110
0000
0000
0000
1000
0100
1000
0100
1000
0100
1000
0100
,
1000
0000
0000
0000
0101
0000
0000
0000
1010
0000
0000
0000
0110
0000
0000
0000
1001
0000
0000
0000
0110
0000
0000
0000
0001
0010
0001
0010
0001
0010
0001
0010
,
0002
0000
0000
1000
1013
0101
1001
0110
,
2002
0000
0000
0000
0000
0000
0000
0000
0000
0000
0000
0000
0000
0000
0000
0000
3003
0000
0000
0000
0000
0000
0000
0000
1000
0100
1000
0100
1000
0100
1000
0100
,
1000
1001
0110
1010
0101
0011
1100
0011
,
1100
1010
0101
0110
1001
0011
1100
0110
,
1001
0011
1100
1010
0101
0110
1001
1001
,
0110
0000
0000
0000
0010
0100
0010
0100
0010
0000
0000
0000
1001
0000
0000
0000
0110
0000
0000
0000
0000
0000
0000
0000
0001
0010
0001
0010
0001
0010
0001
0010
,
0001
0000
0000
0000
1100
0000
0000
0000
0011
0000
0000
0000
0101
0000
0000
0000
1010
0000
0000
0000
1001
0000
0000
0000
0010
1000
0010
1000
0010
1000
0010
1000
,
0010
0000
0000
0000
0101
0000
0000
0000
1010
0000
0000
0000
0011
0000
0000
0000
1100
0000
0000
0000
1001
0000
0000
0000
0001
0100
0001
0100
0001
0100
0001
0100
,
0002
0000
0000
0100
1013
0101
0011
1100
,
1001
0110
1001
1100
0011
1010
0101
0110
,
0220
0000
0330
1001
0110
1100
0011
1010
,
0101
0110
1001
0011
1100
0101
1010
0110
,
1001
0011
1100
0101
1010
0110
1001
0110
,
2002
0000
0000
0000
0000
0000
0000
0000
0000
0000
0000
0000
0000
0000
0000
0000
3003
0000
0000
0000
0000
0000
0000
0000
0010
1000
0010
1000
0010
1000
0010
1000
,
0010
0000
0000
0000
1001
0000
0000
0000
1100
0000
0000
0000
0011
0000
0000
0000
0101
0000
0000
0000
1010
0000
0000
0000
0001
0100
0001
0100
0001
0100
0001
0100
,
0001
0000
0000
0000
0110
0000
0000
0000
0011
0000
0000
0000
1100
0000
0000
0000
1010
0000
0000
0000
0101
0000
0000
0000
0001
1000
0001
1000
0001
1000
0001
1000
,
0001
0000
0000
0000
0110
0000
0000
0000
0011
0000
0000
0000
1100
0000
0000
0000
1010
0000
0000
0000
0101
0000
0000
0000
1000
0001
1000
0001
1000
0001
1000
0001
,
1000
0110
1001
0110
1001
1100
1100
0011
,
0011
0101
0101
1010
1010
0110
0011
1100
,
1010
0101
1001
0110
0110
1001
1001
0011
,
1100
0101
1010
1010
0101
1001
0110
0011
,
1100
0101
1010
0110
1001
0110
0110
1001
,
1001
0101
1010
0101
1010
0011
1100
0011
,
1100
0011
1100
1010
0101
0110
1001
0110
,
2002
0000
0000
3003
,
0000
0000
0000
0000
1000
0010
1000
0010
1000
0010
1000
0010
1000
0000
0000
0000
0110
0000
0000
0000
0011
0000
0000
0000
1100
0000
0000
0000
0101
0000
0000
0000
,
0001
0100
0001
0100
0001
0100
0001
0100
0001
0000
0000
0000
0110
0000
0000
0000
1100
0000
0000
0000
0011
0000
0000
0000
1010
0000
0000
0000
0101
0000
0000
0000
,
0010
1000
0010
1000
0010
1000
0010
1000
0010
0000
0000
0000
0110
0000
0000
0000
0101
0000
0000
0000
1010
0000
0000
0000
1100
0000
0000
0000
0011
0000
0000
0000
,
0001
0100
0001
0100
0001
0100
0001
0100
0001
0000
0000
0000
1001
0000
0000
0000
0011
0000
0000
0000
1100
0000
0000
0000
0101
0000
0000
0000
1010
0000
0000
0000
,
0001
1000
0001
1000
0001
1000
0001
1000
0001
0000
0000
0000
1001
0000
0000
0000
1100
0000
0000
0000
1010
0000
0000
0000
0101
0000
0000
0000
0011
0000
0000
0000
,
1001
0000
0110
0000
1100
0000
0011
0000
0110
0000
0001
0001
0001
0001
0010
0010
,
0010
0010
0100
0100
0100
0100
1000
1000
1000
1000
0000
0000
1001
0000
0110
0000
,
1100
0011
1010
0101
1001
0110
1001
0110
,
1001
0000
0001
0000
0001
0000
0001
0000
0001
0000
0001
0000
0001
0000
0001
0000
0001
0000
0000
0000
0000
0000
0000
0000
0001
0010
0001
0010
0001
0010
0001
0010
,
0001
0000
0000
0000
1100
0000
0000
0000
0011
0000
0000
0000
0110
0000
0000
0000
1001
0000
0000
0000
0110
0000
0000
0000
1000
0100
1000
0100
1000
0100
1000
0100
,
1000
0000
0000
0000
0101
0000
0000
0000
1010
0000
0000
0000
0110
0000
0000
0000
1001
0000
0000
0000
0110
0000
0000
0000
0001
0010
0001
0010
0001
0010
0001
0010
,
0002
0000
0000
1000
1013
0101
1001
0110
,
2002
0000
0000
0000
0000
0000
0000
0000
0000
0000
0000
0000
0000
0000
0000
0000
3003
0000
0000
0000
0000
0000
0000
0000
1000
0100
1000
0100
1000
0100
1000
0100
,
1000
1001
0110
1010
0101
0011
1100
0011
,
1100
1010
0101
0110
1001
0011
1100
0110
,
1001
0011
1100
1010
0101
0110
1001
1001
,
0110
0000
0000
0000
0010
0100
0010
0100
0010
0000
0000
0000
1001
0000
0000
0000
0110
0000
0000
0000
0000
0000
0000
0000
0001
0010
0001
0010
0001
0010
0001
0010
,
0001
0000
0000
0000
1100
0000
0000
0000
0011
0000
0000
0000
0101
0000
0000
0000
1010
0000
0000
0000
1001
0000
0000
0000
0010
1000
0010
1000
0010
1000
0010
1000
,
0010
0000
0000
0000
0101
0000
0000
0000
1010
0000
0000
0000
0011
0000
0000
0000
1100
0000
0000
0000
1001
0000
0000
0000
0001
0100
0001
0100
0001
0100
0001
0100
,
0002
0000
0000
0100
1013
0101
0011
1100
,
1001
0110
1001
1100
0011
1010
0101
0110
,
0220
0000
0330
1001
0110
1100
0011
1010
,
0101
0110
1001
0011
1100
0101
1010
0110
,
1001
0011
1100
0101
1010
0110
1001
0110
,
2002
0000
0000
0000
0000
0000
0000
0000
0000
0000
0000
0000
0000
0000
0000
0000
3003
0000
0000
0000
0000
0000
0000
0000
0001
0010
0001
0010
0001
0010
0001
0010
,
0001
0010
0100
1000
0100
0010
0001
0010
0100
1000
0100
0010
0100
0010
0100
0010
,
0100
0001
0010
0100
1000
0010
0100
0010
0100
0010
1000
0100
1000
0001
0100
0010
,
0100
0001
0010
0001
0010
0100
1000
0100
0010
0100
1000
0100
0010
0001
0010
0100
,
1000
0000
0100
0000
0010
0000
0001
0000
0010
0000
0100
0000
0010
0000
0001
0000
0010
0000
0100
0000
1000
0000
0100
0000
1000
0100
1000
0100
1000
0100
1000
0100
,
1000
0100
1000
0100
1000
0000
0000
0000
1001
0000
0000
0000
1100
0000
0000
0000
0011
0000
0000
0000
1010
0000
0000
0000
0101
0000
0000
0000
0110
0000
0000
0000
,
1001
0000
1100
0000
0011
0000
0101
0000
1010
0000
0110
0000
0001
0010
0100
1000
,
0100
0010
0001
0010
0100
1000
0100
0010
0001
0010
0100
1000
0100
0010
0001
0100
,
0010
0000
0100
0000
0001
0000
0010
0000
0100
0000
1000
0000
0010
0000
0100
0000
0001
0000
1000
0000
0001
1000
0001
1000
0001
1000
0001
1000
0001
1000
0001
1000
,
0001
1000
0001
1000
0001
1000
0001
1000
0001
1000
0001
1000
0001
1000
0001
1000
0110
0000
0000
0000
0000
0000
0000
0000
0001
0000
0010
0000
0100
0000
1000
0000
,
0100
0010
0001
0010
0100
0010
0001
0010
0100
1000
0100
0010
0100
1000
0100
0010
,
0100
1000
0100
0010
0001
0010
0100
1000
2000
0000
0000
0000
0000
0000
0001
0000
,
3101
1010
1001
0110
2002
0000
0000
0000
,
3003
0000
1100
0110
0022
0000
0033
1010
,
0101
0011
1100
0110
1001
0101
1010
1100
,
0011
1001
0110
1100
0011
1010
0101
0011
,
1100
0110
1001
0110
2002
0000
0000
0000
,
3003
0000
0000
0000
0000
0000
0000
0000
0001
0010
0001
0010
0001
0010
0001
0010
0001
0000
0000
0000
1100
0000
0000
0000
0011
0000
0000
0000
0110
0000
0000
0000
,
1001
1010
0101
1100
0011
0011
1100
1010
,
0101
0101
1010
1001
0110
0011
0101
1100
,
1010
0000
0000
0000
0110
0000
0000
0000
1001
0000
0000
0000
1001
0000
0000
0000
0110
0000
0000
0000
0000
0000
0000
0000
0000
0000
0000
0000
0001
1000
0001
1000
,
2002
0000
0000
0000
,
3003
0000
0000
0000
;
