#TITLE:Cinema;
#SUBTITLE:EXoduz Violation;
#ARTIST:Skrillex;
#TITLETRANSLIT:;
#SUBTITLETRANSLIT:;
#ARTISTTRANSLIT:;
#CREDIT:;
#BANNER:../Banner.png;
#BACKGROUND:../Background.png;
#LYRICSPATH:;
#CDTITLE:;
#MUSIC:Skrillex - Cinema (Official).ogg;
#OFFSET:0.049;
#SAMPLESTART:44.018;
#SAMPLELENGTH:12.000;
#SELECTABLE:YES;
#DISPLAYBPM:150.000;
#BPMS:0.000=1000.000,2.000=145.000,162.000=150.000,162.250=300.000,163.500=150.000,163.750=300.000,165.500=150.000,166.500=300.000,168.500=150.000,169.000=300.000,169.500=150.000,170.000=300.000,171.000=150.000,171.500=300.000,172.000=150.000,172.500=300.000,173.000=150.000,174.000=300.000,174.500=150.000,174.750=300.000,176.000=150.000,177.000=300.000,179.000=150.000,180.000=300.000,180.500=150.000,181.000=300.000,181.500=150.000,182.000=300.000,183.000=600.000,184.000=150.000,184.500=300.000,185.000=150.000,185.500=300.000,187.000=150.000,188.000=300.000,190.000=75.000,190.500=300.000,192.500=150.000,193.000=300.000,194.000=150.000,194.500=75.000,194.750=150.000,195.000=75.000,195.250=150.000,195.500=300.000,197.500=75.000,198.000=150.000,198.250=300.000,200.000=150.000,200.500=300.000,202.000=150.000,202.500=300.000,204.000=150.000,204.500=300.000,205.500=150.000,206.000=300.000,207.000=150.000,207.250=37.500,207.625=75.000,207.750=150.000,208.500=300.000,209.000=150.000,209.500=300.000,210.500=150.000,211.000=300.000,212.000=150.000,212.500=300.000,213.500=150.000,214.000=75.000,214.250=300.000,218.250=75.000,219.250=300.000,224.500=150.000,225.500=300.000,227.000=150.000,228.500=300.000,228.750=150.000,229.000=300.000,229.250=150.000,229.500=300.000,229.750=150.000,230.000=300.000,230.250=150.000,230.500=300.000,230.750=150.000,231.000=300.000,231.250=150.000,231.500=300.000,231.750=150.000,232.000=300.000,232.250=150.000,232.500=300.000,232.750=150.000,233.000=300.000,233.250=150.000,233.500=300.000,233.750=150.000,234.000=75.000,235.000=300.000,237.000=150.000,237.500=75.000,237.750=300.000,240.000=150.000,240.500=75.000,240.750=300.000,242.750=75.000,243.750=150.000,245.000=300.000,247.000=37.500,247.250=75.000,247.500=37.500,247.750=75.000,248.000=37.500,248.250=75.000,248.500=37.500,248.750=75.000,249.000=300.000,251.000=37.500,251.250=300.000,255.500=75.000,256.000=600.000,262.500=150.000,263.500=300.000,268.000=150.000,268.500=300.000,269.500=150.000,270.000=300.000,272.000=150.000,273.000=300.000,275.000=600.000,276.000=150.000,276.250=300.000,280.750=150.000,281.000=75.000,282.000=300.000,283.000=37.500,284.500=150.000,286.250=600.000,287.000=300.000,288.000=150.000,288.500=300.000,289.500=150.000,290.000=300.000,291.000=150.000,291.500=300.000,292.500=150.000,293.000=600.000,302.000=150.000,302.500=600.000,309.000=150.000,309.500=300.000,312.250=150.000,312.500=300.000,315.000=600.000,316.000=150.000,317.000=300.000,319.000=150.000,319.125=37.500,319.375=150.000,319.750=75.000,320.000=300.000,321.000=150.000,321.500=37.500,321.625=150.000,322.125=37.500,322.375=300.000,324.000=150.000,324.500=37.500,325.938=75.000,327.000=150.000,328.000=300.000,330.000=75.000,330.250=150.000,330.750=37.500,330.875=150.000,331.375=75.000,331.625=150.000,332.125=37.500,332.250=300.000,333.500=150.000,335.500=300.000,335.750=75.000,336.750=300.000,337.000=75.000,338.000=300.000,338.500=150.000,341.000=145.000,468.500=150.000,469.500=300.000,471.500=150.000,472.000=300.000,473.000=75.000,473.500=150.000,474.000=300.000,474.500=150.000,475.250=75.000,476.125=150.000,478.000=300.000,480.000=150.000,480.500=300.000,482.000=150.000,483.000=300.000,483.500=150.000,484.000=300.000,484.500=150.000,485.000=300.000,485.500=600.000,486.500=150.000,487.000=300.000,488.000=150.000,489.000=37.500,489.125=75.000,489.500=300.000,491.500=150.000,492.000=300.000,495.500=150.000,496.000=300.000,496.500=150.000,497.000=300.000,497.500=150.000,498.000=300.000,498.500=150.000,499.000=300.000,499.500=150.000,500.500=300.000,502.000=150.000,503.000=75.000,503.500=150.000,504.000=300.000,508.000=150.000,510.000=300.000,512.000=150.000,513.000=300.000,513.250=150.000,513.500=300.000,513.750=150.000,514.000=300.000,514.250=150.000,514.500=300.000,514.750=150.000,515.000=300.000,515.250=150.000,515.500=300.000,515.750=150.000,516.000=300.000,516.250=150.000,516.500=300.000,516.750=150.000,517.000=300.000,517.250=150.000,517.500=300.000,517.750=150.000,518.000=300.000,518.250=150.000,518.500=300.000,522.750=150.000,524.750=75.000,525.000=150.000,525.250=75.000,525.500=150.000,525.750=75.000,526.000=150.000,526.250=75.000,526.500=300.000,528.000=150.000,528.500=75.000,528.750=150.000,529.375=75.000,529.500=150.000,531.500=300.000,533.500=600.000,535.250=75.000,535.500=150.000,536.500=300.000,537.500=150.000,538.000=75.000,538.500=150.000,540.500=300.000,541.000=75.000,541.500=300.000,542.000=75.000,542.500=300.000,544.000=150.000,544.500=300.000,545.500=150.000,546.500=75.000,547.000=150.000,548.000=300.000,552.500=150.000,553.500=300.000,554.500=150.000,555.000=300.000,556.000=150.000,556.500=75.000,557.000=300.000,558.000=150.000,560.500=300.000,568.750=150.000,569.250=300.000,572.250=150.000,573.250=75.000,573.500=150.000,575.250=300.000,578.500=150.000,579.000=300.000,582.750=75.000,584.875=300.000,587.500=150.000,588.500=300.000,589.500=150.000,590.000=300.000,591.000=75.000,591.500=150.000,592.000=300.000,593.000=150.000,593.500=300.000,596.000=315.950,598.000=75.000,601.000=150.000,603.500=600.000,611.500=300.000,612.500=150.000,613.500=300.000,614.500=150.000,615.000=300.000,616.000=150.000,617.000=75.000,618.000=150.000,620.000=300.000,632.500=150.000,633.000=100.000,633.500=75.000,636.000=150.000,644.250=75.000,646.250=150.000,646.750=100.000,647.250=75.000,648.000=150.000,649.000=75.000,650.250=150.000,652.250=37.500,652.750=150.000,657.000=139.000,659.000=144.950;
#STOPS:203.000=0.050
,203.250=0.050
,203.500=0.050
,203.750=0.050
,204.500=0.050
,204.750=0.050
,205.000=0.050
,205.250=0.050
,219.250=0.050
,219.500=0.050
,219.750=0.050
,220.000=0.050
,220.250=0.050
,220.500=0.050
,220.750=0.050
,221.000=0.050
,221.250=0.050
,221.500=0.050
,221.750=0.050
,222.000=0.050
,222.250=0.050
,222.500=0.050
,222.750=0.050
,223.000=0.050
,223.250=0.050
,223.500=0.200
,248.750=0.500
,251.250=0.050
,251.500=0.050
,251.750=0.050
,252.000=0.050
,252.250=0.050
,252.500=0.050
,252.750=0.050
,253.000=0.050
,253.250=0.050
,253.500=0.050
,253.750=0.050
,254.000=0.050
,254.250=0.050
,254.500=0.050
,254.750=0.050
,255.000=0.050
,255.250=0.050
,256.000=0.050
,257.500=0.050
,259.000=0.050
,262.500=0.050
,263.500=0.500
,264.750=0.500
,266.000=0.500
,275.000=1.500
,275.500=0.350
,276.000=0.350
,276.250=0.050
,276.500=0.050
,276.750=0.050
,277.000=0.050
,277.250=0.050
,277.500=0.050
,277.750=0.050
,278.000=0.050
,278.250=0.050
,278.500=0.050
,278.750=0.050
,279.000=0.050
,279.250=0.050
,279.500=0.050
,286.250=0.350
,286.750=0.350
,312.250=0.350
,312.500=0.020
,312.750=0.020
,313.000=0.020
,313.250=0.020
,313.500=0.020
,313.750=0.020
,314.000=0.020
,314.250=0.020
,314.500=0.020
,314.750=0.020
,315.000=0.100
,322.375=0.550
,338.500=0.050
,338.625=0.050
,338.750=0.050
,338.875=0.050
,339.000=0.050
,339.125=0.050
,339.250=0.050
,339.375=0.050
,339.500=0.050
,339.625=0.050
,339.750=0.050
,339.875=0.050
,340.000=0.050
,340.125=0.050
,340.250=0.050
,506.000=0.050
,506.250=0.050
,506.500=0.050
,506.750=0.050
,507.000=0.050
,507.250=0.050
,507.500=0.050
,507.750=0.050
,560.500=0.500
,562.500=0.050
,562.750=0.050
,563.000=0.050
,563.250=0.050
,563.500=0.050
,563.750=0.050
,564.000=0.050
,564.250=0.050
,564.500=0.050
,564.750=0.050
,565.000=0.050
,565.250=0.050
,565.500=0.050
,565.750=0.050
,566.000=0.050
,566.250=0.050
,566.500=0.050
,584.875=1.490
,585.500=0.050
,636.000=0.050
;
#BGCHANGES:;
// cache tags:
#FIRSTBEAT:2.000;
#LASTBEAT:746.000;
#SONGFILENAME:Songs/EXoduz Violation/Skrillex - Cinema (Official)/Skrillex - Cinema (Official).sm;
#HASMUSIC:1;
#HASBANNER:1;
#MUSICLENGTH:308.202;
// end cache tags

//---------------dance-single - R. Konkul vs. J. Ner----------------
#NOTES:
     dance-single:
     R. Konkul vs. J. Ner:
     Challenge:
     11:
     0.673,1.000,0.188,0.866,0.727,579.000,58.000,267.000,0.000,0.000:

0000
0000
0000
0000
0000
0000
0000
0000
0220
0000
0000
0000
0330
0000
1000
0001
,
0200
0000
0000
0000
0000
0000
0310
1000
0100
0000
0020
0000
0000
0000
0031
1000
,
0020
0000
0000
0000
0000
0000
0130
0001
0010
0000
0200
0000
0000
0000
1300
0010
,
0200
0000
0000
0000
0000
0000
0301
0010
0100
0000
2000
0000
0000
0000
3010
0100
,
0002
0000
0000
0000
0000
0000
0013
0100
1000
0000
0020
0000
0000
0000
0130
0001
,
0020
0000
0000
0000
0000
0000
0130
1000
0010
0000
0200
0000
0000
0000
0301
1000
,
0020
0000
0000
0000
0000
0000
0130
0001
0010
0000
0200
0000
0000
0000
1300
0010
,
0200
0000
0000
0000
0000
0000
0301
0010
0100
0000
2000
0000
0000
0000
3010
0100
,
0002
0000
0000
0003
0220
0000
0000
0000
,
0000
0330
0100
0010
0000
1000
0100
0010
,
0002
0000
0000
0000
2003
0000
3001
0100
0010
0000
0010
0000
0000
0000
1000
0100
,
0010
0000
0000
0000
0010
0000
0100
1000
0001
0000
0100
0000
0010
0000
1000
0000
,
0100
0020
0000
0000
,
0030
0000
1000
0001
1000
0010
0100
0002
,
0000
0023
0000
0000
0000
0000
0000
0000
,
0030
0010
0100
0001
0010
0100
2000
0000
,
3020
0000
0000
0000
0230
0000
0000
0000
0000
0000
0000
0000
0000
0000
0300
0001
,
0010
0100
1000
0020
0000
0230
0000
0302
,
0000
0023
0000
0000
0000
0000
0000
0000
,
0000
0000
0130
2000
0000
3010
0100
0002
,
0023
0000
0230
0000
0000
0000
0000
0300
,
2000
3002
0203
0320
2030
3200
0320
0032
,
2003
3020
0000
0000
0000
0000
0030
0100
,
0010
2000
0000
3200
0000
0000
0310
0001
,
0200
0000
0000
0300
0220
0000
0000
0330
,
1010
2200
0000
3300
,
0011
0000
0101
0000
0220
0000
0000
0000
0000
0000
0330
0000
0000
0001
1000
0000
,
0010
0000
0000
0000
1000
0000
0000
0000
0100
0000
0000
0000
0010
0000
0000
0000
0001
0000
0000
0000
1000
0000
0001
0000
2000
0001
0000
0000
0000
0000
0000
0000
,
3020
1000
0000
0000
0000
0000
0000
0000
0230
1000
0000
0000
0000
0000
0000
0000
0302
0010
0000
0000
0000
0000
0000
0000
0000
0000
0000
0000
0003
0000
0000
0000
,
2200
3300
0220
0330
0000
0000
0000
0000
,
0001
0000
1000
0000
0100
0000
0000
0000
0000
0000
0000
0000
0000
0100
0010
0000
,
0001
1000
0010
0100
0001
0010
0100
0000
,
2000
3002
0203
0320
2030
3200
0320
0032
2003
3000
0000
0000
0000
0000
0000
0000
,
0110
0000
0110
0000
0000
0000
0000
2000
,
0010
0000
0000
0000
3001
0000
0000
0000
0000
0000
0000
0000
0000
0000
0000
1000
,
0010
0000
0000
0000
1000
0000
0000
0000
0100
0000
0000
0000
0010
0000
0000
0000
0000
0000
0000
0000
0001
0000
0000
0000
0100
0020
0030
0000
0000
0000
0000
0000
,
0100
0002
0003
0000
0000
0000
0000
0000
0010
0200
0300
0000
0000
0000
0000
0000
1000
0002
0000
0000
0000
0000
0000
0000
0000
0000
0000
0000
0003
0000
0000
0000
,
2020
3030
2020
0000
0000
3030
0000
1000
,
0001
0000
0100
0000
0002
0000
0000
0000
0000
0000
0000
0000
0000
0000
0003
1000
,
0100
0000
0010
0000
0001
0000
0000
0000
1000
0000
0000
0000
0000
0000
0000
1000
,
0100
0000
0010
0000
0001
0000
0000
0000
4000
3400
0300
0000
0000
0000
0040
0034
,
0000
0003
0000
4000
3040
0430
0000
0000
,
0300
0000
0004
4003
3040
0030
0400
0304
0043
0030
0400
0300
4000
3040
0430
0300
,
0004
0043
0430
0300
4000
3000
0000
0000
0040
0000
0430
0000
0300
0000
0004
0000
,
0043
0030
0000
0000
0400
0300
0000
0000
4000
3000
0000
0000
0040
0030
0000
0000
,
0400
0000
0304
0043
0430
0000
4300
3040
0430
0000
0304
0000
0043
0000
0000
0000
,
0430
4300
3040
0000
0430
0000
0000
0000
0000
0000
0300
0000
0004
0043
0030
0400
,
4300
0000
0000
0000
0000
0000
0000
0000
0000
0000
0000
0000
3000
0000
0000
0000
0040
0430
0304
0043
0430
0000
0000
0000
0000
0000
0000
0000
0000
0000
0000
0000
,
0300
0000
0000
0000
4000
0000
3040
0000
0430
0000
0000
0000
0304
0000
0003
0000
4000
0000
3004
0000
0403
0340
4030
3000
0400
0340
0034
0000
4003
0000
0000
0000
,
0000
0000
0000
0000
0000
0000
0000
0000
3000
0000
0000
0000
0040
0430
0300
0000
0004
0000
0043
0000
0000
0000
0000
0000
0000
0000
0000
0000
0030
0000
0000
0000
,
0400
0000
4300
0000
3040
0000
0000
0000
0400
0000
0330
0000
0004
0000
0000
0000
0043
0000
0430
0000
4300
0000
3000
0000
0040
0030
0400
0300
0040
0030
0400
0300
,
0040
0030
0400
0300
0040
0030
0400
0300
0040
0030
0400
0300
0040
0000
0000
0000
0030
0000
0000
0000
0400
0000
0000
0000
0320
0000
0000
0430
0300
0004
0043
0030
,
0400
0000
4300
0000
3004
0000
4003
0000
0000
3000
0040
0000
0430
0000
0000
0000
,
0304
0000
0043
0000
0000
0030
0400
0000
4300
3040
0000
0000
0000
0000
0000
0000
,
0000
0000
0000
0000
0000
0000
0000
0000
0000
0230
0000
0302
0000
4003
3004
4003
,
3040
0430
0304
0043
0430
4300
3040
0430
0304
0043
0430
4300
3040
0430
0304
0000
,
0003
0040
0430
4300
0000
0000
0000
3040
,
0000
0000
0000
0000
0430
0000
0000
0000
0300
0000
0004
0000
0000
0000
0000
0043
0000
0000
0000
0000
0430
0000
0000
0000
0000
0000
4300
0000
0000
0000
0000
3040
,
0000
0000
0000
0000
0430
0000
0000
0000
0000
0000
0304
0000
0000
0000
0000
0403
0000
0000
0000
0000
0000
0000
0000
0000
0340
0000
0000
0000
0000
0000
0000
0000
,
0000
0000
0000
0030
4000
0000
3400
0340
0000
0000
0000
0000
0000
0000
0000
0000
,
4030
0000
3400
0340
0000
0000
0000
0000
0000
0000
0000
4030
0000
3400
0000
0340
,
0000
0000
0000
0000
0000
0000
0030
0000
0004
0000
0000
0000
0000
0000
0000
0000
0000
0000
0000
0000
0003
0000
0000
0000
2000
0000
3040
0000
0430
0004
0343
0000
,
0430
4300
3040
0000
0430
0304
0000
0000
0043
0000
0000
0000
0000
0000
0000
0000
0000
0000
0000
0000
0030
0000
0000
0000
0200
0000
4300
0000
3004
0000
4003
0000
,
3040
0430
0304
0043
0430
4300
3004
4003
3040
0430
0304
0043
0430
4300
3004
0000
,
4000
0000
3000
0043
0000
0030
0400
0000
,
0000
0000
0000
0000
0000
0000
0000
0000
0000
0000
0000
0000
0000
0000
0000
0304
0000
0000
0003
0000
0000
4000
3400
0300
,
0000
0000
0000
0000
0000
0000
0000
0000
0040
0000
0000
0000
0000
0000
0000
0000
0030
0000
0000
0000
0000
0000
0000
0000
0000
0000
0000
0000
0000
0000
0000
0000
0000
0000
0000
0000
0004
0000
0000
0000
4000
0000
0003
0000
0000
0000
0000
0000
0000
0000
0000
0000
0000
0000
0000
0000
3000
0000
0000
0000
0000
0000
0000
0000
0040
0000
0000
0000
0000
0000
0000
0000
0000
0000
0000
0000
0000
0000
0000
0000
0400
0000
0000
0000
0000
0000
0000
0000
0030
0000
0000
0000
0000
0000
0000
0000
0304
0000
0000
0000
0000
0000
0000
0000
0003
0000
0000
0000
0000
0000
0000
0000
0000
0000
0000
0000
0000
0000
0000
0000
0004
0000
0000
0000
0000
0000
0000
0000
0000
0000
0000
0000
0000
0000
0000
0000
0043
0000
0000
0000
0000
0000
0000
0000
0000
0000
0000
0000
0000
0000
0000
0000
0030
0000
0000
0000
0400
0000
0000
0000
0000
0000
0000
0000
0000
0000
0000
0000
4300
0000
0000
0000
0000
0000
0000
0000
0000
0000
0000
0000
3000
0000
0000
0000
0004
0000
0000
0000
0000
0000
0000
0000
,
0403
0000
0300
0000
0000
0000
0400
0000
0300
0000
0000
0000
0004
0000
0000
0000
0000
0000
0043
0000
0000
0430
0000
0000
4300
0000
0000
0000
0000
0000
3020
0000
0000
0000
0000
0000
0430
0000
0000
0000
0000
0000
0304
0000
0000
0000
0000
0000
,
0043
0430
4300
3040
0430
0000
0304
0000
0043
0000
0430
0000
4300
3000
0004
0000
,
4003
3040
0430
0304
0043
0430
4300
3040
0430
0304
4003
3040
0430
0304
0043
0430
,
0300
0000
0000
0000
4000
0000
0000
0000
0000
0000
0000
0000
3040
0000
0000
0000
0430
0000
0000
0000
0000
0000
0000
0000
0000
0000
0000
0000
0000
0000
0000
0000
0302
0000
0000
0000
0000
0000
0000
0000
0000
0000
0000
0000
0000
0000
0000
0000
0203
2300
3020
0030
0200
0302
0023
0030
0200
0300
2000
3020
0230
0302
0023
0230
,
2300
3000
0020
0030
0200
0302
0023
0230
0000
0000
0000
0000
1300
0000
0000
0000
0001
0000
0000
0000
0100
0000
0000
0000
0000
0000
0000
0000
0100
0000
0000
0000
0010
0000
0000
0000
4000
0000
0000
0000
0000
0000
0000
0000
3004
0000
0000
0000
4003
0000
0000
0000
0000
0000
0000
0000
0000
0000
0000
0000
0000
0000
0000
0000
,
3004
0000
0403
0000
0000
0300
0040
0000
4030
0000
0000
3000
0400
0300
0040
0000
,
0000
0030
0004
0000
2003
0000
0000
0000
0000
0000
0000
0000
0000
0000
0000
0000
,
0000
0000
0000
0000
,
0000
0000
0000
0000
3400
0320
0000
0000
,
0000
0000
0000
0000
,
0000
0034
0000
0000
,
0000
0023
0230
2300
3020
0230
0302
0023
0230
2300
3020
0230
0304
0000
0000
0000
,
0403
0000
0000
0000
0000
0000
0300
0000
0400
0000
0000
0000
0000
0000
0000
0000
0000
0000
0000
0000
0000
0000
0300
0000
0200
0000
0300
0400
0000
0000
0340
0000
,
4030
0000
0000
0000
0000
0000
0000
0000
3400
0000
0300
0000
0040
0034
0003
0000
0000
4000
3040
0430
0000
0000
0000
0000
0000
0000
0000
0000
0000
0300
0000
0000
,
4000
0000
0000
0000
0000
0000
0000
0000
3002
2003
3020
0230
0302
0023
0230
2300
3002
0203
0320
2030
3200
0320
0032
2003
3020
2030
3020
2030
3020
0230
0302
0023
0000
0000
0000
0000
0000
0000
0000
0000
0000
0000
0000
0000
0000
0000
0000
0000
0430
0000
0000
0000
0000
0000
0000
0000
0000
0000
0000
0000
0000
0000
0000
0000
,
4300
0000
0000
0000
0000
0000
0000
0000
0000
0000
0000
0000
0000
0000
0000
0000
3040
0000
0430
0000
0000
0000
0304
0403
0000
0000
0000
0340
0000
4030
0000
0000
,
0000
3400
0340
0000
0000
0000
0000
0000
0000
0000
0000
0000
0430
0000
0000
0000
0000
0000
0000
0000
0000
0000
0000
0000
0000
0000
0000
0000
4300
0000
3000
0000
,
0000
0000
0000
0000
0000
0000
4000
0000
3000
0000
0000
0000
0000
0000
0000
0000
0004
0000
0000
0003
4000
3004
0403
0340
4030
3400
0340
0034
4003
3040
4030
3040
,
0430
0304
0403
0304
0043
0430
4300
3004
0023
0000
0000
0000
0000
0000
0000
0000
1030
0000
0001
0000
0200
0000
0000
0000
0000
0000
0000
0000
0000
0000
0000
0000
,
0000
0000
0310
0000
0100
0000
0001
0000
1000
0001
0200
0000
0000
0000
0000
0000
,
0000
0000
0310
0000
0001
0000
1000
0000
0010
1000
0200
0000
0000
0000
0000
0000
,
0000
0000
0310
0000
0001
0000
1000
0000
0010
1000
0200
0000
0000
0000
0000
0000
,
0000
0000
0310
0000
0001
0000
1000
0000
0010
0100
0002
0000
0000
0000
0000
0000
,
0000
0000
0103
0000
0010
0000
1000
0000
0100
0010
0002
0000
0000
0000
0000
0000
,
0000
0000
1003
0000
0010
0000
0100
0000
0001
0010
0200
0000
0000
0000
0000
0000
,
0000
0000
1300
0000
0010
0000
0100
0000
0001
0010
0200
0000
0000
0000
0000
0000
,
0000
0000
2300
0000
3000
2000
0000
3000
2000
0001
3200
0000
0000
0000
0000
0000
,
0000
0000
0301
0000
0010
0000
0100
0000
1000
0010
0100
0001
0010
0100
1000
0010
,
0100
0001
0010
0000
0100
0000
1000
0000
0010
0100
0002
0000
0000
0000
0000
0000
,
0000
0000
1003
0000
0001
0000
0100
0000
0010
0000
2000
0000
3000
2000
0000
3000
,
2000
0000
3001
0000
1000
0000
0010
0000
0100
0001
0020
0000
0000
0000
0000
0000
,
0000
0000
0130
0000
1000
0000
0010
0000
0100
0001
0020
0000
0000
0000
0000
0000
,
0000
0000
0130
0000
1000
0000
0001
0000
0010
0100
2000
0000
0000
0000
0000
0000
,
0000
0000
3001
0000
0100
0000
0010
0000
1000
0100
0020
0000
0000
0000
0000
0000
,
0000
0032
0000
0000
0003
1001
0000
2001
,
0000
0000
0000
0000
0000
3001
0100
0020
,
0000
0000
0000
1030
0001
0100
0010
1000
,
0100
0000
0000
0000
0010
0000
0000
0000
0001
0000
0000
0010
0001
0000
0000
0000
0000
0000
0000
0001
0100
0000
0000
0000
0000
0000
0000
0010
1000
0000
0000
0000
,
0000
0000
0000
0100
0020
0000
0000
0000
0000
0000
0000
0000
0000
0000
0000
0000
0000
0000
0000
0000
0032
0000
0000
0000
0000
0000
0000
0003
0002
0000
0000
0000
,
0000
0000
0000
0000
0000
1003
0010
0200
,
0000
0000
0000
0301
0010
0100
1000
0001
,
0010
0000
0100
0000
1000
0000
0010
0000
0100
0000
0001
2000
3020
0230
0302
0023
,
0230
2300
3002
0000
0000
0000
0000
0000
0000
0003
0220
0000
0330
0000
0220
0000
,
0000
0000
0000
0000
0330
0100
1000
0020
,
0000
0000
0000
0000
0000
0130
1000
0001
,
0010
0000
0000
0000
0100
0000
0000
0000
1000
0000
0000
0010
0100
0000
0000
0000
0000
0000
0000
0100
0001
0000
0000
0000
0000
0000
0000
0001
0100
0000
0000
0000
,
0000
0000
0000
0200
0020
0000
0000
0000
0000
0000
0000
0000
0000
0000
0000
0300
0030
0000
0000
0000
2020
0000
0000
0000
3030
0000
0000
0000
2020
0000
0000
0000
,
0000
0000
3030
1000
0001
0100
0010
2000
,
0000
0000
0000
0000
0000
3100
0010
0001
,
0000
0100
0000
0000
0000
0100
0010
0001
,
0000
0000
0400
0340
0030
4000
3400
0000
0000
0000
0000
0000
0000
0000
0340
0030
,
0004
0000
0000
0000
0000
0000
0003
0000
4000
0000
0000
0000
0004
0000
3403
0000
0340
0000
0030
0000
4000
0000
3400
0000
0340
0000
0034
4003
3040
0030
0004
0043
,
0430
4300
0000
0000
3000
0000
0000
0000
4000
0000
3040
0000
0000
0000
0430
0000
0304
0000
0000
0000
0000
0000
0000
0000
0000
0000
0000
0000
0000
0000
0003
0000
,
4000
3004
0403
0300
0040
0000
0000
0000
4030
0000
0000
0000
3400
0000
0340
0034
,
4003
3000
0004
0400
0343
0030
4000
0000
0000
0000
3400
0340
0034
0003
4000
0000
,
3040
0000
0000
0000
0000
0000
0000
0000
0000
0000
0000
0000
0000
0000
0000
0000
0000
0000
0000
0000
0000
0000
0000
0000
0000
0000
0000
0000
0000
0000
0000
0000
0000
0000
0000
0000
0030
0000
0000
0000
0000
0000
0000
0000
0000
0000
0000
0000
0400
0000
0000
0304
0000
0000
4003
0000
0000
3000
0000
0000
0004
0000
0000
0000
0000
0000
0403
0000
0000
0000
0000
0000
0040
0000
0000
0000
0000
0000
0000
0000
0000
0000
0000
0000
0000
0000
0000
0000
0000
0000
0000
0000
0000
0000
0000
0000
0000
0000
0000
0000
0000
0000
0000
0000
0000
0000
0000
0000
0000
0000
0000
0000
0000
0000
0000
0000
0000
0000
0000
0000
0000
0000
0000
0000
0000
0000
0000
0000
0000
0000
0000
0000
0000
0000
0000
0000
0000
0000
0000
0000
0000
0000
0000
0000
0000
0000
0000
0000
0000
0000
0000
0000
0000
0000
0000
0000
0300
0000
0000
0000
0000
0000
0000
0000
0000
0000
0000
0000
4030
0000
0000
0000
0000
0000
0000
0000
3000
0000
0000
0000
0400
0000
0000
0000
0000
0000
0000
0000
0000
0000
0000
0000
,
0340
0000
0034
0000
4000
0000
0000
0000
0000
0000
0003
0000
3004
0000
0403
0304
,
0043
0030
0400
4300
3040
0030
0400
0304
0043
0030
0400
4300
3040
0030
0400
0000
,
0300
0000
0000
0000
0004
0000
0000
0000
0043
0000
0000
0000
0000
0000
0000
0000
0430
0000
4300
0000
0000
0000
0000
0000
3040
0430
0304
0043
0430
0300
4000
0000
,
3040
0000
0000
0000
0430
0000
0000
0000
0004
0000
0000
0003
0340
0000
0000
0030
0400
0000
4300
0000
3400
0000
4300
0000
3400
0000
4300
0000
3400
0000
4300
0000
,
3400
0300
4000
0400
0000
0000
3300
0000
4000
0000
0000
0000
0000
0000
0000
0000
,
0400
3000
0000
0000
0000
0000
0000
0000
4000
0000
0300
0000
0000
3000
0004
0000
0000
0000
0000
4003
0000
0000
0000
0000
3040
0000
0000
0030
0000
0000
0400
0000
,
0000
0000
0000
0004
0000
0300
0000
0000
0040
0000
0003
0000
0030
0000
0400
0000
0000
0000
0000
4000
0000
0000
0000
0000
0000
0000
0000
0000
0000
0000
0000
0000
,
0000
0000
0000
0000
0000
0000
0000
0000
0000
0000
0000
0000
0000
0000
0000
0000
0000
0000
0300
3000
0000
0000
0004
0000
0000
0000
0000
0000
0000
0000
4003
0000
,
0000
0000
0000
0000
0000
0000
3004
0403
0340
0030
4000
3400
0340
0030
0004
4003
3040
0030
0400
0304
0043
0000
0030
0000
0400
0000
0300
0000
4000
0000
0000
0000
,
3040
0030
0400
0000
0304
0043
0000
0000
0000
0030
0000
4000
3400
0000
0340
0000
0034
0000
0000
0000
4003
0000
0000
0000
0000
0000
0000
0000
3040
0000
0000
0000
,
0000
0000
0000
0000
0000
0000
0430
0000
0000
0000
0000
0000
0000
0304
0043
0030
,
0400
0000
0000
0000
4000
0000
0000
3000
0000
0300
0000
0000
0040
0000
0000
0000
0400
0030
0004
0003
0040
0300
0000
0000
0000
0000
0000
0000
0000
0000
0000
0000
,
0000
0000
0030
0000
4000
0000
0000
0000
0000
0000
0000
0000
0040
3030
0000
0000
0000
0000
0000
0400
0000
0000
0000
0000
0000
0000
0000
0000
0000
0000
0000
0000
,
0304
0000
0000
0000
0043
0000
0000
0000
0000
0000
0000
0030
0400
0000
0000
0000
0000
0000
0000
0000
4300
0000
0000
0000
3040
0000
0000
0000
0000
0000
0000
0030
,
0400
0000
0000
0000
0000
0004
0003
0000
,
0000
0000
0040
0000
0030
0300
0400
0000
0300
0000
4000
0000
3040
0000
0000
0000
,
0400
0000
0300
0000
0034
0003
0040
0030
0400
0000
0000
0000
0000
0000
0300
0000
4000
0000
0000
0000
0040
0000
0000
0000
0000
0000
0000
0000
0000
0030
0000
0000
,
0000
0000
3000
0000
4000
3000
0000
0000
0004
0000
0000
0000
0000
0000
0000
0000
0000
0000
0000
0000
4000
3003
0004
0000
0400
0303
0040
0000
4030
0000
3400
0000
,
0340
0034
4003
3040
0430
0304
4003
3040
0430
0304
0043
0430
0000
0000
0000
0000
,
0000
0000
0300
4000
0000
3040
0000
0000
0030
0400
0000
0000
0000
0000
0000
0000
,
0000
0000
0004
0000
0000
0003
0000
0300
0000
0000
0040
0000
0000
0000
0000
0000
0000
0000
0000
0000
0000
0000
0030
0000
0004
0000
4000
0000
3000
0000
0000
0000
,
0000
0000
0000
0000
0000
0000
0003
0000
0040
0000
0000
0000
0000
0000
0000
0000
0000
0000
0000
0030
0400
0000
0000
0300
0004
0000
0000
0000
0000
0000
0000
0000
,
0000
0000
0000
0000
0000
0000
0000
0000
0000
0000
0000
0000
0000
0000
0000
0000
0000
0000
0000
0000
0000
0000
0400
0303
0000
0000
4000
3004
0403
0340
4030
3400
,
0340
0034
4003
3040
0430
0304
0043
0430
0000
0300
0000
0000
4000
0000
0000
0000
3000
0000
0000
0000
0000
0000
0000
0000
0000
0000
0000
0000
0004
0000
0000
0000
,
0000
0000
4000
3000
0003
0000
0040
0000
0400
0000
0000
0330
0004
0043
0430
0000
,
4300
0000
0000
0000
0000
0000
3000
0000
0040
0000
0000
0000
0400
0000
0000
0300
0030
0000
0000
0000
0000
0000
0000
0000
0000
0000
0000
0000
0000
0000
0000
0000
,
0000
0000
0000
0000
0000
0000
0000
0000
0000
0000
0000
0000
0000
0000
0000
0000
0400
0000
0002
0300
0000
0003
0400
2300
3004
0043
0430
0300
0004
0043
0030
0400
,
4300
3040
0430
0304
0003
0004
0043
0430
4300
3000
0004
0000
0000
0000
0000
0000
0000
0000
0000
0000
0000
0000
0000
0000
0000
0000
0000
0000
4000
0000
0000
0000
,
0003
0000
0000
0000
0000
0000
0000
3400
,
0000
0000
0000
0000
0000
0000
0000
0340
,
0000
0034
0403
0340
0000
4030
3400
0000
,
0340
0000
0034
0000
0403
0000
0000
0300
0400
0000
0000
0000
0000
0000
0000
0300
,
0400
0000
0000
0000
0000
0000
0000
0000
0000
0000
0000
0000
0000
0000
0000
0300
,
0400
0000
0000
0000
,
0000
0000
0000
0000
,
0000
0300
0400
0000
0000
0000
0340
0000
0034
0403
0340
4030
3400
0340
0034
4003
,
3040
0000
0000
0000
0000
0000
0000
0000
0000
0000
0000
0000
0000
0000
0000
0000
0000
0000
0000
0000
0000
0000
0000
0000
0000
0000
0000
0000
0000
0000
0000
0000
0000
0000
0000
0000
0000
0000
0000
0000
0000
0000
0000
0000
0000
0000
0000
0000
0000
0000
0000
0000
0000
0000
0000
0000
0000
0000
0000
0000
0000
0000
0000
0000
0000
0000
0000
0000
0000
0000
0000
0000
0000
0000
0000
0000
0000
0000
0000
0000
0000
0000
0000
0000
0000
0000
0000
0000
0000
0000
0000
0000
0000
0000
0000
0000
0200
0000
0000
0000
0000
0000
0030
0000
0000
0000
0000
0000
0000
0000
0000
0000
0000
0000
0000
0000
0000
0000
0000
0000
0000
0000
0000
0000
0000
0000
0000
0000
0000
0000
0000
0000
0000
0000
0000
0000
0000
0000
0000
0000
0000
0000
0000
0000
0000
0000
0000
0000
0000
0000
0000
0000
0000
0000
0000
0000
0000
0000
0000
0000
0000
0000
0000
0000
0000
0000
0000
0000
0000
0000
0000
0000
0000
0000
0000
0000
0000
0000
0000
0000
0000
0000
0000
0000
0300
0000
0000
0000
0000
0000
0000
0000
,
0200
2300
3002
0023
0230
2300
3020
0230
0302
0023
0230
2300
3002
0023
0230
2300
3020
0230
0302
0203
0320
2030
3200
0320
,
0032
4003
0000
0000
3000
0400
0000
0000
0000
0304
0000
4003
0000
3040
0430
0304
,
0043
0030
0400
0300
4000
0040
0000
0030
3000
0400
0000
0000
0000
0000
0000
0000
,
0300
0004
0000
0040
0003
0430
4300
3004
0043
0030
0400
0000
4300
3040
0430
0304
,
0043
0000
0030
0000
0400
0000
4300
3000
2200
0000
0000
0000
0000
0000
0000
0000
3300
0000
0000
0000
0000
0000
0000
0000
0001
0000
0000
0000
0000
0000
0000
0000
,
0020
0000
0000
0000
0130
1000
0001
0100
,
0110
0000
1100
0000
0101
0000
0010
0001
,
0100
0020
0000
1030
0200
0000
0320
0000
,
0032
0003
2200
0000
0000
3300
0110
0000
,
0101
0100
0012
0000
1003
0100
0010
0001
,
2000
0000
3002
0000
0000
0000
0103
0010
,
1000
0000
0100
0000
0010
0000
0001
0000
2000
0000
3000
0000
0002
0203
0320
2030
,
3200
0320
0032
0203
0320
0000
0000
0000
0030
0000
0000
0000
0101
0000
0000
0000
,
0011
0000
1100
0000
0100
0010
0001
0100
,
0020
0000
2030
0000
0000
0000
3001
0010
,
0200
2000
3300
0020
0200
0330
0011
0000
,
1010
0000
0220
0000
0000
0330
0002
0000
,
0203
0000
0000
0000
0000
0000
0310
1100
,
0100
0011
0201
0000
0000
0300
0100
0001
,
2000
3000
0200
0000
0000
0000
1300
0001
,
0200
0300
0020
0000
0000
1030
0100
0010
,
0002
0003
0200
0000
0000
0000
1300
0100
,
0020
0030
0002
0000
0000
0003
0001
0100
,
0020
0030
2000
0000
0000
0000
3100
1000
,
0002
0003
0020
0000
0000
0000
0130
1000
,
0002
0003
4444
0000
0000
0000
0000
0000
,
0000
0000
3333
0000
;
