#TITLE:Airwave-08;
#SUBTITLE:;
#ARTIST:DJ Sharpnel;
#TITLETRANSLIT:;
#SUBTITLETRANSLIT:;
#ARTISTTRANSLIT:;
#CREDIT:;
#BANNER:airwave-08 bn.png;
#BACKGROUND:airwave-08 bg.png;
#LYRICSPATH:;
#CDTITLE:;
#MUSIC:AIRWAVE-08.ogg;
#OFFSET:0.192;
#SAMPLESTART:107.817;
#SAMPLELENGTH:21.332;
#SELECTABLE:YES;
#DISPLAYBPM:180.000;
#BPMS:0.000=180.000,528.000=90.000,576.000=180.000;
#STOPS:;
#BGCHANGES:;
// cache tags:
#FIRSTBEAT:4.000;
#LASTBEAT:982.000;
#SONGFILENAME:Songs/SHARPNELSTREAMZ v2/Airwave-08/Airwave-08.sm;
#HASMUSIC:1;
#HASBANNER:1;
#MUSICLENGTH:343.771;
// end cache tags

//---------------dance-single - 14 (Loak)----------------
#NOTES:
     dance-single:
     14 (Loak):
     Hard:
     14:
     1.000,1.000,0.346,0.177,1.000,2309.000,119.000,61.000,42.000,0.000:
0000
0000
0000
0000
,
1001
0000
0001
0000
0010
0000
0100
1000
0100
1000
0001
0000
0100
0001
0100
0000
,
0010
0000
1000
0000
1000
0000
0001
0010
0001
0010
0100
0000
1000
0001
1000
0001
,
0100
0000
0100
0000
0010
0000
1000
0010
1000
0010
0100
0000
0001
1000
0100
0000
,
0010
0000
0001
0000
0001
0000
0010
0100
0010
0100
1000
0000
0001
0100
0001
0000
,
1010
0000
1000
0000
0100
0000
0010
0001
0010
0001
1000
0000
0010
1000
0010
0000
,
0100
0000
0001
0000
0001
0000
1000
0100
1000
0100
0010
0000
0001
1000
0001
1000
,
0010
0000
0010
0000
0100
0000
0001
0100
0001
0100
0010
0000
1000
0001
0010
0000
,
1100
0000
0000
0011
0000
0000
0110
0000
0000
1001
0000
0000
0101
0000
0110
0000
,
1010
0000
1000
0000
0001
0000
0010
0001
0010
0001
1000
0000
0010
1000
0010
0000
,
0100
0000
0001
0000
0001
0000
1000
0100
1000
0100
0010
0000
0001
0000
1001
0000
,
1001
0000
1000
0000
0010
0000
0100
0001
0100
0001
1000
0000
0001
1000
0100
0000
,
0010
0000
0001
0000
0001
0000
0010
0100
0010
0100
1000
0000
0001
0000
0101
0000
,
0101
0000
0100
0000
0010
0000
1000
0010
1000
0010
0100
0000
0001
0000
1001
0000
,
1001
0000
1000
0100
0010
0001
0010
0001
1000
0001
0010
0100
1000
0001
0100
0010
,
0100
0001
1000
0001
0010
0100
1000
0001
1000
0001
0100
0010
1000
0001
0010
0001
,
0400
0300
0004
0003
4000
3000
0400
0300
4000
3000
0004
0003
0400
0300
0004
0003
4000
3000
0400
0300
4000
3000
0004
0003
0400
0300
0004
0003
0040
0030
0400
0300
,
1000
0001
0100
0000
0001
0000
1000
0000
0010
1000
0010
0000
0100
0001
0100
0000
,
0001
1000
0010
0000
1000
0000
0100
0010
0001
0010
0100
0000
0010
0001
1000
0010
,
0100
0001
0100
0000
0001
0000
1000
0000
0100
0010
0100
0000
0010
0001
0010
0000
,
0001
1000
0010
0000
0100
0000
0001
1000
0010
1000
0001
0000
0010
0100
1000
0100
,
0010
0001
1000
0000
0001
0000
0100
0000
0010
1000
0010
0000
1000
0001
1000
0000
,
0001
0010
0100
0000
1000
0000
0001
0100
0010
0100
0001
0000
1000
0001
0010
0100
,
1000
0001
1000
0000
0100
0000
0010
0000
0001
0100
0001
0000
1000
0100
1000
0000
,
0001
1000
0010
0000
1000
0000
0001
0000
0100
0001
0100
0000
0010
1000
0010
0000
,
1000
0001
0100
0000
0001
0000
0010
0100
1000
0100
0010
0000
0100
1000
0001
0100
,
0010
1000
0010
0000
1000
0000
0001
0000
0010
0100
0010
0000
0100
1000
0100
0000
,
1000
0001
0100
0000
0010
0000
1000
0001
0100
0001
1000
0000
0100
0010
0001
0010
,
0100
1000
0001
0000
1000
0000
0010
0000
0100
0001
0100
0000
0001
1000
0001
0000
,
1000
0100
0010
0000
0001
0000
1000
0010
0100
0010
1000
0000
0001
1000
0100
0010
,
0001
1000
0001
0000
0010
0000
0100
0000
1000
0010
1000
0000
0001
0010
0001
0000
,
1000
0010
0100
0001
0010
0001
1000
0100
0010
0100
1000
0001
0010
0001
0100
0010
,
4000
3000
0400
0300
0040
0030
0004
0003
0400
0300
0004
0003
0040
0030
0400
0300
4000
3000
0040
0030
0400
0300
0040
0030
4000
3000
0400
0300
0040
0030
0004
0003
,
1000
0001
0100
0010
0100
0001
1000
0001
1000
0100
1000
0010
0100
0010
1000
0010
,
0100
0001
0100
0001
0010
0001
1000
0100
1000
0001
0100
0010
0100
0001
0010
0100
,
0010
0001
1000
0010
1000
0001
0100
0010
0100
0001
1000
0100
0010
0100
1000
0001
,
1000
0010
0100
0001
1000
0001
0100
0010
0100
0001
1000
0001
0100
0010
0100
0001
,
1000
0100
0010
0100
0010
0001
1000
0001
0010
0100
1000
0001
1000
0010
0100
0010
,
1000
0001
0010
0100
0010
0100
1000
0001
1000
0010
0100
0010
1000
0001
1000
0010
,
0100
0001
0010
0100
0010
0001
1000
0100
1000
0001
0100
0010
1000
0010
0100
0001
,
0010
0001
0100
0010
1000
0100
1000
0001
0010
0100
0010
0001
1000
0100
1000
0010
,
0100
0001
1000
0001
0010
0100
1000
0100
1000
0001
1000
0010
0100
0001
0100
0010
,
1000
0001
0010
0100
0010
0001
1000
0010
1000
0001
0100
0010
0100
0001
1000
0001
,
1000
0100
0010
0100
1000
0001
1000
0010
0100
0010
0100
0001
1000
0001
0100
0010
,
1000
0001
0010
0001
0010
0100
1000
0001
1000
0100
1000
0001
0100
0010
0100
0001
,
1000
0001
0010
0100
0010
0001
1000
0010
0100
0010
0100
0001
1000
0001
1000
0010
,
0100
0010
1000
0001
0010
0100
1000
0010
0100
0001
0010
0001
1000
0100
1000
0001
,
0010
0100
0010
0001
1000
0010
0100
0010
1000
0001
0010
0001
1000
0010
0100
0010
,
4000
3000
0004
0003
0040
0030
0004
0003
0400
0300
0040
0030
4000
3000
0400
0300
4000
3000
0004
0003
0040
0030
0004
0003
4000
3000
0400
0300
0040
0030
0004
0003
,
1000
0400
0000
0310
0004
0000
0103
0040
,
0000
0000
0000
0000
0000
0000
0000
0000
0100
0030
0000
0000
0000
0000
0000
0000
0040
0000
0000
0000
0000
0000
0000
0000
0000
0000
0000
0000
0000
0000
0000
0000
1030
0000
0000
0000
0000
0000
0000
0000
1000
0000
0000
0000
0000
0000
0000
0000
0100
0000
0000
0000
0000
0000
0000
0000
0100
0000
0000
0000
0000
0000
0000
0000
,
0010
0000
0000
0000
0000
0000
0000
0000
0004
0000
0000
0000
0000
0000
0000
0000
0000
0000
0000
0000
0000
0000
0000
0000
1003
0000
0000
0000
0000
0000
0000
0000
0040
0000
0000
0000
0000
0000
0000
0000
0000
0000
0000
0000
0000
0000
0000
0000
0100
0030
0000
0000
0000
0000
0000
0000
0004
0000
0000
0000
0000
0000
0000
0000
,
0000
0103
0004
0000
1003
1000
0100
0100
,
0010
0004
0000
0103
0040
0000
1030
0004
,
0000
1003
0004
0000
0013
0010
0100
0100
,
1000
0000
0000
0000
0000
0000
0000
0000
0040
0000
0000
0000
0000
0000
0000
0000
0000
0000
0000
0000
0000
0000
0000
0000
0100
0030
0000
0000
0000
0000
0000
0000
0004
0000
0000
0000
0000
0000
0000
0000
0000
0000
0000
0000
0000
0000
0000
0000
1003
0000
0000
0000
0000
0000
0000
0000
0400
0000
0000
0000
0000
0000
0000
0000
,
0000
1300
0400
0000
0310
0010
0001
0001
,
0100
0040
0000
1030
0004
0000
0013
0400
,
0000
0310
0400
0000
1300
1000
0001
0001
,
0100
0040
0000
1030
0004
0000
0013
0400
,
0000
0000
0000
0000
0000
0000
0000
0000
0010
0300
0000
0000
0000
0000
0000
0000
0400
0000
0000
0000
0000
0000
0000
0000
0000
0000
0000
0000
0000
0000
0000
0000
1300
0000
0000
0000
0000
0000
0000
0000
1000
0000
0000
0000
0000
0000
0000
0000
0001
0000
0000
0000
0000
0000
0000
0000
0001
0000
0000
0000
0000
0000
0000
0000
,
0100
0000
0000
0000
0000
0000
0000
0000
0040
0000
0000
0000
0000
0000
0000
0000
0000
0000
0000
0000
0000
0000
0000
0000
1000
0030
0000
0000
0000
0000
0000
0000
0400
0000
0000
0000
0000
0000
0000
0000
0000
0000
0000
0000
0000
0000
0000
0000
0310
0000
0000
0000
0000
0000
0000
0000
0004
0000
0000
0000
0000
0000
0000
0000
,
0000
0013
0004
0000
0103
0100
0010
0010
,
1000
0001
0100
0001
0100
0010
0100
0001
1000
0100
1000
0001
0010
0001
1000
0010
,
0400
0300
0040
0030
4000
3000
0004
0003
0040
0030
0004
0003
0400
0300
0040
0030
4000
3000
0400
0300
4000
3000
0004
0003
0040
0030
0400
0300
4000
3000
0400
0300
,
0010
0000
0000
0000
0000
0000
0000
0000
0004
0000
0000
0000
0000
0000
0000
0000
0000
0000
0000
0000
0000
0000
0000
0000
1003
0000
0000
0000
0000
0000
0000
0000
0400
0000
0000
0000
0000
0000
0000
0000
0000
0000
0000
0000
0000
0000
0000
0000
1000
0300
0000
0000
0000
0000
0000
0000
0004
0000
0000
0000
0000
0000
0000
0000
,
0000
0000
0103
0000
0004
0000
0000
0000
1003
0100
1000
0000
0100
0010
0100
0000
,
0010
0004
0000
0103
0040
0000
1030
0400
,
0000
0000
1300
0000
0400
0000
0000
0000
0310
0001
0010
0000
0001
1000
0001
0000
,
0010
0400
0000
1300
0004
0000
1003
0040
,
0000
0000
0000
0000
0000
0000
0000
0000
1000
0030
0000
0000
0000
0000
0000
0000
0040
0000
0000
0000
0000
0000
0000
0000
0000
0000
0000
0000
0000
0000
0000
0000
0130
0000
0000
0000
0001
0000
0000
0000
0100
0000
0000
0000
0000
0000
0000
0000
0001
0000
0000
0000
0010
0000
0000
0000
0001
0000
0000
0000
0000
0000
0000
0000
,
1000
0000
0000
0000
0000
0000
0000
0000
0400
0000
0000
0000
0000
0000
0000
0000
0000
0000
0000
0000
0000
0000
0000
0000
1000
0300
0000
0000
0000
0000
0000
0000
0004
0000
0000
0000
0000
0000
0000
0000
0000
0000
0000
0000
0000
0000
0000
0000
0103
0000
0000
0000
0000
0000
0000
0000
0040
0000
0000
0000
0000
0000
0000
0000
,
0000
0000
0000
0000
0000
0000
0000
0000
0100
0030
0000
0000
0000
0000
0000
0000
0040
0000
0000
0000
0000
0000
0000
0000
0000
0000
0000
0000
0000
0000
0000
0000
1000
0030
0000
0000
0001
0000
0000
0000
1000
0000
0000
0000
0000
0000
0000
0000
0001
0000
0000
0000
0100
0000
0000
0000
0001
0000
0000
0000
0000
0000
0000
0000
,
1000
0400
0000
0310
0004
0000
0103
0040
,
0000
0000
0130
0000
0040
0000
0000
0000
1030
0100
1000
0000
0001
1000
0001
0000
,
0100
0000
0000
0000
0000
0000
0000
0000
0040
0000
0000
0000
0000
0000
0000
0000
0000
0000
0000
0000
0000
0000
0000
0000
1030
0000
0000
0000
0000
0000
0000
0000
0400
0000
0000
0000
0000
0000
0000
0000
0000
0000
0000
0000
0000
0000
0000
0000
0010
0300
0000
0000
0000
0000
0000
0000
0004
0000
0000
0000
0000
0000
0000
0000
,
0000
0000
0013
0000
0004
0000
0000
0000
0103
0010
0100
0000
0010
1000
0010
0000
,
0100
0004
0000
1003
0400
0000
0310
0004
,
0000
0000
0013
0000
0004
0000
0000
0000
1003
0010
1000
0000
0100
1000
0100
0000
,
1000
0001
1000
0100
0010
0001
1000
0001
0100
0010
1000
0100
0010
0001
1000
0100
,
4000
3000
0040
0030
0400
0300
0004
0003
0040
0030
0004
0003
4000
3000
0400
0300
0040
0030
0400
0300
4000
3000
0040
0030
0400
0300
0004
0003
4000
3000
0040
0030
,
2000
0100
3001
2000
0100
3001
2000
0100
,
3001
2000
0100
3001
2000
0100
3001
1000
,
0020
0100
1030
0020
0100
1030
0020
0100
,
0032
0100
1003
0002
0100
1003
0002
0100
,
2003
0010
3001
2000
0010
3001
1000
0200
,
0010
1300
0200
0010
1300
0200
0010
1300
,
0002
0010
1003
0002
0010
1003
0002
0100
,
2003
0010
3002
0100
2003
3001
0020
0130
,
2000
0010
3001
2000
0010
3001
2000
3002
,
0023
0130
2000
3010
0200
0301
0020
0130
,
2000
3010
0001
2000
0010
3001
0200
0302
,
2003
3010
0200
0301
2000
3100
0020
0031
,
2000
3002
0010
1003
0020
0100
2030
3001
,
1000
0100
0010
0001
1000
0001
0100
0010
0100
0001
1000
0001
0010
0100
0010
0100
,
1000
0001
1000
0010
0100
0001
0100
0010
1000
0001
0010
0001
0010
0100
0010
0100
,
4000
3000
0004
0003
0400
0300
0004
0003
4000
3000
0400
0300
0040
0030
0004
0003
0400
0300
0040
0030
4000
3000
0004
0003
0040
0030
0400
0300
4000
3000
0004
0003
,
1000
0000
0010
0100
0001
0000
1000
0001
1000
0001
0100
0000
0010
1000
0010
1000
,
00M1
0100
0001
1000
0010
1000
0001
1000
0100
1000
0001
0100
0010
1000
0010
1000
,
0001
0100
0001
0010
0100
0010
0100
1000
0001
1000
0010
0100
0001
0100
0010
1000
,
0001
1000
0100
0010
0001
1000
0001
1000
0001
0100
0001
1000
0001
0010
0100
1000
,
0001
0100
0001
0010
0100
1000
0010
1000
0001
0100
0001
1000
0010
0100
0001
1000
,
0001
0010
0100
1000
0001
1000
0010
0100
0010
1000
0001
1000
0010
0100
0010
1000
,
0001
0100
0010
1000
0010
0100
0001
0010
0001
1000
0100
0010
0001
1000
0010
0100
,
0010
1000
0001
0010
0001
1000
0010
0100
0010
1000
0001
1000
0100
1000
0010
0100
,
0010
1000
0001
0100
0001
1000
0001
0010
0100
1000
0001
1000
0010
0100
0001
1000
,
0100
1000
0010
0100
0001
0100
0001
0010
0001
1000
0100
1000
0001
0010
0001
0100
,
0001
0010
0100
1000
0001
1000
0010
0100
0010
1000
0001
0100
0001
1000
0100
1000
,
0100
0010
0001
1000
0010
1000
0001
0100
0010
1000
0001
1000
0100
1000
0010
0100
,
0001
0100
0001
0010
0001
1000
0100
1000
0001
0010
0001
1000
0001
0100
0010
0100
,
0001
0010
0100
1000
0001
1000
0010
0100
0001
0100
0010
1000
0001
0100
0001
0010
,
0100
0010
0001
1000
0001
0100
0010
1000
0010
0100
0010
1000
0001
1000
0100
1000
,
0010
0100
0001
0010
0100
0010
0001
1000
0001
0100
0010
0100
0001
1000
0100
0010
,
0004
0003
4000
3000
0040
0030
0400
0300
0004
0003
0040
0030
0400
0300
4000
3000
0040
0030
0400
0300
0004
0003
0040
0030
0400
0300
4000
3000
0004
0003
0400
0300
,
0001
0010
0001
1000
0100
1000
0001
1000
0010
1000
0001
0010
0100
1000
0001
1000
,
0001
0010
0001
1000
0010
0100
0010
1000
0001
1000
0100
0010
0001
0010
0100
1000
,
0001
1000
0010
0100
0001
1000
0001
0010
0001
0100
0001
1000
0010
0100
0010
1000
,
0001
0010
0001
0100
0010
1000
0001
1000
0001
0100
0001
0010
0100
1000
0100
0010
,
0001
0100
0010
1000
0001
1000
0100
0010
0100
1000
0001
1000
0010
0100
0010
1000
,
0001
0010
0001
0100
0010
1000
0001
0010
0001
1000
0001
0100
0001
1000
0100
0010
,
0100
1000
0001
0100
0001
1000
0100
0010
0100
1000
0001
1000
0010
1000
0100
0010
,
0100
1000
0001
0010
0001
1000
0010
0100
0001
0100
0010
1000
0001
0010
0001
1000
,
0010
1000
0100
0010
0001
0010
0100
1000
0010
1000
0001
0100
0010
0100
0001
0010
,
0001
0100
0010
1000
0001
1000
0100
0010
0100
1000
0001
0010
0001
1000
0010
0100
,
0010
1000
0001
0010
0100
1000
0100
0010
0001
1000
0010
0100
0010
1000
0001
0100
,
0001
0010
0001
0100
0001
1000
0010
1000
0001
0100
0001
1000
0001
0010
0100
0010
,
0001
0100
0010
1000
0001
1000
0100
0010
0001
0010
0100
1000
0001
0100
0010
1000
,
0001
0100
0001
1000
0001
0010
0100
1000
0100
0010
0100
1000
0001
0010
0001
0100
,
0010
1000
0010
0100
0010
1000
0001
0010
0100
1000
0100
0010
0001
1000
0010
0100
,
0004
0003
4000
3000
0400
0300
0040
0030
0004
0003
0400
0300
0040
0030
4000
3000
0400
0300
0040
0030
0004
0003
0400
0300
0040
0030
4000
3000
0004
0000
0043
0030
,
0200
000M
0000
00M0
0000
M000
0000
00M0
0000
000M
00M0
M000
00M0
000M
00M0
M000
,
00M0
0000
0000
0000
0000
0000
0000
0000
0000
0000
0000
0000
000M
0000
0000
0000
00M0
0000
0000
0000
0000
0000
0000
0000
M000
0000
0000
0000
0000
0000
0000
0000
00M0
0000
0000
0000
0000
0000
0000
0000
000M
0000
0000
0000
0000
0000
0000
0000
00M0
0000
0000
0000
0000
0000
0000
0000
M000
0000
0000
0000
0000
0000
0000
0000
00M0
0000
0000
0000
0000
0000
0000
0000
000M
0000
0000
0000
0000
0000
0000
0000
00M0
0000
0000
0000
0000
0000
0000
0000
M000
0000
0000
0000
0000
0000
0000
0000
00M0
0000
0000
0000
0000
0000
000M
0000
0000
0000
0000
0000
00M0
0000
0000
0000
0000
0000
M000
0000
0000
0000
0000
0000
00M0
0000
0000
0000
0000
0000
000M
0000
0000
0000
0000
0000
00M0
0000
0000
0000
0000
0000
M000
0000
0000
0000
0000
0000
00M0
0000
0000
0000
0000
0000
000M
0000
0000
0000
0000
0000
00M0
0000
0000
0000
0000
0000
M000
0000
0000
0000
0000
0000
00M0
0000
0000
0000
0000
0000
000M
0000
0000
0000
0000
0000
00M0
0000
0000
0000
0000
0000
0000
0000
0000
0000
0000
0000
,
230M
0000
0000
0010
0000
0000
0010
0000
3200
0000
0000
0001
0000
0000
0001
0000
,
2300
0000
0000
0100
0000
0000
0100
0000
0100
0000
0000
0100
0000
0000
3002
0000
,
0023
0000
0000
0100
0000
0000
0100
0000
2030
0000
0000
0010
0000
0000
0010
0000
,
3200
0000
0000
0001
0000
0000
0001
0000
0001
0000
0000
0001
0000
0000
0320
0000
,
2030
0000
0000
0100
0000
0000
0100
0000
3002
0000
0000
0010
0000
0000
0010
0000
,
2003
0000
0000
0010
0000
0000
0010
0000
0010
0000
0000
0010
0000
3000
0200
0000
,
0302
0000
0000
1000
0000
0000
1000
0000
0023
0000
0000
0100
0000
0000
0100
0000
,
2030
0000
0000
0010
0000
0000
0010
0000
0010
0000
0000
0010
0000
0000
3002
0000
,
1003
0100
1000
0001
0100
0001
1000
0010
0100
0001
0100
0010
1000
0010
0100
0001
,
0010
0001
0010
0100
1000
0100
0010
0001
1000
0010
1000
0001
0010
0001
0100
0010
,
1000
0100
1000
0001
0100
0001
1000
0010
0100
0010
0100
0001
0010
0001
1000
0001
,
1000
0100
1000
0001
0010
0001
1000
0010
0100
0001
0100
0010
1000
0010
0100
0001
,
MM10
0000
0011
0000
0100
0100
1100
0000
,
1000
0000
1010
0000
0100
0100
0101
0000
,
0001
0000
0011
0000
0010
0010
0110
0000
,
1000
0000
0101
0000
0001
0001
1001
0000
,
1000
0000
1100
0000
1000
1000
1010
0000
,
0100
0000
0101
0000
0001
0001
0011
0000
,
1000
0000
1001
0000
0001
0001
0101
0000
,
0010
0000
0110
0000
1000
1000
1100
0000
,
1000
0000
0000
0000
1001
0000
0001
0100
0010
0000
0000
0100
0000
0000
0010
0000
,
1000
0000
0000
0000
0001
0000
0000
0010
0000
0000
0100
0000
0010
0000
0001
0000
,
1000
0000
0000
0001
0000
0000
0100
0010
,
0000
0000
1000
0000
0000
0000
0001
0000
0000
0000
0010
0000
0000
0000
0100
1000
,
0001
0100
0010
0100
0001
1000
0100
0010
,
0000
0000
0001
0000
0000
0000
1000
0010
0100
0000
0001
0000
0010
0000
0100
0000
,
1000
0000
0000
0000
0000
0001
0100
0001
,
0010
0000
0100
0000
1000
0001
0000
0000
,
0000
0000
0000
0000
0000
0000
1000
0001
0010
0000
0000
0100
0000
0000
1000
0000
,
0001
0000
0000
0000
0100
0000
0000
0010
0000
0000
1000
0000
0001
0000
0010
0000
,
0100
0000
0000
1000
0000
0000
0010
0100
,
0000
0000
0001
0000
0000
0000
1000
0000
0000
0000
0100
0000
0000
0000
1000
0010
,
0100
0001
0010
0100
0010
0001
1000
0010
,
0000
0000
0100
0000
0000
0000
0001
0010
0100
0000
1000
0000
0001
0000
0010
0000
,
0001
0000
0000
0000
0000
1000
0010
1000
,
0001
0000
0010
0000
0100
1000
0000
0000
,
0001
0000
0000
0000
0000
1000
0001
0010
,
0100
0000
1000
0000
0010
0100
0000
0000
,
0001
0000
0000
0000
0000
1000
0010
1000
,
0001
0000
0000
0000
0000
1000
0010
1000
,
0001
0000
0010
0000
,
0100
0000
1000
0000
,
0001
1000
0010
0100
,
0001
0010
0100
1000
,
0001
0100
0010
1000
0010
0100
0001
1000
,
0001
0010
0100
1000
0100
0010
0001
1000
,
0001
1000
0001
1000
0010
1000
0010
0100
0010
0100
0001
0100
0001
1000
0001
1000
,
0400
0000
0000
0000
0000
0000
0000
0000
0000
0000
0000
0000
0000
0000
0000
0000
0000
0000
0000
0000
0000
0000
0000
0000
0010
0000
0000
0000
0000
0000
0000
0300
,
1001
0000
0000
0000
,
1000
0010
1000
0001
0100
0001
1000
0001
0010
0001
1000
0010
0100
0001
0100
0001
,
1000
0010
1000
0100
0010
0100
0010
0001
1000
0001
0100
0010
1000
0010
0100
0001
,
1000
0001
0010
0100
1000
0100
1000
0001
1000
0010
1000
0001
0010
0100
0010
0001
,
1000
0010
1000
0100
0010
0001
0010
0001
1000
0010
1000
0010
0100
0001
0100
0010
,
1000
0100
0010
0001
1000
0001
0100
0010
0100
0001
1000
0001
0010
0100
0010
0001
,
1000
0010
0100
0001
1000
0010
0100
0010
1000
0100
0010
0100
1000
0001
0100
0010
,
0100
0001
1000
0100
1000
0001
0100
0010
0100
0001
1000
0001
0010
0001
0100
0010
,
0100
0001
1000
0010
1000
0001
1000
0100
0010
0100
0010
0001
1000
0010
1000
0001
,
0010
0001
0100
0010
1000
0010
1000
0100
1000
0001
0010
0001
1000
0100
1000
0010
,
1000
0100
0010
0001
1000
0001
0100
0010
0100
0001
1000
0010
1000
0001
0010
0001
,
0010
0100
1000
0001
1000
0010
0100
0001
1000
0001
0100
0001
0010
0001
0100
0010
,
1000
0010
1000
0100
1000
0001
0010
0100
1000
0100
0010
0001
1000
0010
0100
0010
,
1000
0100
0010
0001
1000
0001
0100
0010
1000
0010
0100
0001
1000
0001
0100
0001
,
1000
0100
1000
0001
1000
0010
0100
0001
0100
0010
0100
0001
1000
0001
0010
0001
,
0100
0010
1000
0100
0010
0100
1000
0001
1000
0010
0100
0010
1000
0001
0010
0100
,
4000
3000
0004
0003
0400
0300
0040
0030
4000
3000
0400
0300
0040
0030
0004
0003
0400
0300
0040
0030
4000
3000
0400
0300
0040
0030
0004
0003
4000
3000
0040
0030
,
1000
0100
1000
0001
0010
0001
1000
0001
0100
0001
1000
0100
0010
0001
0010
0001
,
1000
0100
1000
0010
0100
0010
0100
0001
1000
0001
0010
0100
1000
0100
0010
0001
,
1000
0001
0100
0010
1000
0010
1000
0001
1000
0100
1000
0001
0100
0010
0100
0001
,
1000
0100
1000
0010
0100
0001
0100
0010
1000
0001
1000
0100
0010
0001
0010
0100
,
1000
0010
0100
0001
1000
0001
0010
0100
0010
0001
1000
0001
0100
0010
0100
0001
,
1000
0100
1000
0001
0010
0001
1000
0010
1000
0010
0100
0010
1000
0001
0010
0100
,
0010
0001
1000
0010
1000
0001
0010
0100
0010
0001
1000
0001
0100
0001
0010
0100
,
0010
0001
1000
0100
1000
0001
1000
0010
0100
0010
1000
0001
1000
0100
1000
0001
,
0100
0001
0010
0100
1000
0100
1000
0010
1000
0001
0100
0001
0100
0010
1000
0100
,
1000
0010
0100
0001
1000
0001
0010
0100
0010
0001
1000
0100
1000
0001
0100
0001
,
0100
0010
1000
0001
0010
0001
0010
0100
0010
0001
1000
0001
0100
0001
0010
0100
,
1000
0100
1000
0010
0100
0001
1000
0010
0100
0010
1000
0001
1000
0100
0010
0001
,
1000
0010
0100
0010
1000
0001
0010
0100
,
1000
0010
0100
0001
1000
0100
0010
0001
0010
0100
0010
0001
1000
0001
0100
0010
,
1000
0000
0001
0100
0010
0100
0001
0010
0100
1000
0100
0010
0001
1000
0010
0100
,
0004
0003
4000
3000
0400
0300
0040
0030
0004
0003
0400
0300
0040
0030
4000
3000
0400
0300
0040
0030
0004
0003
0400
0300
0040
0030
4000
3000
0004
0000
0043
0030
,
0001
4000
0000
3100
0040
0000
0031
0400
,
0000
0000
0000
0000
0000
0000
0000
0000
0010
0300
0000
0000
0000
0000
0000
0000
0400
0000
0000
0000
0000
0000
0000
0000
0000
0000
0000
0000
0000
0000
0000
0000
0301
0000
0000
0000
0000
0000
0000
0000
0001
0000
0000
0000
0000
0000
0000
0000
0010
0000
0000
0000
0000
0000
0000
0000
0010
0000
0000
0000
0000
0000
0000
0000
,
0100
0000
0000
0000
0000
0000
0000
0000
4000
0000
0000
0000
0000
0000
0000
0000
0000
0000
0000
0000
0000
0000
0000
0000
3001
0000
0000
0000
0000
0000
0000
0000
0400
0000
0000
0000
0000
0000
0000
0000
0000
0000
0000
0000
0000
0000
0000
0000
0010
0300
0000
0000
0000
0000
0000
0000
4000
0000
0000
0000
0000
0000
0000
0000
,
0000
3010
4000
0000
3001
0001
0010
0010
,
0100
4000
0000
3010
0400
0000
0301
4000
,
0000
3001
4000
0000
3100
0100
0010
0010
,
0001
0000
0000
0000
0000
0000
0000
0000
0400
0000
0000
0000
0000
0000
0000
0000
0000
0000
0000
0000
0000
0000
0000
0000
0010
0300
0000
0000
0000
0000
0000
0000
4000
0000
0000
0000
0000
0000
0000
0000
0000
0000
0000
0000
0000
0000
0000
0000
3001
0000
0000
0000
0000
0000
0000
0000
0040
0000
0000
0000
0000
0000
0000
0000
,
0000
0031
0040
0000
0130
0100
1000
1000
,
0010
0400
0000
0301
4000
0000
3100
0040
,
0000
0130
0040
0000
0031
0001
1000
1000
,
0010
0400
0000
0301
4000
0000
3100
0040
,
0000
0000
0000
0000
0000
0000
0000
0000
0100
0030
0000
0000
0000
0000
0000
0000
0040
0000
0000
0000
0000
0000
0000
0000
0000
0000
0000
0000
0000
0000
0000
0000
0031
0000
0000
0000
0000
0000
0000
0000
0001
0000
0000
0000
0000
0000
0000
0000
1000
0000
0000
0000
0000
0000
0000
0000
1000
0000
0000
0000
0000
0000
0000
0000
,
0010
0000
0000
0000
0000
0000
0000
0000
0400
0000
0000
0000
0000
0000
0000
0000
0000
0000
0000
0000
0000
0000
0000
0000
0001
0300
0000
0000
0000
0000
0000
0000
0040
0000
0000
0000
0000
0000
0000
0000
0000
0000
0000
0000
0000
0000
0000
0000
0130
0000
0000
0000
0000
0000
0000
0000
4000
0000
0000
0000
0000
0000
0000
0000
,
0000
3100
4000
0000
3010
0010
0100
0100
,
0001
1000
0010
1000
0010
0100
0010
1000
0001
0010
0001
1000
0100
1000
0001
0100
,
0040
0030
0400
0300
0004
0003
4000
3000
0400
0300
4000
3000
0040
0030
0400
0300
0004
0003
0040
0030
0004
0003
4000
3000
0400
0300
0040
0030
0004
0003
0040
0030
,
0100
0000
0000
0000
0000
0000
0000
0000
4000
0000
0000
0000
0000
0000
0000
0000
0000
0000
0000
0000
0000
0000
0000
0000
3001
0000
0000
0000
0000
0000
0000
0000
0040
0000
0000
0000
0000
0000
0000
0000
0000
0000
0000
0000
0000
0000
0000
0000
0001
0030
0000
0000
0000
0000
0000
0000
4000
0000
0000
0000
0000
0000
0000
0000
,
0000
0000
3010
0000
4000
0000
0000
0000
3001
0010
0001
0000
0010
0100
0010
0000
,
0100
4000
0000
3010
0400
0000
0301
0040
,
0000
0000
0031
0000
0040
0000
0000
0000
0130
1000
0100
0000
1000
0001
1000
0000
,
0001
0040
0000
0130
4000
0000
3001
0400
,
0000
0000
0000
0000
0000
0000
0000
0000
0001
0300
0000
0000
0000
0000
0000
0000
0400
0000
0000
0000
0000
0000
0000
0000
0000
0000
0000
0000
0000
0000
0000
0000
0310
0000
0000
0000
1000
0000
0000
0000
0010
0000
0000
0000
0000
0000
0000
0000
1000
0000
0000
0000
0100
0000
0000
0000
1000
0000
0000
0000
0000
0000
0000
0000
,
0001
0000
0000
0000
0000
0000
0000
0000
0040
0000
0000
0000
0000
0000
0000
0000
0000
0000
0000
0000
0000
0000
0000
0000
0001
0030
0000
0000
0000
0000
0000
0000
4000
0000
0000
0000
0000
0000
0000
0000
0000
0000
0000
0000
0000
0000
0000
0000
3010
0000
0000
0000
0000
0000
0000
0000
0400
0000
0000
0000
0000
0000
0000
0000
,
0000
0000
0000
0000
0000
0000
0000
0000
0010
0300
0000
0000
0000
0000
0000
0000
0400
0000
0000
0000
0000
0000
0000
0000
0000
0000
0000
0000
0000
0000
0000
0000
0001
0300
0000
0000
1000
0000
0000
0000
0001
0000
0000
0000
0000
0000
0000
0000
1000
0000
0000
0000
0010
0000
0000
0000
1000
0000
0000
0000
0000
0000
0000
0000
,
0001
0040
0000
0130
4000
0000
3010
0400
,
0000
0000
0310
0000
0400
0000
0000
0000
0301
0010
0001
0000
1000
0001
1000
0000
,
0010
0000
0000
0000
0000
0000
0000
0000
0400
0000
0000
0000
0000
0000
0000
0000
0000
0000
0000
0000
0000
0000
0000
0000
0301
0000
0000
0000
0000
0000
0000
0000
0040
0000
0000
0000
0000
0000
0000
0000
0000
0000
0000
0000
0000
0000
0000
0000
0100
0030
0000
0000
0000
0000
0000
0000
4000
0000
0000
0000
0000
0000
0000
0000
,
0000
0000
3100
0000
4000
0000
0000
0000
3010
0100
0010
0000
0100
0001
0100
0000
,
0010
1000
0000
0001
0000
0010
0000
0100
,
0000
1000
0000
0001
0000
0100
0000
0010
,
1000
0001
1000
0100
0010
0001
1000
0001
0100
0010
1000
0100
0010
0001
1000
0100
,
4000
3000
0040
0030
0400
0300
0004
0003
0040
0030
0004
0003
4000
3000
0400
0300
0040
0030
0400
0300
4000
3000
0040
0030
0400
0300
0004
0003
4000
3000
0040
0030
,
2000
0000
3000
0000
;

//---------------dance-single - 15+ (TYLoak)----------------
#NOTES:
     dance-single:
     15+ (TYLoak):
     Challenge:
     15:
     1.000,1.000,0.099,0.177,1.000,2931.000,34.000,61.000,40.000,0.000:
0000
0000
0000
0000
,
1001
0000
0001
0000
0010
0000
0100
1000
0100
1000
0001
0000
0100
0001
0100
0000
,
0010
0000
1000
0000
1000
0000
0001
0010
0001
0010
0100
0000
1000
0001
1000
0001
,
0100
0000
0100
0000
0010
0000
1000
0010
1000
0010
0100
0000
0001
1000
0100
0000
,
0010
0000
0001
0000
0001
0000
0010
0100
0010
0100
1000
0000
0001
0100
0001
0000
,
1010
0000
1000
0000
0100
0000
0010
0001
0010
0001
1000
0000
0010
1000
0010
0000
,
0100
0000
0001
0000
0001
0000
1000
0100
1000
0100
0010
0000
0001
1000
0001
1000
,
0010
0000
0010
0000
0100
0000
0001
0100
0001
0100
0010
0000
1000
0001
0010
0000
,
1100
0000
0000
0011
0000
0000
0110
0000
0000
1001
0000
0000
0101
0000
0110
0000
,
1010
0000
1000
0000
0001
0000
0010
0001
0010
0001
1000
0000
0010
1000
0010
0000
,
0100
0000
0001
0000
0001
0000
1000
0100
1000
0100
0010
0000
0001
0000
1001
0000
,
1001
0000
1000
0000
0010
0000
0100
0001
0100
0001
1000
0000
0001
1000
0100
0000
,
0010
0000
0001
0000
0001
0000
0010
0100
0010
0100
1000
0000
0001
0000
0101
0000
,
0101
0000
0100
0000
0010
0000
1000
0010
1000
0010
0100
0000
0001
0000
1001
0000
,
1001
0000
1000
0100
0010
0001
0010
0001
1000
0001
0010
0100
1000
0001
0100
0010
,
0100
0001
1000
0001
0010
0100
1000
0001
1000
0001
0100
0010
1000
0001
0010
0001
,
0400
0300
0004
0003
4000
3000
0400
0300
4000
3000
0004
0003
0400
0300
0004
0003
4000
3000
0400
0300
4000
3000
0004
0003
0400
0300
0004
0003
0040
0030
0400
0300
,
1000
0001
0100
0000
0001
0000
1000
0000
0010
1000
0010
0000
0100
0001
0100
0000
,
0001
1000
0010
0000
1000
0000
0100
0010
0001
0010
0100
0000
0010
0001
1000
0010
,
0100
0001
0100
0000
0001
0000
1000
0000
0100
0010
0100
0000
0010
0001
0010
0000
,
0001
1000
0010
0000
0100
0000
0001
1000
0010
1000
0001
0000
0010
0100
1000
0100
,
0010
0001
1000
0000
0001
0000
0100
0000
0010
1000
0010
0000
1000
0001
1000
0000
,
0001
0010
0100
0000
1000
0000
0001
0100
0010
0100
0001
0000
1000
0001
0010
0100
,
1000
0001
1000
0000
0100
0000
0010
0000
0001
0100
0001
0000
1000
0100
1000
0000
,
0001
1000
0010
0000
1000
0000
0001
0000
0100
0001
0100
0000
0010
1000
0010
0000
,
1000
0001
0100
0000
0001
0000
0010
0100
1000
0100
0010
0000
0100
1000
0001
0100
,
0010
1000
0010
0000
1000
0000
0001
0000
0010
0100
0010
0000
0100
1000
0100
0000
,
1000
0001
0100
0000
0010
0000
1000
0001
0100
0001
1000
0000
0100
0010
0001
0010
,
0100
1000
0001
0000
1000
0000
0010
0000
0100
0001
0100
0000
0001
1000
0001
0000
,
1000
0100
0010
0000
0001
0000
1000
0010
0100
0010
1000
0000
0001
1000
0100
0010
,
0001
1000
0001
0000
0010
0000
0100
0000
1000
0010
1000
0000
0001
0010
0001
0000
,
1000
0010
0100
0001
0010
0001
1000
0100
0010
0100
1000
0001
0010
0001
0100
0010
,
4000
3000
0400
0300
0040
0030
0004
0003
0400
0300
0004
0003
0040
0030
0400
0300
4000
3000
0040
0030
0400
0300
0040
0030
4000
3000
0400
0300
0040
0030
0004
0003
,
1000
0001
0100
0010
0100
0001
1000
0001
1000
0100
1000
0010
0100
0010
1000
0010
,
0100
0001
0100
0001
0010
0001
1000
0100
1000
0001
0100
0010
0100
0001
0010
0100
,
0010
0001
1000
0010
1000
0001
0100
0010
0100
0001
1000
0100
0010
0100
1000
0001
,
1000
0010
0100
0001
1000
0001
0100
0010
0100
0001
1000
0001
0100
0010
0100
0001
,
1000
0100
0010
0100
0010
0001
1000
0001
0010
0100
1000
0001
1000
0010
0100
0010
,
1000
0001
0010
0100
0010
0100
1000
0001
1000
0010
0100
0010
1000
0001
1000
0010
,
0100
0001
0010
0100
0010
0001
1000
0100
1000
0001
0100
0010
1000
0010
0100
0001
,
0010
0001
0100
0010
1000
0100
1000
0001
0010
0100
0010
0001
1000
0100
1000
0010
,
0100
0001
1000
0001
0010
0100
1000
0100
1000
0001
1000
0010
0100
0001
0100
0010
,
1000
0001
0010
0100
0010
0001
1000
0010
1000
0001
0100
0010
0100
0001
1000
0001
,
1000
0100
0010
0100
1000
0001
1000
0010
0100
0010
0100
0001
1000
0001
0100
0010
,
1000
0001
0010
0001
0010
0100
1000
0001
1000
0100
1000
0001
0100
0010
0100
0001
,
1000
0001
0010
0100
0010
0001
1000
0010
0100
0010
0100
0001
1000
0001
1000
0010
,
0100
0010
1000
0001
0010
0100
1000
0010
0100
0001
0010
0001
1000
0100
1000
0001
,
0010
0100
0010
0001
1000
0010
0100
0010
1000
0001
0010
0001
1000
0010
0100
0010
,
4000
3000
0004
0003
0040
0030
0004
0003
0400
0300
0040
0030
4000
3000
0400
0300
4000
3000
0004
0003
0040
0030
0004
0003
4000
3000
0400
0300
0040
0030
0004
0003
,
1000
0010
0100
0001
0100
0001
1000
0100
0010
0001
0010
0001
0100
0010
1000
0001
,
1000
0001
0100
0010
1000
0001
1000
0001
0010
0100
0010
0001
0100
0010
0100
0001
,
1000
0100
0010
0001
0010
0001
1000
0010
0100
0001
0100
0001
0010
0100
1000
0001
,
1000
0001
0010
0100
1000
0001
1000
0001
0100
0010
0100
0001
0010
0100
0010
0001
,
1000
0010
0100
0001
0100
0001
1000
0100
0010
0001
0010
0001
0100
0010
1000
0001
,
1000
0001
0100
0010
1000
0001
1000
0001
0010
0100
0010
0001
0100
0010
0100
0001
,
1000
0100
0010
0001
0010
0001
1000
0010
0100
0001
0100
0001
0010
0100
1000
0001
,
1000
0001
0010
0100
1000
0001
1000
0001
0100
0010
0100
0001
0010
0100
0010
0001
,
1000
0010
0100
0001
0100
0001
1000
0100
0010
0001
0010
0001
0100
0010
1000
0001
,
1000
0001
0100
0010
1000
0001
1000
0001
0010
0100
0010
0001
0100
0010
0100
0001
,
1000
0100
0010
0001
0010
0001
1000
0010
0100
0001
0100
0001
0010
0100
1000
0001
,
1000
0001
0010
0100
1000
0001
1000
0001
0100
0010
0100
0001
0010
0100
0010
0001
,
1000
0010
0100
0001
0100
0001
1000
0100
0010
0001
0010
0001
0100
0010
1000
0001
,
1000
0001
0100
0010
1000
0001
1000
0001
0010
0100
0010
0001
0100
0010
0100
0001
,
1000
0100
0010
0001
0010
0001
1000
0010
0100
0001
0100
0001
0010
0100
1000
0001
,
0400
0300
0040
0030
0400
0300
0004
0003
0040
0030
0400
0300
4000
3000
0040
0030
0400
0300
0040
0030
4000
3000
0400
0300
0040
0030
0004
0003
0400
0300
0040
0030
,
1000
0100
0010
0001
0010
0001
1000
0010
0100
0001
0100
0001
0010
0100
1000
0001
,
1000
0001
0010
0100
1000
0001
1000
0001
0100
0010
0100
0001
0010
0100
0010
0001
,
1000
0010
0100
0001
0100
0001
1000
0100
0010
0001
0010
0001
0100
0010
1000
0001
,
1000
0001
0100
0010
1000
0001
1000
0001
0010
0100
0010
0001
0100
0010
0100
0001
,
1000
0100
0010
0001
0010
0001
1000
0010
0100
0001
0100
0001
0010
0100
1000
0001
,
1000
0001
0010
0100
1000
0001
1000
0001
0100
0010
0100
0001
0010
0100
0010
0001
,
1000
0010
0100
0001
0100
0001
1000
0100
0010
0001
0010
0001
0100
0010
1000
0001
,
1000
0001
0100
0010
1000
0001
1000
0001
0010
0100
0010
0001
0100
0010
0100
0001
,
1000
0100
0010
0001
0010
0001
1000
0010
0100
0001
0100
0001
0010
0100
1000
0001
,
1000
0001
0010
0100
1000
0001
1000
0001
0100
0010
0100
0001
0010
0100
0010
0001
,
1000
0010
0100
0001
0100
0001
1000
0100
0010
0001
0010
0001
0100
0010
1000
0001
,
1000
0001
0100
0010
1000
0001
1000
0001
0010
0100
0010
0001
0100
0010
0100
0001
,
1000
0100
0010
0001
0010
0001
1000
0010
0100
0001
0100
0001
0010
0100
1000
0001
,
1000
0001
0010
0100
1000
0001
1000
0001
0100
0010
0100
0001
0010
0100
0010
0001
,
1000
0010
0100
0001
0100
0001
1000
0100
0010
0001
0010
0001
0100
0010
1000
0001
,
0400
0300
0040
0030
0400
0300
0004
0003
0040
0030
0400
0300
4000
3000
0040
0030
0400
0300
0040
0030
4000
3000
0400
0300
0040
0030
0004
0003
0400
0300
0040
0030
,
2000
0100
3001
2000
0100
3001
2000
0100
,
3001
2000
0100
3001
2000
0100
3001
1000
,
0020
0100
1030
0020
0100
1030
0020
0100
,
0032
0100
1003
0002
0100
1003
0002
0100
,
2003
0010
3001
2000
0010
3001
1000
0200
,
0010
1300
0200
0010
1300
0200
0010
1300
,
0002
0010
1003
0002
0010
1003
0002
0100
,
2003
0010
3002
0100
2003
3001
0020
0130
,
2000
0010
3001
2000
0010
3001
2000
3002
,
0023
0130
2000
3010
0200
0301
0020
0130
,
2000
3010
0001
2000
0010
3001
0200
0302
,
2003
3010
0200
0301
2000
3100
0020
0031
,
2000
3002
0010
1003
0020
0100
2030
3001
,
1000
0100
0010
0001
1000
0001
0100
0010
0100
0001
1000
0001
0010
0100
0010
0100
,
1000
0001
1000
0010
0100
0001
0100
0010
1000
0001
0010
0001
0010
0100
0010
0100
,
4000
3000
0004
0003
0400
0300
0004
0003
4000
3000
0400
0300
0040
0030
0004
0003
0400
0300
0040
0030
4000
3000
0004
0003
0040
0030
0400
0300
4000
3000
0004
0003
,
1000
0000
0010
0100
0001
0000
1000
0001
1000
0001
0100
0000
0010
1000
0010
1000
,
0001
0100
0001
1000
0010
1000
0001
1000
0100
1000
0001
0100
0010
1000
0010
1000
,
0001
0100
0001
0010
0100
0010
0100
1000
0001
1000
0010
0100
0001
0100
0010
1000
,
0001
1000
0100
0010
0001
1000
0001
1000
0001
0100
0001
1000
0001
0010
0100
1000
,
0001
0100
0001
0010
0100
1000
0010
1000
0001
0100
0001
1000
0010
0100
0001
1000
,
0001
0010
0100
1000
0001
1000
0010
0100
0010
1000
0001
1000
0010
0100
0010
1000
,
0001
0100
0010
1000
0010
0100
0001
0010
0001
1000
0100
0010
0001
1000
0010
0100
,
0010
1000
0001
0010
0001
1000
0010
0100
0010
1000
0001
1000
0100
1000
0010
0100
,
0010
1000
0001
0100
0001
1000
0001
0010
0100
1000
0001
1000
0010
0100
0001
1000
,
0100
1000
0010
0100
0001
0100
0001
0010
0001
1000
0100
1000
0001
0010
0001
0100
,
0001
0010
0100
1000
0001
1000
0010
0100
0010
1000
0001
0100
0001
1000
0100
1000
,
0100
0010
0001
1000
0010
1000
0001
0100
0010
1000
0001
1000
0100
1000
0010
0100
,
0001
0100
0001
0010
0001
1000
0100
1000
0001
0010
0001
1000
0001
0100
0010
0100
,
0001
0010
0100
1000
0001
1000
0010
0100
0001
0100
0010
1000
0001
0100
0001
0010
,
0100
0010
0001
1000
0001
0100
0010
1000
0010
0100
0010
1000
0001
1000
0100
1000
,
0010
0100
0001
0010
0100
0010
0001
1000
0001
0100
0010
0100
0001
1000
0100
0010
,
0004
0003
4000
3000
0040
0030
0400
0300
0004
0003
0040
0030
0400
0300
4000
3000
0040
0030
0400
0300
0004
0003
0040
0030
0400
0300
4000
3000
0004
0003
0400
0300
,
0001
0010
0001
1000
0100
1000
0001
1000
0010
1000
0001
0010
0100
1000
0001
1000
,
0001
0010
0001
1000
0010
0100
0010
1000
0001
1000
0100
0010
0001
0010
0100
1000
,
0001
1000
0010
0100
0001
1000
0001
0010
0001
0100
0001
1000
0010
0100
0010
1000
,
0001
0010
0001
0100
0010
1000
0001
1000
0001
0100
0001
0010
0100
1000
0100
0010
,
0001
0100
0010
1000
0001
1000
0100
0010
0100
1000
0001
1000
0010
0100
0010
1000
,
0001
0010
0001
0100
0010
1000
0001
0010
0001
1000
0001
0100
0001
1000
0100
0010
,
0100
1000
0001
0100
0001
1000
0100
0010
0100
1000
0001
1000
0010
1000
0100
0010
,
0100
1000
0001
0010
0001
1000
0010
0100
0001
0100
0010
1000
0001
0010
0001
1000
,
0010
1000
0100
0010
0001
0010
0100
1000
0010
1000
0001
0100
0010
0100
0001
0010
,
0001
0100
0010
1000
0001
1000
0100
0010
0100
1000
0001
0010
0001
1000
0010
0100
,
0010
1000
0001
0010
0100
1000
0100
0010
0001
1000
0010
0100
0010
1000
0001
0100
,
0001
0010
0001
0100
0001
1000
0010
1000
0001
0100
0001
1000
0001
0010
0100
0010
,
0001
0100
0010
1000
0001
1000
0100
0010
0001
0010
0100
1000
0001
0100
0010
1000
,
0001
0100
0001
1000
0001
0010
0100
1000
0100
0010
0100
1000
0001
0010
0001
0100
,
0010
1000
0010
0100
0010
1000
0001
0010
0100
1000
0100
0010
0001
1000
0010
0100
,
0004
0003
4000
3000
0400
0300
0040
0030
0004
0003
0400
0300
0040
0030
4000
3000
0400
0300
0040
0030
0004
0003
0400
0300
0040
0030
4000
3000
0004
0000
0043
0030
,
0200
000M
0000
00M0
0000
M000
0000
00M0
0000
000M
00M0
M000
00M0
000M
00M0
M000
,
00M0
0000
0000
0000
0000
0000
0000
0000
0000
0000
0000
0000
000M
0000
0000
0000
00M0
0000
0000
0000
0000
0000
0000
0000
M000
0000
0000
0000
0000
0000
0000
0000
00M0
0000
0000
0000
0000
0000
0000
0000
000M
0000
0000
0000
0000
0000
0000
0000
00M0
0000
0000
0000
0000
0000
0000
0000
M000
0000
0000
0000
0000
0000
0000
0000
00M0
0000
0000
0000
0000
0000
0000
0000
000M
0000
0000
0000
0000
0000
0000
0000
00M0
0000
0000
0000
0000
0000
0000
0000
M000
0000
0000
0000
0000
0000
0000
0000
00M0
0000
0000
0000
0000
0000
000M
0000
0000
0000
0000
0000
00M0
0000
0000
0000
0000
0000
M000
0000
0000
0000
0000
0000
00M0
0000
0000
0000
0000
0000
000M
0000
0000
0000
0000
0000
00M0
0000
0000
0000
0000
0000
M000
0000
0000
0000
0000
0000
00M0
0000
0000
0000
0000
0000
000M
0000
0000
0000
0000
0000
00M0
0000
0000
0000
0000
0000
M000
0000
0000
0000
0000
0000
00M0
0000
0000
0000
0000
0000
000M
0000
0000
0000
0000
0000
00M0
0000
0000
0000
0000
0000
0000
0000
0000
0000
0000
0000
,
230M
0000
0000
0010
0000
0000
0010
0000
3002
0000
0000
0010
0000
0000
0010
0000
,
0203
0000
0000
0010
0000
0000
0010
0000
0010
0000
0000
0010
0000
0000
0302
0000
,
2003
0000
0000
0100
0000
0000
0100
0000
3020
0000
0000
0100
0000
0000
0100
0000
,
0032
0000
0000
0100
0000
0000
0100
0000
0100
0000
0000
0100
0000
0000
0023
0000
,
0230
0000
0000
1000
0000
0000
1000
0000
0320
0000
0000
0001
0000
0000
0001
0000
,
0032
0000
0000
1000
0000
0000
1000
0000
1000
0000
0000
1000
0000
0000
0203
0000
,
0320
0000
0000
1000
0000
0000
1000
0000
0230
0000
0000
0001
0000
0000
0001
0000
,
0320
0000
0000
1000
0000
0000
1000
0000
1000
0000
0000
1000
0000
0000
0230
0000
,
0301
0010
0001
1000
0010
1000
0001
0100
0010
1000
0010
0100
0001
0100
0010
1000
,
0100
1000
0100
0010
0001
0010
0100
1000
0001
0100
0001
1000
0100
1000
0010
0100
,
0001
0010
0001
1000
0010
1000
0001
0100
0010
0100
0010
1000
0100
1000
0001
1000
,
0001
0010
0001
1000
0100
1000
0001
0100
0010
1000
0010
0100
0001
0100
0010
1000
,
010M
0000
1100
0000
0010
0010
0011
0000
,
0001
0000
0101
0000
0010
0010
1010
0000
,
1000
0000
1100
0000
0100
0100
0110
0000
,
0001
0000
1010
0000
1000
1000
1001
0000
,
0001
0000
0011
0000
0001
0001
0101
0000
,
0010
0000
1010
0000
1000
1000
1100
0000
,
0001
0000
1001
0000
1000
1000
1010
0000
,
0100
0000
0110
0000
0001
0001
0011
0000
,
0001
0000
0000
0000
1001
0000
1000
0010
0100
0000
0000
0010
0000
0000
0100
0000
,
0001
0000
0000
0000
1000
0000
0000
0100
0000
0000
0010
0000
0100
0000
1000
0000
,
0001
0000
0000
1000
0000
0000
0010
0100
,
0000
0000
0001
0000
0000
0000
1000
0000
0000
0000
0100
0000
0000
0000
0010
0001
,
1000
0010
0100
0010
1000
0001
0010
0100
,
0000
0000
1000
0000
0000
0000
0001
0100
0010
0000
1000
0000
0100
0000
0010
0000
,
0001
0000
0000
0000
0000
1000
0010
1000
,
0100
0000
0010
0000
0001
1000
0000
0000
,
0000
0000
0000
0000
0000
0000
0001
1000
0100
0000
0000
0010
0000
0000
0001
0000
,
1000
0000
0000
0000
0010
0000
0000
0100
0000
0000
0001
0000
1000
0000
0100
0000
,
0010
0000
0000
0001
0000
0000
0100
0010
,
0000
0000
1000
0000
0000
0000
0001
0000
0000
0000
0010
0000
0000
0000
0001
0100
,
0010
1000
0100
0010
0100
1000
0001
0100
,
0000
0000
0010
0000
0000
0000
1000
0100
0010
0000
0001
0000
1000
0000
0100
0000
,
1000
0000
0000
0000
0000
0001
0100
0001
,
1000
0000
0100
0000
0010
0001
0000
0000
,
1000
0000
0000
0000
0000
0001
1000
0100
,
0010
0000
0001
0000
0100
0010
0000
0000
,
1000
0000
0000
0000
0000
0001
0100
0001
,
1000
0000
0000
0000
0000
0001
0100
0001
,
1000
0000
0100
0000
,
0010
0000
0001
0000
,
1000
0001
0100
0010
,
1000
0100
0010
0001
,
1000
0010
0100
0001
0100
0010
1000
0001
,
1000
0100
0010
0001
0010
0100
1000
0001
,
1000
0001
0100
0010
1000
0001
1000
0100
0010
0001
0100
0010
1000
0001
0010
0100
,
4000
0000
0000
3001
,
1001
0000
0000
0000
,
0001
0100
0001
1000
0010
1000
0001
1000
0100
1000
0001
0100
0010
1000
0010
1000
,
0001
0100
0001
0010
0100
0010
0100
1000
0001
1000
0010
0100
0001
0100
0010
1000
,
0001
1000
0100
0010
0001
0010
0001
1000
0001
0100
0001
1000
0100
0010
0100
1000
,
0001
0100
0001
0010
0100
1000
0100
1000
0001
0100
0001
0100
0010
1000
0010
0100
,
0001
0010
0100
1000
0001
1000
0010
0100
0010
1000
0001
1000
0100
0010
0100
1000
,
0001
0100
0010
1000
0001
0100
0010
0100
0001
0010
0100
0010
0001
1000
0010
0100
,
0010
1000
0001
0010
0001
1000
0010
0100
0010
1000
0001
1000
0100
1000
0010
0100
,
0010
1000
0001
0100
0001
1000
0001
0010
0100
0010
0100
1000
0001
0100
0001
1000
,
0100
1000
0010
0100
0001
0100
0001
0010
0001
1000
0100
1000
0001
0010
0001
0100
,
0001
0010
0100
1000
0001
1000
0010
0100
0010
1000
0001
0100
0001
1000
0100
1000
,
0100
0010
0001
1000
0001
0100
0010
1000
0001
1000
0010
1000
0100
1000
0010
0100
,
0001
0100
0001
0010
0001
1000
0100
0010
0001
0010
0100
1000
0001
0100
0010
0100
,
0001
0010
0100
1000
0001
1000
0010
0100
0001
0100
0010
1000
0001
1000
0010
1000
,
0001
0010
0001
1000
0001
0100
0010
1000
0010
0100
0010
1000
0001
1000
0100
1000
,
0010
0100
0001
0010
0100
0010
0001
1000
0001
0100
0010
0100
0001
1000
0100
0010
,
0004
0003
4000
3000
0040
0030
0400
0300
0004
0003
0040
0030
0400
0300
4000
3000
0040
0030
0400
0300
0004
0003
0040
0030
0400
0300
4000
3000
0004
0003
0400
0300
,
0001
0010
0001
1000
0100
1000
0001
1000
0010
1000
0001
0010
0100
1000
0100
1000
,
0001
0010
0001
0100
0010
0100
0010
1000
0001
1000
0100
0010
0001
0010
0100
1000
,
0001
1000
0010
0100
0001
0100
0001
1000
0001
0010
0001
1000
0010
0100
0010
1000
,
0001
0010
0001
0100
0010
1000
0010
0100
0001
1000
0001
0010
0100
1000
0100
0010
,
0001
0100
0010
1000
0001
1000
0100
0010
0100
1000
0001
1000
0010
0100
0010
1000
,
0001
0010
0001
1000
0100
1000
0001
0100
0001
0100
0010
0100
0001
1000
0100
0010
,
0100
1000
0001
0100
0001
1000
0100
0010
0100
1000
0001
1000
0010
1000
0100
0010
,
0100
1000
0001
0010
0001
1000
0001
0100
0010
0100
0001
1000
0001
0010
0001
1000
,
0010
1000
0100
0010
0001
0010
0001
0100
0001
1000
0010
1000
0010
0100
0001
0010
,
0001
0100
0010
1000
0001
1000
0100
0010
0100
1000
0001
0010
0001
1000
0010
1000
,
0010
0100
0001
1000
0100
1000
0100
0010
0100
1000
0001
1000
0010
1000
0100
0010
,
0001
0010
0001
0100
0010
1000
0001
0100
0010
0100
0001
1000
0001
0010
0100
1000
,
0001
0100
0010
0100
0001
1000
0100
0010
,
0001
0100
0010
1000
0001
0010
0100
1000
0100
0010
0100
1000
0001
1000
0010
0100
,
0001
0000
1000
0010
0100
0010
1000
0100
0010
0001
0010
0100
1000
0001
0100
0010
,
4000
3000
0004
0003
0040
0030
0400
0300
4000
3000
0040
0030
0400
0300
0004
0003
0040
0030
0400
0300
4000
3000
0040
0030
0400
0300
0004
0003
4000
0000
3400
0300
,
0010
0001
1000
0010
1000
0010
0100
0001
0010
0100
0010
0100
1000
0001
0100
0010
,
0100
0010
1000
0001
0100
0010
0100
0010
1000
0100
0010
0100
1000
0010
0100
0001
,
0010
0001
1000
0100
1000
0100
0010
0001
0100
0010
0100
0010
1000
0001
0010
0100
,
0010
0100
1000
0001
0010
0100
0010
0100
1000
0010
0100
0010
1000
0001
0100
0001
,
0010
0001
1000
0010
1000
0010
0100
0001
0010
0100
0010
0100
1000
0001
0100
0010
,
0100
0010
1000
0001
0100
0010
0100
0010
1000
0100
0010
0100
1000
0010
0100
0001
,
0010
0001
1000
0100
1000
0100
0010
0001
0100
0010
0100
0010
1000
0001
0010
0100
,
0010
0100
1000
0001
0010
0100
0010
0100
1000
0010
0100
0010
1000
0001
0100
0001
,
0010
0001
1000
0010
1000
0010
0100
0001
0010
0100
0010
0100
1000
0001
0100
0010
,
0100
0010
1000
0001
0100
0010
0100
0010
1000
0100
0010
0100
1000
0010
0100
0001
,
0010
0001
1000
0100
1000
0100
0010
0001
0100
0010
0100
0010
1000
0001
0010
0100
,
0010
0100
1000
0001
0010
0100
0010
0100
1000
0010
0100
0010
1000
0001
0100
0001
,
0010
0001
1000
0010
1000
0010
0100
0001
0010
0100
0010
0100
1000
0001
0100
0010
,
0100
0010
1000
0001
0100
0010
0100
0010
1000
0100
0010
0100
1000
0010
0100
0001
,
0010
0001
1000
0100
1000
0100
0010
0001
0100
0010
0100
0010
1000
0001
0010
0100
,
4000
3000
0040
0030
0400
0300
0004
0003
0040
0030
0400
0300
4000
3000
0040
0030
0400
0300
0040
0030
4000
3000
0400
0300
0040
0030
0004
0003
0400
0300
0040
0030
,
1000
0100
0010
0001
0010
0001
1000
0010
0100
0001
0100
0001
0010
0100
1000
0001
,
1000
0001
0010
0100
1000
0001
1000
0001
0100
0010
0100
0001
0010
0100
0010
0001
,
1000
0010
0100
0001
0100
0001
1000
0100
0010
0001
0010
0001
0100
0010
1000
0001
,
1000
0001
0100
0010
1000
0001
1000
0001
0010
0100
0010
0001
0100
0010
0100
0001
,
1000
0100
0010
0001
0010
0001
1000
0010
0100
0001
0100
0001
0010
0100
1000
0001
,
1000
0001
0010
0100
1000
0001
1000
0001
0100
0010
0100
0001
0010
0100
0010
0001
,
1000
0010
0100
0001
0100
0001
1000
0100
0010
0001
0010
0001
0100
0010
1000
0001
,
1000
0001
0100
0010
1000
0001
1000
0001
0010
0100
0010
0001
0100
0010
0100
0001
,
1000
0100
0010
0001
0010
0001
1000
0010
0100
0001
0100
0001
0010
0100
1000
0001
,
1000
0001
0010
0100
1000
0001
1000
0001
0100
0010
0100
0001
0010
0100
0010
0001
,
1000
0010
0100
0001
0100
0001
1000
0100
0010
0001
0010
0001
0100
0010
1000
0001
,
1000
0001
0100
0010
1000
0001
1000
0001
0010
0100
0010
0001
0100
0010
0100
0001
,
0100
0001
0000
1000
0000
0100
0000
0010
,
0000
0001
0000
1000
0000
0010
0000
0100
,
0001
1000
0001
0010
0100
1000
0001
1000
0010
0100
0001
0010
0100
1000
0001
0010
,
0004
0003
0400
0300
0040
0030
4000
3000
0400
0300
4000
3000
0040
0030
0400
0300
0004
0003
0040
0030
0004
0003
0400
0300
0040
0030
4000
3000
0400
0300
0040
0030
,
0002
0000
0003
0000
;

//---------------dance-single - 13 (TYLoak)----------------
#NOTES:
     dance-single:
     13 (TYLoak):
     Medium:
     13:
     1.000,1.000,0.358,0.631,1.000,1979.000,123.000,217.000,39.000,0.000:
0000
0000
0000
0000
,
1001
0000
0001
0000
0010
0000
0100
1000
0100
1000
0001
0000
0100
0001
0100
0000
,
0010
0000
1000
0000
1000
0000
0001
0010
0001
0010
0100
0000
1000
0001
1000
0001
,
0100
0000
0100
0000
0010
0000
1000
0010
1000
0010
0100
0000
0001
1000
0100
0000
,
0010
0000
0001
0000
0001
0000
0010
0100
0010
0100
1000
0000
0001
0100
0001
0000
,
1010
0000
1000
0000
0100
0000
0010
0001
0010
0001
1000
0000
0010
1000
0010
0000
,
0100
0000
0001
0000
0001
0000
1000
0100
1000
0100
0010
0000
0001
1000
0001
1000
,
0010
0000
0010
0000
0100
0000
0001
0100
0001
0100
0010
0000
1000
0001
0010
0000
,
1100
0000
0000
0011
0000
0000
0110
0000
0000
1001
0000
0000
0101
0000
0110
0000
,
1010
0000
1000
0000
0001
0000
0010
0001
0010
0001
1000
0000
0010
1000
0010
0000
,
0100
0000
0001
0000
0001
0000
1000
0100
1000
0100
0010
0000
0001
0000
1001
0000
,
1001
0000
1000
0000
0010
0000
0100
0001
0100
0001
1000
0000
0001
1000
0100
0000
,
0010
0000
0001
0000
0001
0000
0010
0100
0010
0100
1000
0000
0001
0000
0101
0000
,
0101
0000
0100
0000
0010
0000
1000
0010
1000
0010
0100
0000
0001
0000
1001
0000
,
1001
0000
1000
0100
0010
0001
0010
0001
1000
0001
0010
0100
1000
0001
0100
0010
,
0100
0001
1000
0001
0010
0100
1000
0001
1000
0001
0100
0010
1000
0001
0010
0001
,
0400
0300
0004
0003
4000
3000
0400
0300
4000
3000
0004
0003
0400
0300
0004
0003
4000
3000
0400
0300
4000
3000
0004
0003
0400
0300
0004
0003
0040
0030
0400
0300
,
1000
0001
0100
0000
0001
0000
1000
0000
0010
0000
1000
0000
0001
1000
0100
0000
,
0010
0001
0010
0000
0100
0000
1000
0000
0010
0000
1000
0000
0001
0010
0100
0000
,
1000
0001
1000
0000
0001
0000
0100
0000
0010
0000
0100
0000
0001
1000
0010
0000
,
1000
0001
1000
0000
0100
0000
0010
0000
0001
0000
0010
0000
0100
1000
0001
0000
,
0100
0001
0100
0000
0010
0000
1000
0000
0100
0000
1000
0000
0001
1000
0010
0000
,
0100
0001
0100
0000
0010
0000
1000
0000
0100
0000
1000
0000
0001
0010
0100
0000
,
1000
0001
1000
0000
0001
0000
0100
0000
0010
0000
0100
0000
0001
1000
0100
0000
,
0010
0001
0010
0000
0100
0000
1000
0000
0010
0000
1000
0000
0001
0100
0010
0000
,
1000
0001
1000
0000
0010
0000
1000
0000
0100
0000
1000
0000
0001
1000
0010
0000
,
0100
0001
0100
0000
0010
0000
1000
0000
0100
0000
1000
0000
0001
0100
0010
0000
,
1000
0001
1000
0000
0001
0000
0010
0000
0100
0000
0010
0000
0001
1000
0100
0000
,
1000
0001
1000
0000
0010
0000
0100
0000
0001
0000
0100
0000
0010
1000
0001
0000
,
0010
0001
0010
0000
0100
0000
1000
0000
0010
0000
1000
0000
0001
1000
0100
0000
,
0010
0001
0010
0000
0100
0000
1000
0000
0010
0000
1000
0000
0001
0100
0010
0000
,
1000
0001
1000
0000
0001
0000
0010
0000
0100
0000
0010
0000
0001
1000
0010
0100
,
0004
0003
0040
0030
0400
0300
4000
3000
0040
0030
4000
3000
0400
0300
0040
0030
0004
0003
0400
0300
0040
0030
0400
0300
0004
0003
0040
0030
0400
0300
4000
3000
,
0001
0100
0010
0000
1000
0000
0001
0000
0100
0000
0001
0000
1000
0001
0010
0000
,
0100
1000
0100
0000
0010
0000
0001
0000
0100
0000
0001
0000
1000
0100
0010
0000
,
0001
1000
0001
0000
1000
0000
0010
0000
0100
0000
0010
0000
1000
0001
0100
0000
,
0001
1000
0001
0000
0010
0000
0100
0000
1000
0000
0100
0000
0010
0001
1000
0000
,
0010
1000
0010
0000
0100
0000
0001
0000
0010
0000
0001
0000
1000
0001
0100
0000
,
0010
1000
0010
0000
0100
0000
0001
0000
0010
0000
0001
0000
1000
0100
0010
0000
,
0001
1000
0001
0000
1000
0000
0010
0000
0100
0000
0010
0000
1000
0001
0010
0000
,
0100
1000
0100
0000
0010
0000
0001
0000
0100
0000
0001
0000
1000
0010
0100
0000
,
0001
1000
0001
0000
0100
0000
0001
0000
0010
0000
0001
0000
1000
0001
0100
0000
,
0010
1000
0010
0000
0100
0000
0001
0000
0010
0000
0001
0000
1000
0010
0100
0000
,
0001
1000
0001
0000
1000
0000
0100
0000
0010
0000
0100
0000
1000
0001
0010
0000
,
0001
1000
0001
0000
0100
0000
0010
0000
1000
0000
0010
0000
0100
0001
1000
0000
,
0100
1000
0100
0000
0010
0000
0001
0000
0100
0000
0001
0000
1000
0001
0010
0000
,
0100
1000
0100
0010
0001
1000
0001
0100
0010
1000
0001
1000
0010
0100
0001
0010
,
0100
1000
0100
0010
0001
0100
0010
1000
0001
1000
0010
0100
0001
0010
0100
1000
,
0004
0003
0040
0030
0400
0300
4000
3000
0040
0030
4000
3000
0400
0300
0040
0030
0004
0003
0400
0300
0040
0030
0400
0300
0004
0003
0040
0030
0400
0300
4000
3000
,
0001
0040
0000
0130
4000
0000
3010
0400
,
0000
0000
0000
0000
0000
0000
0000
0000
0010
0300
0000
0000
0000
0000
0000
0000
0400
0000
0000
0000
0000
0000
0000
0000
0000
0000
0000
0000
0000
0000
0000
0000
0301
0000
0000
0000
0000
0000
0000
0000
0001
0000
0000
0000
0000
0000
0000
0000
0010
0000
0000
0000
0000
0000
0000
0000
0010
0000
0000
0000
0000
0000
0000
0000
,
0100
0000
0000
0000
0000
0000
0000
0000
4000
0000
0000
0000
0000
0000
0000
0000
0000
0000
0000
0000
0000
0000
0000
0000
3001
0000
0000
0000
0000
0000
0000
0000
0400
0000
0000
0000
0000
0000
0000
0000
0000
0000
0000
0000
0000
0000
0000
0000
0010
0300
0000
0000
0000
0000
0000
0000
4000
0000
0000
0000
0000
0000
0000
0000
,
0000
3010
4000
0000
3001
0001
0010
0010
,
0100
4000
0000
3010
0400
0000
0301
4000
,
0000
3001
4000
0000
3100
0100
0010
0010
,
0001
0000
0000
0000
0000
0000
0000
0000
0400
0000
0000
0000
0000
0000
0000
0000
0000
0000
0000
0000
0000
0000
0000
0000
0010
0300
0000
0000
0000
0000
0000
0000
4000
0000
0000
0000
0000
0000
0000
0000
0000
0000
0000
0000
0000
0000
0000
0000
3001
0000
0000
0000
0000
0000
0000
0000
0040
0000
0000
0000
0000
0000
0000
0000
,
0000
0031
0040
0000
0130
0100
1000
1000
,
0010
0400
0000
0301
4000
0000
3100
0040
,
0000
0130
0040
0000
0031
0001
1000
1000
,
0010
0400
0000
0301
4000
0000
3100
0040
,
0000
0000
0000
0000
0000
0000
0000
0000
0100
0030
0000
0000
0000
0000
0000
0000
0040
0000
0000
0000
0000
0000
0000
0000
0000
0000
0000
0000
0000
0000
0000
0000
0031
0000
0000
0000
0000
0000
0000
0000
0001
0000
0000
0000
0000
0000
0000
0000
1000
0000
0000
0000
0000
0000
0000
0000
1000
0000
0000
0000
0000
0000
0000
0000
,
0010
0000
0000
0000
0000
0000
0000
0000
0400
0000
0000
0000
0000
0000
0000
0000
0000
0000
0000
0000
0000
0000
0000
0000
0001
0300
0000
0000
0000
0000
0000
0000
0040
0000
0000
0000
0000
0000
0000
0000
0000
0000
0000
0000
0000
0000
0000
0000
0130
0000
0000
0000
0000
0000
0000
0000
4000
0000
0000
0000
0000
0000
0000
0000
,
0000
3100
4000
0000
3010
0010
0100
0100
,
0001
1000
0010
1000
0010
0100
0010
1000
0001
0010
0001
1000
0100
1000
0001
0100
,
0040
0030
0400
0300
0004
0003
4000
3000
0400
0300
4000
3000
0040
0030
0400
0300
0004
0003
0040
0030
0004
0003
4000
3000
0400
0300
0040
0030
0004
0003
0040
0030
,
0100
0000
0000
0000
0000
0000
0000
0000
4000
0000
0000
0000
0000
0000
0000
0000
0000
0000
0000
0000
0000
0000
0000
0000
3001
0000
0000
0000
0000
0000
0000
0000
0040
0000
0000
0000
0000
0000
0000
0000
0000
0000
0000
0000
0000
0000
0000
0000
0001
0030
0000
0000
0000
0000
0000
0000
4000
0000
0000
0000
0000
0000
0000
0000
,
0000
0000
3010
0000
4000
0000
0000
0000
3001
0010
0001
0000
0010
0100
0010
0000
,
0100
4000
0000
3010
0400
0000
0301
0040
,
0000
0000
0031
0000
0040
0000
0000
0000
0130
1000
0100
0000
1000
0001
1000
0000
,
0100
0040
0000
0031
4000
0000
3001
0400
,
0000
0000
0000
0000
0000
0000
0000
0000
0001
0300
0000
0000
0000
0000
0000
0000
0400
0000
0000
0000
0000
0000
0000
0000
0000
0000
0000
0000
0000
0000
0000
0000
0310
0000
0000
0000
1000
0000
0000
0000
0010
0000
0000
0000
0000
0000
0000
0000
1000
0000
0000
0000
0100
0000
0000
0000
1000
0000
0000
0000
0000
0000
0000
0000
,
0001
0000
0000
0000
0000
0000
0000
0000
0040
0000
0000
0000
0000
0000
0000
0000
0000
0000
0000
0000
0000
0000
0000
0000
0001
0030
0000
0000
0000
0000
0000
0000
4000
0000
0000
0000
0000
0000
0000
0000
0000
0000
0000
0000
0000
0000
0000
0000
3010
0000
0000
0000
0000
0000
0000
0000
0400
0000
0000
0000
0000
0000
0000
0000
,
0000
0000
0000
0000
0000
0000
0000
0000
0010
0300
0000
0000
0000
0000
0000
0000
0400
0000
0000
0000
0000
0000
0000
0000
0000
0000
0000
0000
0000
0000
0000
0000
0001
0300
0000
0000
1000
0000
0000
0000
0001
0000
0000
0000
0000
0000
0000
0000
1000
0000
0000
0000
0010
0000
0000
0000
1000
0000
0000
0000
0000
0000
0000
0000
,
0001
0040
0000
0130
4000
0000
3010
0400
,
0000
0000
0310
0000
0400
0000
0000
0000
0301
0010
0001
0000
1000
0001
1000
0000
,
0010
0000
0000
0000
0000
0000
0000
0000
0400
0000
0000
0000
0000
0000
0000
0000
0000
0000
0000
0000
0000
0000
0000
0000
0301
0000
0000
0000
0000
0000
0000
0000
0040
0000
0000
0000
0000
0000
0000
0000
0000
0000
0000
0000
0000
0000
0000
0000
0100
0030
0000
0000
0000
0000
0000
0000
4000
0000
0000
0000
0000
0000
0000
0000
,
0000
0000
3100
0000
4000
0000
0000
0000
3010
0100
0010
0000
0100
0001
0100
0000
,
0010
4000
0000
3001
0040
0000
0130
4000
,
0000
0000
3100
0000
4000
0000
0000
0000
3001
0100
0001
0000
0010
0001
0010
0000
,
0001
1000
0001
0010
0100
1000
0001
1000
0010
0100
0001
0010
0100
1000
0001
0010
,
0004
0003
0400
0300
0040
0030
4000
3000
0400
0300
4000
3000
0004
0003
0040
0030
0400
0300
0040
0030
0004
0003
0400
0300
0040
0030
4000
3000
0004
0003
0400
0300
,
0002
0010
1003
0002
0010
1003
0002
0010
,
1003
0002
0010
1003
0002
0010
1003
0001
,
0200
0010
0301
0200
0010
0301
0200
0010
,
2300
0010
3001
2000
0010
3001
2000
0010
,
3002
0100
1003
0002
0100
1003
0001
0020
,
0100
0031
0020
0100
0031
0020
0100
0031
,
2000
0100
3001
2000
0100
3001
2000
0010
,
3002
0100
2003
0010
3002
1003
0200
0310
,
0002
0100
1003
0002
0100
1003
0002
2003
,
3200
0310
0002
0103
0020
1030
0200
0310
,
0002
0103
1000
0002
0100
1003
0020
2030
,
3002
0103
0020
1030
0002
0013
0200
1300
,
0002
2003
0100
3001
0200
0010
0302
1003
,
0001
0010
0100
1000
0001
1000
0010
0100
0010
1000
0001
1000
0100
0010
0100
0010
,
0001
1000
0001
0100
0010
1000
0010
0100
0001
1000
0100
1000
0100
0010
0100
0010
,
0004
0003
4000
3000
0040
0030
4000
3000
0004
0003
0040
0030
0400
0300
4000
3000
0040
0030
0400
0300
0004
0003
4000
3000
0400
0300
0040
0030
0004
0003
4000
3000
,
0001
0000
0100
0010
1000
0000
0001
1000
0001
1000
0100
0000
0010
0001
0010
0000
,
1001
0000
0000
0000
1000
0000
0000
0000
0010
0000
0000
0000
0200
0300
0002
0003
0200
0300
0000
0000
0000
0000
0020
0030
0000
0000
0000
0000
2000
3000
0000
0000
,
0200
0300
0000
0000
0010
0000
0000
0000
0002
0003
0000
0000
0000
0000
0200
0300
0000
0000
0000
0000
0002
0003
0000
0000
2000
3000
0000
0000
0200
0300
0000
0000
,
0020
0030
0000
0000
0001
0000
0000
0000
0100
0000
0000
0000
0020
0030
0000
0000
0100
0000
0000
0000
0001
0000
0000
0000
2000
3000
0000
0000
0200
0300
0000
0000
,
1000
0000
0000
0000
0020
0030
0000
0000
0100
0000
0000
0000
0002
0003
0000
0000
1000
0000
0000
0000
0200
0300
0000
0000
0010
0000
0000
0000
0002
0003
2000
3000
,
0020
0030
0000
0000
0100
0000
0000
0000
0002
0003
0000
0000
0020
0030
0000
0000
0200
0300
0000
0000
1000
0000
0000
0000
0020
0030
0000
0000
0002
0003
0000
0000
,
0010
0000
0000
0000
0200
0300
0000
0000
0001
0000
0000
0000
2000
3000
0200
0300
0020
0030
0000
0000
0002
0003
0000
0000
0200
0300
0000
0000
0020
0030
0000
0000
,
2000
3000
0000
0000
0001
0000
0000
0000
0010
0000
0000
0000
0100
0000
0000
0000
1000
0000
0000
0000
0002
0003
0000
0000
0200
0300
0000
0000
0002
0003
0000
0000
,
2000
3000
0000
0000
0100
0000
0000
0000
0020
0030
0000
0000
0001
0000
0000
0000
0200
0300
0000
0000
0020
0030
0000
0000
1000
0000
0000
0000
0001
0000
0000
0000
,
0010
0000
0000
0000
0100
0000
0000
0000
1000
0000
0000
0000
0002
0003
0020
0030
0002
0003
0000
0000
0000
0000
2000
3000
0000
0000
0000
0000
0002
0003
0000
0000
,
0200
0300
0000
0000
0010
0000
0000
0000
2000
3000
0000
0000
0000
0000
0200
0300
0000
0000
0000
0000
2000
3000
0000
0000
0002
0003
0000
0000
0200
0300
0000
0000
,
0020
0030
0000
0000
1000
0000
0000
0000
0001
0000
0000
0000
0020
0030
0000
0000
0100
0000
0000
0000
1000
0000
0000
0000
0020
0030
0000
0000
0200
0300
0000
0000
,
0001
0000
0000
0000
0020
0030
0000
0000
0001
0000
0000
0000
0200
0300
0000
0000
0010
0000
0000
0000
2000
3000
0000
0000
0001
0000
0000
0000
2000
3000
0200
0300
,
0020
0030
0000
0000
0001
0000
0000
0000
2000
3000
0000
0000
0200
0300
0000
0000
0020
0030
0000
0000
0001
0000
0000
0000
0020
0030
0000
0000
2000
3000
0000
0000
,
0010
0000
0000
0000
0002
0003
0000
0000
1000
0000
0000
0000
0002
0003
0200
0300
0020
0030
0000
0000
2000
3000
0000
0000
0002
0003
0000
0000
2000
3000
0000
0000
,
0200
0300
0000
0000
0010
0000
0000
0000
0001
0000
0000
0000
0010
0000
0000
0000
0100
0000
0000
0000
2000
3000
0000
0000
0002
0003
0000
0000
2000
3000
0000
0000
,
0004
0003
0400
0300
0004
0003
4000
3000
0004
0003
0040
0030
0400
0300
4000
3000
0040
0030
0400
0300
0004
0003
0040
0030
0400
0300
4000
3000
0004
0003
0400
0300
,
0001
0010
0001
1000
0100
1000
0001
1000
0010
1000
0001
0010
0100
1000
0001
1000
,
0001
0010
0001
1000
0010
0100
0010
1000
0001
1000
0100
0010
0001
0010
0100
1000
,
0001
1000
0010
0100
0001
1000
0001
0010
0001
0100
0001
1000
0010
0100
0010
1000
,
0001
0010
0001
0100
0010
1000
0001
1000
0001
0100
0001
0010
0100
1000
0100
0010
,
0001
0100
0010
1000
0001
1000
0100
0010
0100
1000
0001
1000
0010
0100
0010
1000
,
0001
0010
0001
0100
0010
1000
0001
0010
0001
1000
0001
0100
0001
1000
0100
0010
,
0100
1000
0001
0100
0001
1000
0100
0010
0100
1000
0001
1000
0010
1000
0100
0010
,
0100
1000
0001
0010
0001
1000
0010
0100
0001
0100
0010
1000
0001
0010
0001
1000
,
0010
1000
0100
0010
0001
0010
0100
1000
0010
1000
0001
0100
0010
0100
0001
0010
,
0001
0100
0010
1000
0001
1000
0100
0010
0100
1000
0001
0010
0001
1000
0010
0100
,
0010
1000
0001
0010
0100
1000
0100
0010
0001
1000
0010
0100
0010
1000
0001
0100
,
0001
0010
0001
0100
0001
1000
0010
1000
0001
0100
0001
1000
0001
0010
0100
0010
,
0001
0100
0010
1000
0001
1000
0100
0010
0001
0010
0100
1000
0001
0100
0010
1000
,
0001
0100
0001
1000
0001
0010
0100
1000
0100
0010
0100
1000
0001
0010
0001
0100
,
0010
1000
0010
0100
0010
1000
0001
0010
0100
1000
0100
0010
0001
1000
0010
0100
,
0004
0003
4000
3000
0400
0300
0040
0030
0004
0003
0400
0300
0040
0030
4000
3000
0400
0300
0040
0030
0004
0003
0400
0300
0040
0030
4000
3000
0004
0000
0043
0030
,
0200
000M
0000
00M0
0000
M000
0000
00M0
0000
000M
00M0
M000
00M0
000M
00M0
M000
,
00M0
0000
0000
0000
0000
0000
0000
0000
0000
0000
0000
0000
000M
0000
0000
0000
00M0
0000
0000
0000
0000
0000
0000
0000
M000
0000
0000
0000
0000
0000
0000
0000
00M0
0000
0000
0000
0000
0000
0000
0000
000M
0000
0000
0000
0000
0000
0000
0000
00M0
0000
0000
0000
0000
0000
0000
0000
M000
0000
0000
0000
0000
0000
0000
0000
00M0
0000
0000
0000
0000
0000
0000
0000
000M
0000
0000
0000
0000
0000
0000
0000
00M0
0000
0000
0000
0000
0000
0000
0000
M000
0000
0000
0000
0000
0000
0000
0000
00M0
0000
0000
0000
0000
0000
000M
0000
0000
0000
0000
0000
00M0
0000
0000
0000
0000
0000
M000
0000
0000
0000
0000
0000
00M0
0000
0000
0000
0000
0000
000M
0000
0000
0000
0000
0000
00M0
0000
0000
0000
0000
0000
M000
0000
0000
0000
0000
0000
00M0
0000
0000
0000
0000
0000
000M
0000
0000
0000
0000
0000
00M0
0000
0000
0000
0000
0000
M000
0000
0000
0000
0000
0000
00M0
0000
0000
0000
0000
0000
000M
0000
0000
0000
0000
0000
00M0
0000
0000
0000
0000
0000
0000
0000
0000
0000
0000
0000
,
230M
0000
0000
0010
0000
0000
0010
0000
3002
0000
0000
0010
0000
0000
0010
0000
,
0203
0000
0000
0010
0000
0000
0010
0000
0010
0000
0000
0010
0000
0000
0302
0000
,
0023
0000
0000
0100
0000
0000
0130
0000
2000
0000
0000
0100
0000
0000
0100
0000
,
3002
0000
0000
0100
0000
0000
0100
0000
0100
0000
0000
0100
0000
0000
0023
0000
,
0230
0000
0000
1000
0000
0000
1000
0000
0320
0000
0000
0001
0000
0000
0031
0000
,
0002
0000
0000
0100
0000
0000
0100
0000
0100
0000
0000
0100
0000
0000
2003
0000
,
3200
0000
0000
0010
0000
0000
0010
0000
2300
0000
0000
0001
0000
0000
0001
0000
,
3020
0000
0000
1000
0000
0000
1000
0000
1000
0000
0000
1000
0000
0000
0230
0000
,
0301
1000
0001
0100
0010
0100
0001
0010
0100
1000
0100
0010
0001
0010
0100
1000
,
0010
1000
0010
0100
0001
0100
0010
1000
0001
0010
0001
1000
0010
1000
0100
0010
,
0001
0100
0001
1000
0100
1000
0001
0010
0100
0010
0100
1000
0010
1000
0001
1000
,
0001
0100
0001
1000
0010
1000
0001
0010
0100
1000
0100
0010
0001
0010
0100
1000
,
0010
0000
0101
0000
0001
0001
0011
0000
,
0010
0000
1100
0000
1000
1000
1010
0000
,
0010
0000
0101
0000
0001
0001
1001
0000
,
0010
0000
1100
0000
1000
1000
1001
0000
,
0001
0000
0011
0000
0001
0001
0101
0000
,
0010
0000
1010
0000
1000
1000
1100
0000
,
0001
0000
1001
0000
1000
1000
1010
0000
,
0100
0000
0110
0000
0001
0001
0011
0000
,
0001
0000
0000
0000
1001
0000
1000
0010
0100
0000
0000
0010
0000
0000
0100
0000
,
0001
0000
0000
0000
1000
0000
0000
0100
0000
0000
0010
0000
0100
0000
1000
0000
,
0001
0000
0000
1000
0000
0000
0010
0100
,
0000
0000
0001
0000
0000
0000
1000
0000
0000
0000
0100
0000
0000
0000
0010
0001
,
1000
0010
0100
0010
1000
0001
0010
0100
,
0000
0000
1000
0000
0000
0000
0001
0100
0010
0000
1000
0000
0100
0000
0010
0000
,
0001
0000
0000
0000
0000
1000
0010
1000
,
0100
0000
0010
0000
0001
1000
0000
0000
,
0000
0000
0000
0000
0000
0000
0001
1000
0100
0000
0000
0010
0000
0000
0001
0000
,
1000
0000
0000
0000
0010
0000
0000
0100
0000
0000
0001
0000
1000
0000
0100
0000
,
0010
0000
0000
0001
0000
0000
0100
0010
,
0000
0000
1000
0000
0000
0000
0001
0000
0000
0000
0010
0000
0000
0000
0001
0100
,
0010
1000
0100
0010
0100
1000
0001
0100
,
0000
0000
0010
0000
0000
0000
1000
0100
0010
0000
0001
0000
1000
0000
0100
0000
,
1000
0000
0000
0000
0000
0001
0100
0001
,
1000
0000
0100
0000
0010
0001
0000
0000
,
1000
0000
0000
0000
0000
0001
1000
0100
,
0010
0000
0001
0000
0100
0010
0000
0000
,
1000
0000
0000
0000
0000
0001
0100
0001
,
1000
0000
0000
0000
0000
0001
0100
0001
,
1000
0000
1000
0000
,
1000
0000
1000
0000
,
1000
0001
1000
0001
,
1000
0001
1000
0001
,
1000
0001
1000
0001
1000
0001
1000
0001
,
1000
0001
1000
0001
1000
0001
1000
0001
,
1000
0001
1000
0001
1000
0001
1000
0001
1000
0001
1000
0001
1000
0001
1000
0001
,
4000
0000
0000
3100
,
1001
0000
0000
0000
,
1001
0000
0000
0000
1000
0000
0000
0000
0010
0000
0000
0000
0200
0300
0002
0003
0200
0300
0000
0000
0000
0000
0020
0030
0000
0000
0000
0000
2000
3000
0000
0000
,
0200
0300
0000
0000
0010
0000
0000
0000
0002
0003
0000
0000
0000
0000
0200
0300
0000
0000
0000
0000
0002
0003
0000
0000
2000
3000
0000
0000
0200
0300
0000
0000
,
0020
0030
0000
0000
0001
0000
0000
0000
0100
0000
0000
0000
0020
0030
0000
0000
0100
0000
0000
0000
0001
0000
0000
0000
2000
3000
0000
0000
0200
0300
0000
0000
,
1000
0000
0000
0000
0020
0030
0000
0000
0100
0000
0000
0000
0002
0003
0000
0000
1000
0000
0000
0000
0200
0300
0000
0000
0010
0000
0000
0000
0002
0003
2000
3000
,
0020
0030
0000
0000
0100
0000
0000
0000
0002
0003
0000
0000
0020
0030
0000
0000
0200
0300
0000
0000
1000
0000
0000
0000
0020
0030
0000
0000
0002
0003
0000
0000
,
0010
0000
0000
0000
0200
0300
0000
0000
0001
0000
0000
0000
2000
3000
0200
0300
0020
0030
0000
0000
0002
0003
0000
0000
0200
0300
0000
0000
0020
0030
0000
0000
,
2000
3000
0000
0000
0001
0000
0000
0000
0010
0000
0000
0000
0100
0000
0000
0000
1000
0000
0000
0000
0002
0003
0000
0000
0200
0300
0000
0000
0002
0003
0000
0000
,
2000
3000
0000
0000
0100
0000
0000
0000
0020
0030
0000
0000
0001
0000
0000
0000
0200
0300
0000
0000
0020
0030
0000
0000
1000
0000
0000
0000
0001
0000
0000
0000
,
0010
0000
0000
0000
0100
0000
0000
0000
1000
0000
0000
0000
0002
0003
0020
0030
0002
0003
0000
0000
0000
0000
2000
3000
0000
0000
0000
0000
0002
0003
0000
0000
,
0200
0300
0000
0000
0010
0000
0000
0000
2000
3000
0000
0000
0000
0000
0200
0300
0000
0000
0000
0000
2000
3000
0000
0000
0002
0003
0000
0000
0200
0300
0000
0000
,
0020
0030
0000
0000
1000
0000
0000
0000
0001
0000
0000
0000
0020
0030
0000
0000
0100
0000
0000
0000
1000
0000
0000
0000
0020
0030
0000
0000
0200
0300
0000
0000
,
0001
0000
0000
0000
0020
0030
0000
0000
0001
0000
0000
0000
0200
0300
0000
0000
0010
0000
0000
0000
2000
3000
0000
0000
0001
0000
0000
0000
2000
3000
0200
0300
,
0020
0030
0000
0000
0001
0000
0000
0000
2000
3000
0000
0000
0200
0300
0000
0000
0020
0030
0000
0000
0001
0000
0000
0000
0020
0030
0000
0000
2000
3000
0000
0000
,
0010
0000
0000
0000
0002
0003
0000
0000
1000
0000
0000
0000
0002
0003
0200
0300
0020
0030
0000
0000
2000
3000
0000
0000
0002
0003
0000
0000
2000
3000
0000
0000
,
0200
0300
0000
0000
0010
0000
0000
0000
0001
0000
0000
0000
0010
0000
0000
0000
0100
0000
0000
0000
2000
3000
0000
0000
0002
0003
0000
0000
2000
3000
0000
0000
,
0001
0100
0010
1000
0001
0010
0100
1000
0010
0100
0001
0010
0100
1000
0010
0100
,
0001
0010
0001
1000
0100
1000
0001
1000
0010
1000
0001
0010
0100
1000
0100
1000
,
0001
0010
0001
0100
0010
0100
0010
1000
0001
1000
0100
0010
0001
0010
0100
1000
,
0001
1000
0010
0100
0001
0100
0001
1000
0001
0010
0001
1000
0010
0100
0010
1000
,
0001
0010
0001
0100
0010
1000
0010
0100
0001
1000
0001
0010
0100
1000
0100
0010
,
0001
0100
0010
1000
0001
1000
0100
0010
0100
1000
0001
1000
0010
0100
0010
1000
,
0001
0010
0001
1000
0100
1000
0001
0100
0001
0100
0010
0100
0001
1000
0100
0010
,
0100
1000
0001
0100
0001
1000
0100
0010
0100
1000
0001
1000
0010
1000
0100
0010
,
0100
1000
0001
0010
0001
1000
0001
0100
0010
0100
0001
1000
0001
0010
0001
1000
,
0010
1000
0100
0010
0001
0010
0001
0100
0001
1000
0010
1000
0010
0100
0001
0010
,
0001
0100
0010
1000
0001
1000
0100
0010
0100
1000
0001
0010
0001
1000
0010
1000
,
0010
0100
0001
1000
0100
1000
0100
0010
0100
1000
0001
1000
0010
1000
0100
0010
,
0001
0010
0001
0100
0010
1000
0001
0100
0010
0100
0001
1000
0001
0010
0100
1000
,
0001
0100
0010
0100
0001
1000
0100
0010
,
0001
0100
0010
1000
0001
0010
0100
1000
0100
0010
0100
1000
0001
1000
0010
0100
,
0001
0000
1000
0010
0100
0010
1000
0100
0010
0001
0010
0100
1000
0001
0100
0010
,
4000
3000
0004
0003
0040
0030
0400
0300
4000
3000
0040
0030
0400
0300
0004
0003
0040
0030
0400
0300
4000
3000
0040
0030
0400
0300
0004
0003
4000
3000
0400
0300
,
0010
0004
0000
1003
0040
0000
0130
0004
,
0000
0103
0004
0000
0013
0010
0100
0100
,
1000
0000
0000
0000
0000
0000
0000
0000
0004
0000
0000
0000
0000
0000
0000
0000
0000
0000
0000
0000
0000
0000
0000
0000
0103
0000
0000
0000
0000
0000
0000
0000
0040
0000
0000
0000
0000
0000
0000
0000
0000
0000
0000
0000
0000
0000
0000
0000
1000
0030
0000
0000
0000
0000
0000
0000
0004
0000
0000
0000
0000
0000
0000
0000
,
0000
1003
0004
0000
0013
0010
0100
0100
,
1000
0004
0000
0103
0040
0000
1030
0004
,
0000
1003
0004
0000
0013
0010
0100
0100
,
1000
0000
0000
0000
0000
0000
0000
0000
0040
0000
0000
0000
0000
0000
0000
0000
0000
0000
0000
0000
0000
0000
0000
0000
0100
0030
0000
0000
0000
0000
0000
0000
0004
0000
0000
0000
0000
0000
0000
0000
0000
0000
0000
0000
0000
0000
0000
0000
1003
0000
0000
0000
0000
0000
0000
0000
0400
0000
0000
0000
0000
0000
0000
0000
,
0000
1300
0400
0000
0310
0010
0001
0001
,
0100
0040
0000
1030
0004
0000
0013
0400
,
0000
0310
0400
0000
1300
1000
0001
0001
,
0100
0040
0000
1030
0004
0000
0013
0400
,
0000
0000
0000
0000
0000
0000
0000
0000
0010
0300
0000
0000
0000
0000
0000
0000
0400
0000
0000
0000
0000
0000
0000
0000
0000
0000
0000
0000
0000
0000
0000
0000
1300
0000
0000
0000
0000
0000
0000
0000
1000
0000
0000
0000
0000
0000
0000
0000
0001
0000
0000
0000
0000
0000
0000
0000
0001
0000
0000
0000
0000
0000
0000
0000
,
0100
0000
0000
0000
0000
0000
0000
0000
0040
0000
0000
0000
0000
0000
0000
0000
0000
0000
0000
0000
0000
0000
0000
0000
1000
0030
0000
0000
0000
0000
0000
0000
0400
0000
0000
0000
0000
0000
0000
0000
0000
0000
0000
0000
0000
0000
0000
0000
0310
0000
0000
0000
0000
0000
0000
0000
0004
0000
0000
0000
0000
0000
0000
0000
,
0000
0013
0004
0000
0103
0100
0010
0010
,
1000
0001
0100
0001
0100
0010
0100
0001
1000
0100
1000
0001
0010
0001
1000
0010
,
0400
0300
0040
0030
4000
3000
0004
0003
0040
0030
0004
0003
0400
0300
0040
0030
4000
3000
0400
0300
4000
3000
0004
0003
0040
0030
0400
0300
4000
3000
0400
0300
,
0010
0000
0000
0000
0000
0000
0000
0000
0004
0000
0000
0000
0000
0000
0000
0000
0000
0000
0000
0000
0000
0000
0000
0000
1003
0000
0000
0000
0000
0000
0000
0000
0400
0000
0000
0000
0000
0000
0000
0000
0000
0000
0000
0000
0000
0000
0000
0000
1000
0300
0000
0000
0000
0000
0000
0000
0004
0000
0000
0000
0000
0000
0000
0000
,
0000
0000
0103
0000
0004
0000
0000
0000
1003
0100
1000
0000
0100
0010
0100
0000
,
0010
0004
0000
0103
0040
0000
1030
0400
,
0000
0000
1300
0000
0400
0000
0000
0000
0310
0001
0010
0000
0001
1000
0001
0000
,
1000
0400
0000
0310
0004
0000
1003
0040
,
0000
0000
0000
0000
0000
0000
0000
0000
1000
0030
0000
0000
0000
0000
0000
0000
0040
0000
0000
0000
0000
0000
0000
0000
0000
0000
0000
0000
0000
0000
0000
0000
0130
0000
0000
0000
0001
0000
0000
0000
0100
0000
0000
0000
0000
0000
0000
0000
0001
0000
0000
0000
0010
0000
0000
0000
0001
0000
0000
0000
0000
0000
0000
0000
,
1000
0000
0000
0000
0000
0000
0000
0000
0400
0000
0000
0000
0000
0000
0000
0000
0000
0000
0000
0000
0000
0000
0000
0000
1000
0300
0000
0000
0000
0000
0000
0000
0004
0000
0000
0000
0000
0000
0000
0000
0000
0000
0000
0000
0000
0000
0000
0000
0103
0000
0000
0000
0000
0000
0000
0000
0040
0000
0000
0000
0000
0000
0000
0000
,
0000
0000
0000
0000
0000
0000
0000
0000
0100
0030
0000
0000
0000
0000
0000
0000
0040
0000
0000
0000
0000
0000
0000
0000
0000
0000
0000
0000
0000
0000
0000
0000
1000
0030
0000
0000
0001
0000
0000
0000
1000
0000
0000
0000
0000
0000
0000
0000
0001
0000
0000
0000
0100
0000
0000
0000
0001
0000
0000
0000
0000
0000
0000
0000
,
1000
0400
0000
0310
0004
0000
0103
0040
,
0000
0000
0130
0000
0040
0000
0000
0000
1030
0100
1000
0000
0001
1000
0001
0000
,
0100
0000
0000
0000
0000
0000
0000
0000
0040
0000
0000
0000
0000
0000
0000
0000
0000
0000
0000
0000
0000
0000
0000
0000
1030
0000
0000
0000
0000
0000
0000
0000
0400
0000
0000
0000
0000
0000
0000
0000
0000
0000
0000
0000
0000
0000
0000
0000
0010
0300
0000
0000
0000
0000
0000
0000
0004
0000
0000
0000
0000
0000
0000
0000
,
0000
0000
0013
0000
0004
0000
0000
0000
0103
0010
0100
0000
0010
1000
0010
0000
,
0100
0001
0000
1000
0000
0100
0000
0010
,
0000
0001
0000
1000
0000
0010
0000
0100
,
0001
1000
0001
0010
0100
1000
0001
1000
0010
0100
0001
0010
0100
1000
0001
0010
,
0004
0003
0400
0300
0040
0030
4000
3000
0400
0300
4000
3000
0004
0003
0040
0030
0400
0300
0040
0030
0004
0003
0400
0300
0040
0030
4000
3000
0004
0003
0400
0300
,
0002
0000
0003
0000
;
