#TITLE:The Tower of Forsaken Fortress;
#SUBTITLE:The Wind Waker;
#ARTIST:Koji Kondo, Kenta Nagata, Hajime Wakai & Toru Minegishi;
#TITLETRANSLIT:;
#SUBTITLETRANSLIT:;
#ARTISTTRANSLIT:;
#CREDIT:Roar176;
#BANNER:forsaken_bn.png;
#BACKGROUND:forsaken_bg.png;
#LYRICSPATH:;
#CDTITLE:!roar176title.png;
#MUSIC:the_tower_of_forsaken_fortress.mp3;
#OFFSET:-0.029;
#SAMPLESTART:15.000;
#SAMPLELENGTH:12.000;
#SELECTABLE:YES;
#BPMS:0.000=155.867,5.000=155.858,6.000=155.849,7.000=155.867,10.000=155.858,11.000=155.867,12.000=155.858,13.000=155.849,14.000=155.867,15.000=155.858,16.000=155.867,18.000=155.858,20.000=155.849,22.000=155.867,23.000=155.858,24.000=155.867,26.000=155.858,28.000=155.849,29.000=155.867,30.000=155.858,31.000=155.867,32.000=155.858,33.000=155.867,34.000=155.858,35.000=155.867,36.000=155.858,38.000=155.867,39.000=155.858,40.000=155.867,41.000=155.858,42.000=155.867,43.000=155.858,44.000=155.867,45.000=155.858,46.000=155.867,47.000=155.858,48.000=155.867,49.000=155.858,50.000=155.867,51.000=155.858,53.000=155.867,54.000=155.858,55.000=155.867,56.000=155.858,57.000=155.867,58.000=155.858,60.000=155.867,61.000=155.858,62.000=155.849,63.000=155.867,64.000=155.858,65.000=155.849,66.000=155.867,67.000=155.858,68.000=155.849,69.000=155.867,70.000=155.858,71.000=155.849,72.000=155.867,73.000=155.858,75.000=155.849,76.000=155.867,77.000=155.858,78.000=155.849,79.000=155.867,80.000=155.858,81.000=155.867,82.000=155.858,83.000=155.849,84.000=155.867,85.000=155.858,86.000=155.849,87.000=155.867,88.000=155.858,90.000=155.849,91.000=155.867,92.000=155.858,93.000=155.849,94.000=155.867,95.000=155.858,97.000=155.849,98.000=155.867,99.000=155.858,100.000=155.849,101.000=155.867,102.000=155.858,104.000=155.849,105.000=155.867,106.000=155.858,107.000=155.849,108.000=155.867,109.000=155.858,110.000=155.867,111.000=155.858,112.000=155.849,113.000=155.867,114.000=155.858,115.000=155.849,116.000=155.867,117.000=155.858,119.000=155.849,120.000=155.867,121.000=155.858,122.000=155.849,125.000=155.867,126.000=155.858,127.000=155.849,130.000=155.867,131.000=155.858,132.000=155.867,133.000=155.858,134.000=155.849,137.000=155.867,138.000=155.858,139.000=155.849,140.000=155.867,141.000=155.858,142.000=155.849,145.000=155.867,146.000=155.858,147.000=155.867,148.000=155.858,149.000=155.849,152.000=155.867,153.000=155.858,154.000=155.867,155.000=155.858,156.000=155.849,159.000=155.867,160.000=155.858,161.000=155.849,162.000=155.867,163.000=155.858,164.000=155.849,167.000=155.867,168.000=155.858,169.000=155.867,170.000=155.858,171.000=155.849,174.000=155.867,175.000=155.858,176.000=155.867,177.000=155.858,178.000=155.849,181.000=155.867,182.000=155.858,183.000=155.849,184.000=155.867,185.000=155.858;
#STOPS:;
#BGCHANGES:;
// cache tags:
#FIRSTBEAT:0.000;
#LASTBEAT:176.500;
#SONGFILENAME:Songs/Hard Songs Megapack Volume 9/The Tower of Forsaken Fortress/pigeon_volant_point_sm.sm;
#HASMUSIC:1;
#HASBANNER:1;
#MUSICLENGTH:71.862;
// end cache tags

//---------------dance-single - ----------------
#NOTES:
     dance-single:
     :
     Beginner:
     22:
     1.000,1.000,1.000,1.000,1.000,783.000,324.000,126.000,0.000,121.000:
1001
0100
0010
0001
1000
0100
0010
0001
1000
0100
0010
0001
1000
0100
0010
0001
,
1000
0100
0010
0001
2100
0010
0001
0100
3210
0001
1000
0010
1302
0100
0010
1000
,
2113
0001
3010
0100
1000
0001
0010
0100
1211
0000
0300
0000
1000
0000
0000
0000
1210
0000
0300
0000
0001
0000
0000
0000
1000
0000
0000
0000
0010
0000
0000
0000
2101
0000
3000
0000
0010
0000
0000
0000
2100
0000
3000
0000
0001
0000
0000
0000
1020
0000
0030
0000
0100
0000
0000
0000
0012
0000
0003
0000
0001
0000
0000
0000
,
2110
0001
3010
0100
1000
0001
0010
0100
1211
0000
0300
0000
1000
0000
0000
0000
0211
0000
0300
0000
1000
0000
0000
0000
0100
0000
0000
0000
0001
0000
0000
0000
2110
0000
3000
0000
0001
0000
0000
0000
2110
0000
3000
0000
0001
0000
0000
0000
0120
0000
0030
0000
1000
0000
0000
0000
0102
0000
0003
0000
0010
0000
0000
0000
,
2101
0010
3001
1000
0100
0010
0001
1000
1211
0000
0300
0000
0010
0000
0000
0000
1201
0000
0300
0000
0010
0000
0000
0000
0100
0000
0000
0000
0001
0000
0000
0000
2110
0000
3000
0000
0001
0000
0000
0000
2110
0000
3000
0000
0001
0000
0000
0000
0010
0000
0000
0000
0001
0000
0000
0000
0010
0000
0000
0000
0100
0000
0000
0000
,
1001
0100
0001
1000
0110
0001
1000
0010
1101
0000
0000
0000
1010
0000
0000
0000
0101
0000
0000
0000
0010
0000
0000
0000
0101
0000
0000
0000
1010
0000
0000
0000
0101
0000
0000
0000
0010
0000
0000
0000
1001
0000
0000
0000
0010
0000
0000
0000
0101
0000
0000
0000
1010
0000
0000
0000
0101
0000
0000
0000
0010
0000
0000
0000
,
2101
0010
3001
1000
0100
0001
0010
1000
1211
0000
0300
0000
0010
0000
0000
0000
1201
0000
0300
0000
0010
0000
0000
0000
0001
0000
0000
0000
0010
0000
0000
0000
2101
0000
3000
0000
0010
0000
0000
0000
2100
0000
3000
0000
0001
0000
0000
0000
0120
0000
0030
0000
1000
0000
0000
0000
0102
0000
0003
0000
0010
0000
0000
0000
,
2101
0010
3001
1000
0010
0100
0001
1000
1211
0000
0300
0000
0010
0000
0000
0000
1201
0000
0300
0000
0010
0000
0000
0000
1000
0000
0000
0000
0001
0000
0000
0000
2110
0000
3000
0000
0001
0000
0000
0000
2110
0000
3000
0000
0001
0000
0000
0000
1020
0000
0030
0000
0100
0000
0000
0000
1002
0000
0003
0000
0010
0000
0000
0000
,
2101
0010
3001
1000
0100
0010
0001
1000
1211
0000
0300
0000
0001
0000
0000
0000
1210
0000
0300
0000
0001
0000
0000
0000
1000
0000
0000
0000
0010
0000
0000
0000
2101
0000
3000
0000
0010
0000
0000
0000
2101
0000
3000
0000
0010
0000
0000
0000
0001
0000
0000
0000
0010
0000
0000
0000
0001
0000
0000
0000
0100
0000
0000
0000
,
1001
0100
0001
1000
0110
0001
0010
1000
0111
0000
0000
0000
1010
0000
0000
0000
0101
0000
0000
0000
0010
0000
0000
0000
0101
0000
0000
0000
1010
0000
0000
0000
0101
0000
0000
0000
0010
0000
0000
0000
0101
0000
0000
0000
0010
0000
0000
0000
0101
0000
0000
0000
1010
0000
0000
0000
0101
0000
0000
0000
0010
0000
0000
0000
,
2101
3000
0000
0000
2100
3000
0010
0000
2100
3000
0000
0000
2010
3000
0100
0000
2010
3000
0000
0000
2100
3000
0000
0000
2001
3000
0010
0000
2001
3000
0000
0000
,
2010
3000
0000
0000
2010
3000
0100
0000
2001
3000
0000
0000
2001
3000
0010
0000
2100
3000
0000
0000
2100
3000
0000
0000
0012
0003
0100
0000
1002
0003
0000
0000
,
0021
0030
0000
0000
0120
0030
1000
0000
0021
0030
0000
0000
1020
0030
0001
0000
0120
0030
0000
0000
0120
0030
0000
0000
0021
0030
1000
0000
0021
0030
0000
0000
,
1020
0030
0000
0000
0120
0030
0001
0000
0120
0030
0000
0000
0120
0030
1000
0000
0120
0030
0000
0000
0120
0030
0000
0000
0012
0003
0100
0000
0001
0000
0000
0000
,
0100
1000
0101
1010
0101
0010
0101
1010
0101
1000
0011
0100
0011
1100
0011
0100
,
1010
0000
1000
0010
0101
0000
0100
0010
1100
0000
0100
0000
0001
1000
0100
0000
,
2110
0001
3010
0100
1000
0001
0010
0100
1211
0000
0300
0000
1000
0000
0000
0000
1210
0000
0300
0000
0001
0000
0000
0000
1000
0000
0000
0000
0010
0000
0000
0000
2101
0000
3000
0000
0010
0000
0000
0000
2100
0000
3000
0000
0001
0000
0000
0000
1000
0000
0000
0000
0100
0000
0000
0000
0010
0000
0000
0000
0001
0000
0000
0000
,
2110
0001
3010
0100
1000
0001
0010
0100
1211
0000
0300
0000
1000
0000
0000
0000
0211
0000
0300
0000
1000
0000
0000
0000
0100
0000
0000
0000
0001
0000
0000
0000
2110
0000
3000
0000
0001
0000
0000
0000
2110
0000
3000
0000
0001
0000
0000
0000
0100
0000
0000
0000
1000
0000
0000
0000
0100
0000
0000
0000
0010
0000
0000
0000
,
2101
0010
3100
1000
0001
0010
1000
0100
1211
0000
0300
0000
0010
0000
0000
0000
1201
0000
0300
0000
0010
0000
0000
0000
0100
0000
0000
0000
0001
0000
0000
0000
2110
0000
3000
0000
0001
0000
0000
0000
2110
0000
3000
0000
0001
0000
0000
0000
0010
0000
0000
0000
0001
0000
0000
0000
0010
0000
0000
0000
0100
0000
0000
0000
,
1001
0100
1000
0001
0110
1000
0001
0010
1101
0000
0000
0000
1010
0000
0000
0000
0101
0000
0000
0000
0010
0000
0000
0000
0101
0000
0000
0000
1010
0000
0000
0000
0101
0000
0000
0000
0010
0000
0000
0000
1001
0000
0000
0000
0010
0000
0000
0000
0101
0000
0000
0000
1010
0000
0000
0000
0101
0000
0000
0000
0010
0000
0000
0000
,
1020
0130
1010
0101
1010
0100
1021
0131
1010
0001
1010
0001
0121
1031
0110
0001
,
1210
0301
0110
1001
0110
0001
0211
1310
1100
0010
0101
1000
0211
1310
0101
1000
,
0001
0010
0100
1000
0011
0100
1000
0010
1101
0000
0000
0000
1010
0000
0000
0000
0201
0000
0000
0000
0000
0000
0000
0000
0010
0000
0000
0000
0001
0000
0000
0000
1000
0000
0000
0000
0000
0000
0000
0000
1000
0000
0000
0000
0000
0000
0000
0000
0010
0000
0000
0000
0001
0000
0000
0000
1300
0000
0000
0000
0000
0000
0000
0000
,
0101
0010
0001
1000
0011
0100
0010
1000
0111
0000
0000
0000
1010
0000
0000
0000
0201
0000
0000
0000
0000
0000
0000
0000
0010
0000
0000
0000
0001
0000
0000
0000
0010
0000
0000
0000
0000
0000
0000
0000
1300
0000
0000
0000
0000
0000
0000
0000
0100
0000
0000
0000
0010
0000
0000
0000
0001
0000
0000
0000
0000
0000
0000
0000
,
1101
0010
0001
1000
0110
0001
0100
1000
0111
0000
0000
0000
1010
0000
0000
0000
0101
0000
0000
0000
0010
0000
0000
0000
1100
0000
0000
0000
0010
0000
0000
0000
0101
0000
0000
0000
1000
0000
0000
0000
0110
0000
0000
0000
0001
0000
0000
0000
1010
0000
0000
0000
0101
0000
0000
0000
1010
0000
0000
0000
0100
0000
0000
0000
,
1010
0001
1101
0010
1101
0010
0101
1010
1101
0010
1100
0010
0101
1010
0101
0010
,
1101
0000
0010
0100
1000
0000
1110
0000
0010
0000
0100
0000
1001
0000
1100
0000
,
1010
0100
1011
0100
1011
0100
1001
0100
1011
0100
1011
0100
1010
0100
1010
0100
,
0002
0000
0000
0010
0000
0000
0100
0000
0000
1000
0000
0000
0010
0000
0000
0100
0000
0000
1000
0000
0000
0010
0000
0000
1100
0000
0000
0000
0000
0000
0000
0000
0000
0000
0000
0000
0010
0000
0000
0000
0000
0000
0000
0000
0000
0000
0000
0000
2103
0000
0000
0000
0000
0000
0000
0000
0000
0000
0000
0000
0000
0000
0000
0000
0000
0000
0000
0000
0000
0000
0000
0000
0001
0000
0000
0000
0000
0000
0000
0000
0000
0000
0000
0000
0100
0000
0000
0000
0000
0000
0000
0000
0000
0000
0000
0000
3021
0000
0000
0000
0000
0000
0000
0000
0000
0000
0000
0000
0000
0000
0000
0000
0000
0000
0000
0000
0000
0000
0000
0000
1000
0000
0000
0000
0000
0000
0000
0000
0000
0000
0000
0000
0000
0000
0000
0000
0000
0000
0000
0000
0000
0000
0000
0000
1230
0000
0000
0000
0000
0000
0000
0000
0000
0000
0000
0000
0000
0000
0000
0000
0010
0000
0000
0000
0000
0000
0000
0000
0000
0000
0000
0000
0000
0000
0000
0000
0001
0000
0000
0000
0000
0000
0000
0000
0000
0000
0000
0000
0000
0000
0000
0000
,
1311
0100
0011
1100
0011
0100
1010
0100
0011
1000
0110
0001
1010
0101
1010
0100
,
1010
0001
1101
0010
1101
0010
0101
1010
1101
0010
1100
0010
0101
1010
0101
0010
,
1101
0000
0010
0100
1000
0000
1110
0000
0010
0000
0100
0000
1001
0000
1100
0000
,
1010
0100
1011
0100
1011
0100
1001
0100
1011
0100
1011
0100
1010
0100
1010
0100
,
0012
0000
1000
0010
1203
0000
0010
1000
0312
0000
0100
0000
2013
0100
0010
0000
,
3111
1000
0110
0001
1110
0001
1100
0011
1101
0011
1000
0101
1011
1100
0011
0100
,
1011
0100
1010
0001
1110
0001
1100
0011
1101
0110
1000
0101
1011
0110
1001
0100
,
1011
0100
0011
0100
1011
0100
1010
0101
1110
0011
0100
0011
1110
0011
1100
0010
,
1101
0010
0101
0010
1101
0010
1100
0011
1101
0011
0100
1010
1101
1010
0101
1010
,
0102
1000
0100
1000
0110
1000
0010
0100
1010
0000
0000
0000
0100
0000
0000
0000
0010
0000
0000
0000
1000
0000
0000
0000
0103
0000
0000
0000
0001
0000
0000
0000
1020
0000
0000
0000
0100
0000
0000
0000
0001
0000
0000
0000
1000
0000
0000
0000
0100
0000
0000
0000
0001
0000
0000
0000
1030
0000
0000
0000
0010
0000
0000
0000
,
0201
1000
0010
0001
1000
0010
0301
0100
2010
0001
0100
0010
0001
0100
3010
0001
,
2110
0001
3010
0100
1000
0001
0010
0100
1211
0000
0300
0000
1000
0000
0000
0000
1210
0000
0300
0000
0001
0000
0000
0000
1000
0000
0000
0000
0010
0000
0000
0000
2101
0000
3000
0000
0010
0000
0000
0000
2100
0000
3000
0000
0001
0000
0000
0000
1020
0000
0030
0000
0100
0000
0000
0000
0012
0000
0003
0000
0001
0000
0000
0000
,
2110
0001
3010
0100
1000
0001
0010
0100
1211
0000
0300
0000
1000
0000
0000
0000
0211
0000
0300
0000
1000
0000
0000
0000
0100
0000
0000
0000
0001
0000
0000
0000
2110
0000
3000
0000
0001
0000
0000
0000
2110
0000
3000
0000
0001
0000
0000
0000
0120
0000
0030
0000
1000
0000
0000
0000
0102
0000
0003
0000
0010
0000
0000
0000
,
2101
0010
3001
1000
0100
0010
0001
0010
1211
0000
0300
0000
0010
0000
0000
0000
1201
0000
0300
0000
0010
0000
0000
0000
0100
0000
0000
0000
0001
0000
0000
0000
2110
0000
3000
0000
0001
0000
0000
0000
2110
0000
3000
0000
0001
0000
0000
0000
0010
0000
0000
0000
0001
0000
0000
0000
0010
0000
0000
0000
0100
0000
0000
0000
,
1001
0100
0001
1000
0011
0100
0010
1000
0111
0000
0000
0000
1010
0000
0000
0000
0101
0000
0000
0000
0010
0000
0000
0000
0101
0000
0000
0000
1010
0000
0000
0000
0101
0000
0000
0000
0010
0000
0000
0000
1001
0000
0000
0000
0010
0000
0000
0000
0101
0000
0000
0000
1010
0000
0000
0000
0101
0000
0000
0000
0010
0000
0000
0000
,
1101
0010
0001
1000
0100
0010
0001
1000
0100
0000
0000
0000
0000
0000
0000
0000
0000
0000
0000
0000
0000
0000
0000
0000
0000
0000
0000
0000
0000
0000
0000
0000
0000
0000
0000
0000
0000
0000
0000
0000
0000
0000
0000
0000
0000
0000
0000
0000
0000
0000
0000
0000
0000
0000
0000
0000
0000
0000
0000
0000
0000
0000
0000
0000
,
0000
0000
0000
0000
,
0000
0000
0000
0000
;

//---------------dance-single - ----------------
#NOTES:
     dance-single:
     :
     Hard:
     12:
     1.000,1.000,1.000,0.223,0.738,421.000,150.000,16.000,0.000,4.000:
1000
0100
0010
0001
1000
0100
0010
0001
1000
0100
0010
0001
1000
0100
0010
0001
,
1000
0100
0010
0001
0100
0010
0001
1000
0010
0001
1000
0100
0001
1000
0100
0010
,
1100
0110
0011
1100
0110
0110
1100
0011
,
0011
0110
1100
0011
0110
0110
0011
1100
,
1100
0110
0011
1100
0110
0110
1100
0011
,
0001
0010
0100
1000
0100
0010
0001
1000
0100
0010
0001
0010
0100
1000
0100
0010
,
1001
0110
1001
0110
1010
0101
0110
1001
,
1100
0110
0011
0110
1010
0101
1001
0110
,
0011
0110
1100
0101
1010
1001
0110
1001
,
0001
0010
0100
1000
0010
0100
1000
0001
0100
1000
0001
0010
1000
0001
0010
0100
,
1001
0000
0010
0100
0010
0000
1000
0100
0010
0000
0001
0010
0100
0000
1000
0010
,
0100
0000
0001
0010
0100
0000
0010
0001
0100
0000
1000
0010
0001
0000
0010
0100
,
0010
0000
1000
0010
0001
0000
0010
0100
1000
0000
0100
0010
0001
0000
0010
0100
,
0010
0000
1000
0100
1000
0000
0001
0010
0001
0000
0010
0100
1000
0000
0100
0001
,
0100
1000
0100
0010
0001
0010
0100
1000
0200
0000
0000
0000
0000
0000
0000
0000
,
0000
0000
0000
0300
0002
0000
0000
0003
2000
0000
0000
3000
0020
0000
0000
0030
,
0011
0110
1100
0011
0110
0110
0011
1100
,
1100
0110
0011
1100
0110
0110
1100
0011
,
0011
0110
1100
0011
0110
0110
0011
1100
,
1000
0100
0010
0001
0100
0010
0001
1000
0010
0001
1000
0100
0001
1000
0100
0010
,
1001
0100
0010
0001
1000
0100
1001
0010
0001
1000
0100
0010
1001
0100
0010
0001
,
0110
0001
0010
0100
1000
0001
0110
1000
0100
0010
0100
0001
0110
1000
0100
0010
,
1001
0100
1000
0001
0010
0000
1001
0000
0000
0000
0000
0000
1001
0000
0000
0000
,
0110
1000
0100
0001
0010
0000
0110
0000
0000
0000
0000
0000
0110
0000
0000
0000
,
1001
0100
0010
1100
0001
0100
0010
1000
,
0010
1100
0011
0100
0011
1100
0001
1000
,
0011
0100
0001
1100
0010
1000
0010
0100
,
0001
1100
0011
0100
0011
1100
0010
0100
,
0002
2003
3020
0230
,
0311
1000
0010
1100
0001
0100
0010
1000
,
0001
1100
0011
1000
0011
1100
0001
0100
,
0011
1000
0010
1100
0001
1000
0010
0100
,
0010
1100
0011
1000
0011
1100
0010
0100
,
0020
0230
0302
2003
,
3011
0000
0100
0000
0110
0000
0001
0010
1100
0010
0000
0001
0011
0100
0001
0000
,
1100
0000
0010
0000
0110
0000
1000
0010
0101
1000
0000
0001
1010
0100
0010
0001
,
0110
0000
0100
0000
1001
0000
0010
0100
0011
0100
0000
0100
1100
0010
0001
0000
,
0101
0000
0001
0000
1100
0000
0001
0100
1010
0001
0000
1000
0011
1000
0100
0010
,
0002
0000
0020
0000
,
0200
0000
2000
3333
,
1001
0110
1001
0110
0101
1010
0110
1001
,
0011
0110
1100
0110
0101
1010
1001
0110
,
1100
0110
0011
1010
0101
1001
0110
1001
,
0001
0010
0100
1000
0010
0100
1000
0001
0100
1000
0001
0010
1000
0001
0010
0100
,
1001
0000
0000
0000
,
0000
0000
0000
0000
,
0000
0000
0000
0000
;

//---------------dance-single - ----------------
#NOTES:
     dance-single:
     :
     Challenge:
     17:
     1.000,1.000,1.000,1.000,1.000,636.000,314.000,126.000,0.000,111.000:
1001
0100
0010
0001
1000
0100
0010
0001
1000
0100
0010
0001
1000
0100
0010
0001
,
1000
0100
0010
0001
2100
0010
0001
0100
3210
0001
1000
0010
1302
0100
0010
1000
,
2113
3000
0000
0000
0211
0300
1000
0000
1210
0300
0001
0000
1000
0000
0010
0000
2101
3000
0010
0000
2100
3000
0001
0000
1020
0030
0100
0000
0012
0003
0001
0000
,
2110
3000
0000
0000
0211
0300
1000
0000
0211
0300
1000
0000
0100
0000
0001
0000
2110
3000
0001
0000
2110
3000
0001
0000
0120
0030
1000
0000
0102
0003
0010
0000
,
2101
3000
0000
0000
1201
0300
0010
0000
1201
0300
0010
0000
0100
0000
0001
0000
2110
3000
0001
0000
2110
3000
0001
0000
0010
0000
0001
0000
0010
0000
0100
0000
,
1001
0010
0101
1010
0101
0010
0101
1010
0101
0010
1001
0010
0101
1010
0101
0010
,
2101
3000
0000
0000
1201
0300
0010
0000
1201
0300
0010
0000
0001
0000
0010
0000
2101
3000
0010
0000
2100
3000
0001
0000
0120
0030
1000
0000
0102
0003
0010
0000
,
2101
3000
0000
0000
1201
0300
0010
0000
1201
0300
0010
0000
1000
0000
0001
0000
2110
3000
0001
0000
2110
3000
0001
0000
1020
0030
0100
0000
1002
0003
0010
0000
,
2101
3000
0000
0000
1210
0300
0001
0000
1210
0300
0001
0000
1000
0000
0010
0000
2101
3000
0010
0000
2101
3000
0010
0000
0001
0000
0010
0000
0001
0000
0100
0000
,
1001
0010
0101
1010
0101
0010
0101
1010
0101
0010
0101
0010
0101
1010
0101
0010
,
2101
3000
0000
0000
2100
3000
0010
0000
2100
3000
0000
0000
2010
3000
0100
0000
2010
3000
0000
0000
2100
3000
0000
0000
2001
3000
0010
0000
2001
3000
0000
0000
,
2010
3000
0000
0000
2010
3000
0100
0000
2001
3000
0000
0000
2001
3000
0010
0000
2100
3000
0000
0000
2100
3000
0000
0000
0012
0003
0100
0000
1002
0003
0000
0000
,
0021
0030
0000
0000
0120
0030
1000
0000
0021
0030
0000
0000
1020
0030
0001
0000
0120
0030
0000
0000
0120
0030
0000
0000
0021
0030
1000
0000
0021
0030
0000
0000
,
1020
0030
0000
0000
0120
0030
0001
0000
0120
0030
0000
0000
0120
0030
1000
0000
0120
0030
0000
0000
0120
0030
0000
0000
0012
0003
0100
0000
0001
0000
0000
0000
,
0100
1000
0101
1010
0101
0010
0101
1010
0101
1000
0011
0100
0011
1100
0011
0100
,
1010
0000
1000
0010
0101
0000
0100
0010
1100
0000
0100
0000
0001
1000
0100
0000
,
2110
3000
0000
0000
0211
0300
1000
0000
1210
0300
0001
0000
1000
0000
0010
0000
2101
3000
0010
0000
2100
3000
0001
0000
1000
0000
0100
0000
0010
0000
0001
0000
,
2110
3000
0000
0000
0211
0300
1000
0000
0211
0300
1000
0000
0100
0000
0001
0000
2110
3000
0001
0000
2110
3000
0001
0000
0100
0000
1000
0000
0100
0000
0010
0000
,
2101
3000
0000
0000
1201
0300
0010
0000
1201
0300
0010
0000
0100
0000
0001
0000
2110
3000
0001
0000
2110
3000
0001
0000
0010
0000
0001
0000
0010
0000
0100
0000
,
1001
0010
0101
1010
0101
0010
0101
1010
0101
0010
1001
0010
0101
1010
0101
0010
,
1020
0130
1010
0101
1010
0100
1021
0131
1010
0001
1010
0001
0121
1031
0110
0001
,
1210
0301
0110
1001
0110
0001
0211
1310
1100
0010
0101
1000
0211
1310
0101
1000
,
0001
0010
0101
1010
0201
0000
0010
0001
1000
0000
1000
0000
0010
0001
1300
0000
,
0101
0010
0101
1010
0201
0000
0010
0001
0010
0000
1300
0000
0100
0010
0001
0000
,
1101
0010
0101
1010
0101
0010
1100
0010
0101
1000
0110
0001
1010
0101
1010
0100
,
1010
0001
1101
0010
1101
0010
0101
1010
1101
0010
1100
0010
0101
1010
0101
0010
,
1101
0000
0010
0100
1000
0000
1110
0000
0010
0000
0100
0000
1001
0000
1100
0000
,
1010
0100
1011
0100
1011
0100
1001
0100
1011
0100
1011
0100
1010
0100
1010
0100
,
0002
0000
0000
0000
0000
0000
0100
0000
0000
0010
0000
0000
2103
0000
0000
0000
0000
0000
0001
0000
0000
0100
0000
0000
3021
0000
0000
0000
0000
0000
1000
0000
0000
0000
0000
0000
1230
0000
0000
0000
0010
0000
0000
0000
0001
0000
0000
0000
,
1311
0100
0011
1100
0011
0100
1010
0100
0011
1000
0110
0001
1010
0101
1010
0100
,
1010
0001
1101
0010
1101
0010
0101
1010
1101
0010
1100
0010
0101
1010
0101
0010
,
1101
0000
0010
0100
1000
0000
1110
0000
0010
0000
0100
0000
1001
0000
1100
0000
,
1010
0100
1011
0100
1011
0100
1001
0100
1011
0100
1011
0100
1010
0100
1010
0100
,
0012
0000
1000
0010
1203
0000
0010
1000
0312
0000
0100
0000
2013
0100
0010
0000
,
3111
1000
0110
0001
1110
0001
1100
0011
1101
0011
1000
0101
1011
1100
0011
0100
,
1011
0100
1010
0001
1110
0001
1100
0011
1101
0110
1000
0101
1011
0110
1001
0100
,
1011
0100
0011
0100
1011
0100
1010
0101
1110
0011
0100
0011
1110
0011
1100
0010
,
1101
0010
0101
0010
1101
0010
1100
0011
1101
0011
0100
1010
1101
1010
0101
1010
,
0102
0010
1000
0100
0010
1000
0103
0001
1020
0100
0001
1000
0100
0001
1030
0010
,
0201
1000
0010
0001
1000
0010
0301
0100
2010
0001
0100
0010
0001
0100
3010
0001
,
2110
3000
0000
0000
0211
0300
1000
0000
1210
0300
0001
0000
1000
0000
0010
0000
2101
3000
0010
0000
2100
3000
0001
0000
1020
0030
0100
0000
0012
0003
0001
0000
,
2110
3000
0000
0000
0211
0300
1000
0000
0211
0300
1000
0000
0100
0000
0001
0000
2110
3000
0001
0000
2110
3000
0001
0000
0120
0030
1000
0000
0102
0003
0010
0000
,
2101
3000
0000
0000
1201
0300
0010
0000
1201
0300
0010
0000
0100
0000
0001
0000
2110
3000
0001
0000
2110
3000
0001
0000
0010
0000
0001
0000
0010
0000
0100
0000
,
1001
0010
0101
1010
0101
0010
0101
1010
0101
0010
1001
0010
0101
1010
0101
0010
,
1101
0000
0000
0000
,
0000
0000
0000
0000
,
0000
0000
0000
0000
;
