#TITLE:Cold Pizza;
#SUBTITLE:;
#ARTIST:m1dy;
#TITLETRANSLIT:;
#SUBTITLETRANSLIT:;
#ARTISTTRANSLIT:;
#CREDIT:Aoreo;
#BANNER:Bn-Pizza.png;
#BACKGROUND:Bg-Pizza.png;
#LYRICSPATH:;
#CDTITLE:;
#MUSIC:Cold Pizza.ogg;
#OFFSET:-0.656;
#SAMPLESTART:19.178;
#SAMPLELENGTH:12.000;
#SELECTABLE:YES;
#BPMS:0.000=180.000;
#STOPS:;
#BGCHANGES:;
// cache tags:
#FIRSTBEAT:24.000;
#LASTBEAT:415.250;
#SONGFILENAME:Songs/SPEEEDCOOOORE/Cold Pizza - [Aoreo]/Cold Pizza.sm;
#HASMUSIC:1;
#HASBANNER:1;
#MUSICLENGTH:139.666;
// end cache tags

//---------------dance-single - J. Nero----------------
#NOTES:
     dance-single:
     J. Nero:
     Challenge:
     14:
     1.000,1.000,0.093,0.530,1.000,1128.000,13.000,74.000,64.000,0.000:

0000
0000
0000
0000
,
0000
0000
0000
0000
,
0000
0000
0000
0000
,
0000
0000
0000
0000
,
0000
0000
0000
0000
,
0000
0000
0000
0000
,
1001
0000
1000
0010
0100
0010
1000
0000
0001
0010
0001
0010
0100
1000
0001
1000
,
0010
0000
0100
0010
1000
0100
1000
0000
0001
0010
0001
0100
0010
1000
0100
0010
,
0001
0000
0000
0000
0000
0000
1001
0000
1000
0010
1000
0010
0100
0001
0010
0100
,
1000
0000
0001
0010
0001
1000
0010
0000
1000
0010
1000
0100
0010
0001
1000
0001
,
0100
0000
0010
1000
0010
1000
0100
0000
0010
0001
0010
0001
1000
0010
1000
0001
,
0100
0000
0010
0100
0010
1000
0001
0000
1000
0100
1000
0100
0010
0001
0100
0001
,
1000
0000
0000
0000
0000
0000
1001
0000
1000
0010
1000
0010
0100
0001
1000
0001
,
1000
0000
0001
0100
0010
0100
0001
0000
1000
0010
0100
0010
1000
0001
0010
0100
,
2000
0000
0000
0000
,
3002
0000
0023
0000
0230
0000
0320
0000
0032
0000
1003
0010
1000
0001
0010
0001
,
1000
0000
0100
0010
0001
0100
0010
0000
1000
0001
0010
0001
1000
0010
0100
0010
,
1000
0000
0001
0100
0010
0100
0001
0000
1000
0010
0100
0010
1000
0100
0010
0001
,
1000
0000
0001
0100
0010
0100
0001
0000
0100
0010
1000
0010
1000
0100
0010
0001
,
1000
0000
0000
0000
0000
0000
0010
0000
0000
1000
0000
0000
0100
0000
0000
1000
0000
0000
0010
0000
0000
0000
0000
0000
0100
0000
0000
0010
0000
0000
0100
0000
0000
0001
0000
0000
1000
0000
0001
0000
1000
0000
0001
0000
0000
1000
0000
0000
,
0010
0000
1000
0010
1000
0001
0010
0000
0100
1000
0100
1000
0001
0100
0010
1000
,
0001
0000
0100
0010
0100
0010
1000
0000
0001
0010
0100
1000
0001
0100
0001
1000
,
0020
0000
0000
0000
,
2030
0000
3001
0010
0100
1000
0002
0000
1003
0010
0100
0001
2000
0000
0000
0000
,
3001
0000
0100
0000
0001
0000
0000
0000
0000
1000
0000
0000
0100
0000
1000
0000
0100
0000
0000
0000
0000
1000
0000
0000
0001
0000
1000
0000
0001
0000
0000
0000
0000
0100
0000
0000
0010
0000
0100
0000
0010
0000
0100
0000
0000
0001
0000
0000
,
1000
0100
M0M0
0100
0001
0000
1000
0010
M00M
0010
0001
0000
2000
0000
3002
0000
,
1003
0010
0M0M
0010
0001
0000
1000
0100
M0M0
0100
0001
0000
2000
0000
3020
0000
,
1030
0100
M0M0
0100
0001
0000
0100
0010
0M0M
0010
0001
0000
2000
0000
3200
0000
,
1300
0000
0010
0000
0M0M
0000
0010
0000
0001
0000
0000
0000
0100
0000
0010
0000
1000
0000
0100
M0M0
0100
0000
0001
0000
1000
0000
0000
0000
0001
0000
1000
0000
,
0001
0010
0M0M
0010
1000
0000
0001
0100
00MM
0100
1000
0000
0002
0000
0203
0000
,
0301
0010
0M0M
0010
1000
0000
0001
0100
00MM
0100
1000
0000
0200
0000
2300
0000
,
3010
0000
0000
0000
0000
0000
0000
0000
0000
0000
0000
0000
0100
0000
0000
0000
0000
0000
0000
0000
0000
0000
0000
0000
0000
0000
0000
0000
0000
0000
0000
0000
M00M
0000
0000
0000
0100
0000
0000
0000
0000
0000
0000
0000
0000
0000
0000
0000
1000
0000
0000
0000
0000
0000
0000
0000
0000
0000
0000
0000
0000
0000
0000
0000
0000
0000
0000
0000
0000
0000
0000
0000
0001
0000
0000
0000
0000
0000
0000
0000
0000
0000
0000
0000
1000
0000
0000
0000
0000
0000
0000
0000
0000
0000
0000
0000
0001
0000
0000
0000
0000
0000
0000
0000
0000
0000
0000
0000
0100
0000
0000
0000
0000
0000
M0M0
0000
0000
0000
0000
0000
0100
0000
0000
0000
0000
0000
0000
0000
0000
0000
0000
0000
1000
0000
0000
0000
0000
0000
0000
0000
0000
0000
0000
0000
0001
0000
0000
0000
0000
0000
0000
0000
0000
0000
0000
0000
0000
0000
0000
0000
0000
0000
0000
0000
0000
0000
0000
0000
1000
0000
0000
0000
0000
0000
0000
0000
0001
0000
0000
0000
0000
0000
0000
0000
1000
0000
0000
0000
0000
0000
0000
0000
,
0001
0100
0000
0010
1000
0000
0001
0010
0000
0100
1000
0000
0002
0000
2003
0000
,
3000
0000
0000
0000
,
0000
0000
0000
0000
,
0000
0000
0000
0000
,
0002
0000
0000
0000
2003
0000
0000
0000
3002
0000
1003
0010
0100
0001
1000
0100
,
0020
0000
0130
1000
0001
0100
0010
0100
0002
0000
0103
0010
1000
0100
0010
0100
,
2000
0000
0000
0000
3020
0000
0000
0000
0230
0000
0301
1000
0001
1000
0100
0010
,
0002
0000
1003
0010
1000
0010
0100
0001
2000
0000
3100
0010
0001
1000
0001
1000
,
0001
0000
0100
0000
0101
0000
0001
0000
1001
0000
1000
0100
0010
0100
1000
0001
,
2000
0000
3010
0100
0001
0100
0010
1000
0002
0000
0013
0100
1000
0001
1000
0001
,
0100
0000
0010
0000
0110
0000
0100
0000
0101
0000
0001
0100
0001
0010
0100
1000
,
0200
0000
0000
0000
0000
0000
1300
0000
0000
0001
0000
0000
0100
0000
0000
0010
0000
0000
1000
0000
0000
0001
0000
0000
0200
0000
0000
0000
0000
0000
0301
0000
0000
1000
0000
0000
0100
0000
1000
0000
0100
0000
1000
0000
0000
0100
0000
0000
,
1000
0001
0010
0100
0010
0001
1000
0010
1000
0010
0100
0001
0100
0001
1000
0010
,
0100
0010
1000
0001
0100
0010
0100
0001
0010
0100
0010
0100
1000
0001
0010
0001
,
0010
0001
1000
0001
1000
0100
0010
0100
1000
0001
0100
0010
0100
0001
1000
0100
,
0010
0001
1000
0100
1000
0001
0100
0010
0100
0010
1000
0001
1000
0100
1000
0100
,
1000
0000
0000
0000
0000
0000
0000
0000
0000
0000
0010
0000
0000
0000
0000
0000
0000
0000
0000
0000
1000
0000
0000
0000
0000
0000
0000
0000
0000
0010
0000
0000
0000
0000
0000
0000
0000
0000
0000
0100
0000
0000
0000
0000
0000
0000
0000
0000
0001
0000
0000
0000
0000
0000
0000
0000
0000
0000
0000
0100
0000
0000
0000
0000
0000
0000
0000
0000
0000
0001
0000
0000
0000
0000
0000
0000
0000
1000
0000
0000
0000
0000
0000
0000
0000
0000
0000
0000
0001
0000
0000
0000
0000
0000
0000
0000
0000
0000
1000
0000
0000
0000
0000
0000
0000
0000
0000
0000
0001
0000
0000
0000
0000
0000
0000
0000
0000
0100
0000
0000
0000
0000
0000
0000
0000
0000
0000
0000
0001
0000
0000
0000
0000
0000
0000
0000
0000
0100
0000
0000
0000
0000
0000
0000
0000
0000
0000
0001
0000
0000
0000
0000
0000
0000
0000
0000
0000
1000
0000
0000
0000
0000
0000
0000
0000
0000
0000
0010
0000
0000
0000
0000
0000
0000
0000
0000
0000
1000
0000
0000
0000
0000
0000
0000
0000
0000
0010
0000
0000
0000
0000
0000
,
0000
0000
0000
0000
0100
0000
0000
0000
0000
0000
0000
0000
0000
0000
0010
0000
0000
0000
0000
0000
0000
0000
0000
0000
0100
0000
0000
0000
0000
0000
0000
0000
0000
0000
0001
0000
0000
0000
0000
0000
0000
0000
0000
0000
1000
0000
0000
0000
0000
0000
0000
0000
0000
0001
0000
0000
0000
0000
0000
0000
0000
0000
0000
1000
0000
0000
0000
0000
0000
0000
0000
0000
0000
0100
0000
0000
0000
0000
0000
0000
0000
0000
0000
0010
0000
0000
0000
0000
0000
0000
0000
0000
0000
0001
0000
0000
0000
0000
0000
0000
0000
0000
0010
0000
0000
0000
0000
0000
0000
0000
0000
0000
0001
0000
0000
0000
0000
0000
0000
0000
0000
0000
1000
0000
0000
0000
0000
0000
0000
0000
0000
0000
0001
0000
0000
0000
0000
0000
0000
0000
0000
0000
1000
0000
0000
0000
0000
0000
0000
0000
0000
0000
0001
0000
0000
0000
0000
0000
0000
0000
0000
0100
0000
0000
0000
0000
0000
0000
0000
0000
0000
0001
0000
0000
0000
0000
0000
0000
0000
0000
0000
0100
0000
0000
0000
0000
0000
0000
0000
0000
0000
0010
,
0000
0000
0000
0000
0000
0000
0000
0000
0000
1000
0000
0000
0000
0000
0000
0000
0000
0000
0010
0000
0000
0000
0000
0000
0000
0000
0000
0000
1000
0000
0000
0000
0000
0000
0000
0000
0000
0000
0010
0000
0000
0000
0000
0000
0000
0000
0000
0000
0100
0000
0000
0000
0000
0000
0000
0000
0000
0000
0010
0000
0000
0000
0000
0000
0000
0000
0000
0000
1000
0000
0000
0000
0000
0000
0000
0000
0000
0001
0000
0000
0000
0000
0000
0000
0000
0000
0000
1000
0000
0000
0000
0000
0000
0000
0000
0000
0000
0001
0000
0000
0000
0000
0000
0000
0000
0000
0000
0010
0000
0000
0000
0000
0000
0000
0000
0000
0000
0100
0000
0000
0000
0000
0000
0000
0000
0000
1000
0000
0000
0000
0000
0000
0000
0000
0000
0000
0001
0000
0000
0000
0000
0000
0000
0000
0000
0000
0100
0000
0000
0000
0000
0000
0000
0000
0000
0000
0001
0000
0000
0000
0000
0000
0000
0000
0000
0000
1000
0000
0000
0000
0000
0000
0000
0000
0000
0000
0001
0000
0000
0000
0000
0000
0000
0000
0000
1000
0000
0000
0000
0000
0000
0000
,
0000
0001
0000
0000
0000
0000
0000
0000
0000
0000
0000
0000
0000
0000
0000
0000
0000
0000
0000
0000
0000
0000
0000
0000
0000
0000
0000
0000
0000
0000
0000
0000
2002
0000
0000
0000
00M0
0000
0000
0000
0000
0000
0000
0000
0M00
0000
0000
0000
0000
0000
0000
0000
00M0
0000
0000
0000
0000
0000
0000
0000
3M03
0000
0000
0000
,
1001
0000
1000
0100
1000
0010
0100
0000
0001
0100
0010
0100
0001
1000
0100
0010
,
0001
0000
1000
0010
0100
0010
1000
0000
0001
0100
0001
0010
0100
1000
0001
1000
,
0001
0000
0000
0000
0000
0000
1001
0000
1000
0100
1000
0001
0100
0010
0100
0001
,
1000
0000
0100
1000
0001
0100
0001
0000
0010
0100
1000
0001
0100
0010
1000
0001
,
1000
0000
0001
0100
0010
0100
0001
0000
1000
0010
0100
0001
1000
0100
0010
0100
,
1000
0000
0001
1000
0100
1000
0001
0000
1000
0100
0010
0100
1000
0001
0100
0001
,
1000
0000
0000
0000
0000
0000
1001
0000
0001
0100
0010
0100
0001
1000
0100
0010
,
0001
0000
1000
0010
0100
0010
1000
0000
0001
1000
0010
0100
0010
1000
0001
0010
,
0100
0000
1000
0100
1000
0001
0100
0000
0001
0100
0010
0100
0001
1000
0100
0010
,
0001
0000
1000
0001
1000
0010
0100
0000
0010
0100
0001
1000
0100
1000
0001
0100
,
0010
0000
0100
0001
0010
0001
0100
0000
0001
1000
0100
1000
0001
0010
0100
1000
,
0010
0000
0000
0000
0000
0000
0100
0000
0000
0001
0000
0000
0100
0000
0000
0010
0000
0000
1000
0000
0000
0000
0000
0000
0010
0000
0000
1000
0000
0000
0010
0000
0000
0100
0000
0000
0001
0000
0100
0000
0001
0000
0100
0000
0000
0001
0000
0000
,
1000
0000
0100
1000
0001
1000
0100
0000
0010
0001
1000
0001
1000
0010
0100
0001
,
1000
0000
0100
0010
0100
1000
0001
0000
1000
0001
0010
0100
0010
0001
1000
0001
,
2000
0000
0000
0000
,
3200
0000
0310
0001
1000
0001
0200
0000
0310
1000
0001
1000
0002
0000
0000
0000
,
1003
0000
0100
0000
1000
0000
0000
0000
0000
0001
0000
0000
0010
0000
0001
0000
0010
0000
0000
0000
0000
0001
0000
0000
1000
0000
0010
0000
1000
0000
0000
0000
0000
0010
0000
0000
1000
0000
0001
0000
1000
0000
0001
0000
0000
1000
0000
0000
,
0001
0010
0M0M
0010
1000
0000
0001
0100
M00M
0100
1000
0000
0002
0000
2003
0000
,
3001
0100
M0M0
0100
1000
0000
0001
0010
0M0M
0010
1000
0000
0002
0000
0203
0000
,
0301
0010
0M0M
0010
1000
0000
0001
0100
M0M0
0100
1000
0000
0002
0000
0023
0000
,
0031
0000
0100
0000
M0M0
0000
0100
0000
1000
0000
0000
0000
0010
0000
1000
0000
0001
0000
0010
0M0M
0010
0000
1000
0000
0001
0000
0000
0000
1000
0000
0001
0000
,
1000
0100
M0M0
0100
0001
0000
1000
0100
M0M0
0100
0001
0000
2000
0000
3020
0000
,
1030
0100
M0M0
0100
0001
0000
1000
0010
0M0M
0010
0001
0000
0020
0000
0032
0000
,
1003
0000
0000
0000
0000
0000
0000
0000
0000
0000
0000
0000
0010
0000
0000
0000
0000
0000
0000
0000
0000
0000
0000
0000
0M0M
0000
0000
0000
0000
0000
0000
0000
0000
0000
0000
0000
0010
0000
0000
0000
0000
0000
0000
0000
0000
0000
0000
0000
0001
0000
0000
0000
0000
0000
0000
0000
0000
0000
0000
0000
0000
0000
0000
0000
0000
0000
0000
0000
0000
0000
0000
0000
1000
0000
0000
0000
0000
0000
0000
0000
0000
0000
0000
0000
0001
0000
0000
0000
0000
0000
0000
0000
0000
0000
0000
0000
1000
0000
0000
0000
0000
0000
0000
0000
0000
0000
0000
0000
0010
0000
0000
0000
0000
0000
0M0M
0000
0000
0000
0000
0000
0010
0000
0000
0000
0000
0000
0000
0000
0000
0000
0000
0000
0001
0000
0000
0000
0000
0000
0000
0000
0000
0000
0000
0000
1000
0000
0000
0000
0000
0000
0000
0000
0000
0000
0000
0000
0000
0000
0000
0000
0000
0000
0000
0000
0000
0000
0000
0000
0001
0000
0000
0000
0000
0000
0000
0000
1000
0000
0000
0000
0000
0000
0000
0000
0001
0000
0000
0000
0000
0000
0000
0000
,
1000
0000
0000
0000
,
0001
0010
0100
0000
0100
1000
0000
1000
0001
0000
0001
0100
0000
0100
0010
0000
,
1000
0100
0010
0000
0010
0001
0000
0001
1000
0000
1000
0010
0000
0010
0100
0000
,
0001
1000
0100
0000
0100
0010
0000
0010
0001
0000
0001
1000
0000
1000
0010
0000
,
0100
0001
0010
0000
0010
0100
0000
0100
1000
0000
1000
0001
0000
0001
0100
0010
,
2000
3020
0230
0302
,
0023
0230
2300
3002
,
0203
0320
2030
3002
,
2003
0000
0000
0000
0000
0000
0000
0000
0000
0000
0000
0000
3000
0000
0000
0000
0000
0000
0001
1000
0001
1000
0001
1000
,
0001
1000
0100
0000
0100
0010
0000
0010
0001
0000
0001
1000
0000
1000
0010
0000
,
0100
0001
0010
0000
0010
0100
0000
0100
1000
0000
1000
0001
0000
0001
0100
0000
,
0010
1000
0100
0000
0100
0010
0000
0010
0001
0000
0001
1000
0000
1000
0010
0000
,
0100
0001
0010
0000
0010
0100
0000
0100
0010
0000
0010
0001
0000
0001
0100
0000
,
0010
1000
0100
0000
0100
0010
0000
0010
0001
0000
0001
0100
0000
0100
0010
0000
,
1000
0100
0010
0000
0010
0001
0000
0001
0100
0000
0100
0010
0000
0010
1000
0000
,
0001
0010
0100
0000
0100
1000
0000
1000
0001
0000
0001
0100
0000
0100
0010
0000
,
0010
0000
0000
1000
0000
0000
0001
0000
0000
0000
0000
0000
0001
0000
0000
0010
0000
0000
0000
0000
0000
0010
0000
0000
0001
0000
0000
0000
0000
0000
0001
0000
0000
1000
0000
0000
0010
0000
1000
0000
0010
0000
1000
0000
0000
0010
0000
0000
,
1000
0001
0010
0001
1000
0010
0100
0010
1000
0001
0010
0100
1000
0001
1000
0001
,
1000
0100
0010
0100
0010
0001
1000
0001
0100
0010
0100
0001
1000
0010
1000
0001
,
0100
0010
0100
0001
1000
0100
0010
0100
1000
0001
0010
0001
1000
0010
0100
0001
,
0100
0001
1000
0010
1000
0100
0010
0001
1000
0001
0010
0001
0100
0010
1000
0001
,
1000
0000
0000
0000
0000
0000
0000
0000
0000
0000
0010
0000
0000
0000
0000
0000
0000
0000
0000
0000
1000
0000
0000
0000
0000
0000
0000
0000
0000
0010
0000
0000
0000
0000
0000
0000
0000
0000
0000
0100
0000
0000
0000
0000
0000
0000
0000
0000
0001
0000
0000
0000
0000
0000
0000
0000
0000
0000
0000
0100
0000
0000
0000
0000
0000
0000
0000
0000
0000
0001
0000
0000
0000
0000
0000
0000
0000
1000
0000
0000
0000
0000
0000
0000
0000
0000
0000
0000
0001
0000
0000
0000
0000
0000
0000
0000
0000
0000
1000
0000
0000
0000
0000
0000
0000
0000
0000
0000
0001
0000
0000
0000
0000
0000
0000
0000
0000
0010
0000
0000
0000
0000
0000
0000
0000
0000
0000
0000
0001
0000
0000
0000
0000
0000
0000
0000
0000
0010
0000
0000
0000
0000
0000
0000
0000
0000
0000
0100
0000
0000
0000
0000
0000
0000
0000
0000
0000
1000
0000
0000
0000
0000
0000
0000
0000
0000
0000
0100
0000
0000
0000
0000
0000
0000
0000
0000
0000
1000
0000
0000
0000
0000
0000
0000
0000
0000
0001
0000
0000
0000
0000
0000
,
0000
0000
0000
0000
0100
0000
0000
0000
0000
0000
0000
0000
0000
0000
0001
0000
0000
0000
0000
0000
0000
0000
0000
0000
0100
0000
0000
0000
0000
0000
0000
0000
0000
0000
0010
0000
0000
0000
0000
0000
0000
0000
0000
0000
1000
0000
0000
0000
0000
0000
0000
0000
0000
0010
0000
0000
0000
0000
0000
0000
0000
0000
0000
1000
0000
0000
0000
0000
0000
0000
0000
0000
0000
0001
0000
0000
0000
0000
0000
0000
0000
0000
0000
0100
0000
0000
0000
0000
0000
0000
0000
0000
0000
0010
0000
0000
0000
0000
0000
0000
0000
0000
1000
0000
0000
0000
0000
0000
0000
0000
0000
0000
0001
0000
0000
0000
0000
0000
0000
0000
0000
0000
1000
0000
0000
0000
0000
0000
0000
0000
0000
0000
0001
0000
0000
0000
0000
0000
0000
0000
0000
0000
1000
0000
0000
0000
0000
0000
0000
0000
0000
0000
0001
0000
0000
0000
0000
0000
0000
0000
0000
0100
0000
0000
0000
0000
0000
0000
0000
0000
0000
0001
0000
0000
0000
0000
0000
0000
0000
0000
0000
0100
0000
0000
0000
0000
0000
0000
0000
0000
0000
0010
,
0000
0000
0000
0000
0000
0000
0000
0000
0000
1000
0000
0000
0000
0000
0000
0000
0000
0000
0010
0000
0000
0000
0000
0000
0000
0000
0000
0000
1000
0000
0000
0000
0000
0000
0000
0000
0000
0000
0001
0000
0000
0000
0000
0000
0000
0000
0000
0000
1000
0000
0000
0000
0000
0000
0000
0000
0000
0000
0100
0000
0000
0000
0000
0000
0000
0000
0000
0000
0010
0000
0000
0000
0000
0000
0000
0000
0000
0001
0000
0000
0000
0000
0000
0000
0000
0000
0000
1000
0000
0000
0000
0000
0000
0000
0000
0000
0000
0001
0000
0000
0000
0000
0000
0000
0000
0000
0000
0100
0000
0000
0000
0000
0000
0000
0000
0000
0000
0010
0000
0000
0000
0000
0000
0000
0000
0000
1000
0000
0000
0000
0000
0000
0000
0000
0000
0000
0010
0000
0000
0000
0000
0000
0000
0000
0000
0000
1000
0000
0000
0000
0000
0000
0000
0000
0000
0000
0001
0000
0000
0000
0000
0000
0000
0000
0000
0000
1000
0000
0000
0000
0000
0000
0000
0000
0000
0000
0001
0000
0000
0000
0000
0000
0000
0000
0000
1000
0000
0000
0000
0000
0000
0000
,
0000
0001
0000
0000
0000
0000
0000
0000
0000
0000
0000
0000
0000
0000
0000
0000
0000
0000
0000
0000
0000
0000
0000
0000
0000
0000
0000
0000
0000
0000
0000
0000
2002
0000
0000
0000
00M0
0000
0000
0000
0000
0000
0000
0000
0M00
0000
0000
0000
0000
0000
0000
0000
00M0
0000
0000
0000
0000
0000
0000
0000
3M03
0000
0000
0000
,
1002
0000
0000
0000
0000
0000
0000
0000
0000
0000
0000
0000
0000
0000
0000
0003
,
2000
0000
3200
0000
0320
0000
0230
0000
2300
0000
3001
1000
0001
0100
0010
1000
,
0002
0000
0000
0000
0000
0000
0000
0000
0000
0000
0000
0000
0000
0003
0000
0000
;
