#TITLE:Pretty Rave Girl;
#SUBTITLE:;
#ARTIST:Basshunter;
#TITLETRANSLIT:;
#SUBTITLETRANSLIT:;
#ARTISTTRANSLIT:;
#CREDIT:Asphyx;
#BANNER:;
#BACKGROUND:normal_normal_colours.jpg;
#LYRICSPATH:;
#CDTITLE:;
#MUSIC:I Am X-Ray - Pretty Rave Girl.ogg;
#OFFSET:-0.027;
#SAMPLESTART:34.313;
#SAMPLELENGTH:12.000;
#SELECTABLE:YES;
#BPMS:0.000=175.000,1.000=175.000,2.000=175.000,3.000=175.000,4.000=175.000,5.000=175.000,6.000=175.000,7.000=175.000,8.000=175.000,9.000=175.000,10.000=175.000,11.000=175.000,12.000=175.000,13.000=175.000,14.000=175.000,15.000=175.000,16.000=175.000,17.000=175.000,18.000=175.000,19.000=175.000,20.000=175.000,21.000=175.000,22.000=175.000,23.000=175.000,24.000=175.000,25.000=175.000,26.000=175.000,27.000=175.000,28.000=175.000,29.000=175.000,30.000=175.000,31.000=175.000,32.000=175.000,33.000=175.000,34.000=175.000,35.000=175.000,36.000=175.000,37.000=175.000,38.000=175.000,39.000=175.000,40.000=175.000,41.000=175.000,42.000=175.000,43.000=175.000,44.000=175.000,45.000=175.000,46.000=175.000,47.000=175.000,48.000=175.000,49.000=175.000,50.000=175.000,51.000=175.000,52.000=175.000,53.000=175.000,54.000=175.000,55.000=175.000,56.000=175.000,57.000=175.000,58.000=175.000,59.000=175.000,60.000=175.000,61.000=175.000,62.000=175.000,63.000=175.000,64.000=175.000,65.000=175.000,66.000=175.000,67.000=175.000,68.000=175.000,69.000=175.000,70.000=175.000,71.000=175.000,72.000=175.000,73.000=175.000,74.000=175.000,75.000=175.000,76.000=175.000,77.000=175.000,78.000=175.000,79.000=175.000,80.000=175.000,81.000=175.000,82.000=175.000,83.000=175.000,84.000=175.000,85.000=175.000,86.000=175.000,87.000=175.000,88.000=175.000,89.000=175.000,90.000=175.000,91.000=175.000,92.000=175.000,93.000=175.000,94.000=175.000,95.000=175.000,96.000=175.000,97.000=175.000,98.000=175.000,99.000=175.000,100.000=175.000,101.000=175.000,102.000=175.000,103.000=175.000,104.000=175.000,105.000=175.000,106.000=175.000,107.000=175.000,108.000=175.000,109.000=175.000,110.000=175.000,111.000=175.000,112.000=175.000,113.000=175.000,114.000=175.000,115.000=175.000,116.000=175.000,117.000=175.000,118.000=175.000,119.000=175.000,120.000=175.000,121.000=175.000,122.000=175.000,123.000=175.000,124.000=175.000,125.000=175.000,126.000=175.000,127.000=175.000,128.000=175.000,129.000=175.000,130.000=175.000,131.000=175.000,132.000=175.000,133.000=175.000,134.000=175.000,135.000=175.000,136.000=175.000,137.000=175.000,138.000=175.000,139.000=175.000,140.000=175.000,141.000=175.000,142.000=175.000,143.000=175.000,144.000=175.000,145.000=175.000,146.000=175.000,147.000=175.000,148.000=175.000,149.000=175.000,150.000=175.000,151.000=175.000,152.000=175.000,153.000=175.000,154.000=175.000,155.000=175.000,156.000=175.000,157.000=175.000,158.000=175.000,159.000=175.000,160.000=175.000,161.000=175.000,162.000=175.000,163.000=175.000,164.000=175.000,165.000=175.000,166.000=175.000,167.000=175.000,168.000=175.000,169.000=175.000,170.000=175.000,171.000=175.000,172.000=175.000,173.000=175.000,174.000=175.000,175.000=175.000,176.000=175.000,177.000=175.000,178.000=175.000,179.000=175.000,180.000=175.000,181.000=175.000,182.000=175.000,183.000=175.000,184.000=175.000,185.000=175.000,186.000=175.000,187.000=175.000,188.000=175.000,189.000=175.000,190.000=175.000,191.000=175.000,192.000=175.000,193.000=175.000,194.000=175.000,195.000=175.000,196.000=175.000,197.000=175.000,198.000=175.000,199.000=175.000,200.000=175.000,201.000=175.000,202.000=175.000,203.000=175.000,204.000=175.000,205.000=175.000,206.000=175.000,207.000=175.000,208.000=175.000,209.000=175.000,210.000=175.000,211.000=175.000,212.000=175.000,213.000=175.000,214.000=175.000,215.000=175.000,216.000=175.000,217.000=175.000,218.000=175.000,219.000=175.000,220.000=175.000,221.000=175.000,222.000=175.000,223.000=175.000,224.000=175.000,225.000=175.000,226.000=175.000,227.000=175.000,228.000=175.000,229.000=175.000,230.000=175.000,231.000=175.000,232.000=175.000,233.000=175.000,234.000=175.000,235.000=175.000,236.000=175.000,237.000=175.000,238.000=175.000,239.000=175.000,240.000=175.000,241.000=175.000,242.000=175.000,243.000=175.000,244.000=175.000,245.000=175.000,246.000=175.000,247.000=175.000,248.000=175.000,249.000=175.000,250.000=175.000,251.000=175.000,252.000=175.000,253.000=175.000,254.000=175.000,255.000=175.000,256.000=175.000,257.000=175.000,258.000=175.000,259.000=175.000,260.000=175.000,261.000=175.000,262.000=175.000,263.000=175.000,264.000=175.000,265.000=175.000,266.000=175.000,267.000=175.000,268.000=175.000,269.000=175.000,270.000=175.000,271.000=175.000,272.000=175.000,273.000=175.000,274.000=175.000,275.000=175.000,276.000=175.000,277.000=174.988,278.000=175.000,279.000=175.000,280.000=175.000,281.000=175.000,282.000=175.000,283.000=175.000,284.000=175.000,285.000=175.000,286.000=175.000,287.000=175.000,288.000=175.000,289.000=175.000,290.000=175.000,291.000=175.000,292.000=175.000,293.000=175.000,294.000=175.000,295.000=175.000,296.000=175.000,297.000=175.000,298.000=175.000,299.000=175.000,300.000=175.000,301.000=175.000,302.000=175.000,303.000=175.000,304.000=175.000,305.000=175.000,306.000=175.000,307.000=175.000,308.000=175.000,309.000=175.000,310.000=175.000,311.000=175.000,312.000=175.000,313.000=175.000,314.000=175.000,315.000=175.000,316.000=175.000,317.000=175.000,318.000=175.000,319.000=175.000,320.000=175.000,321.000=175.000,322.000=175.000,323.000=175.000,324.000=175.000,325.000=175.000,326.000=175.000,327.000=175.000,328.000=175.000,329.000=175.000,330.000=175.000,331.000=175.000,332.000=175.000,333.000=175.000,334.000=175.000,335.000=175.000,336.000=175.000,337.000=175.000,338.000=175.000,339.000=175.000,340.000=175.000,341.000=175.000,342.000=175.000,343.000=175.000,344.000=175.000,345.000=175.000,346.000=175.000,347.000=175.000,348.000=175.000,349.000=175.000,350.000=175.000,351.000=175.000,352.000=175.000,353.000=175.000,354.000=175.000,355.000=175.000,356.000=175.000,357.000=175.000,358.000=175.000,359.000=175.000,360.000=175.000,361.000=175.000,362.000=175.000,363.000=175.000,364.000=175.000,365.000=175.000,366.000=175.000,367.000=175.000,368.000=175.000,369.000=175.000,370.000=175.000,371.000=175.000,372.000=175.000,373.000=175.000,374.000=175.000,375.000=175.000,376.000=175.000,377.000=175.000,378.000=175.000,379.000=175.000,380.000=175.000,381.000=175.000,382.000=175.000,383.000=175.000,384.000=175.000,385.000=175.000,386.000=175.000,387.000=175.000,388.000=175.000,389.000=175.000,390.000=175.000,391.000=175.000,392.000=175.000,393.000=175.000,394.000=175.000,395.000=175.000,396.000=175.000,397.000=175.000,398.000=175.000,399.000=175.000,400.000=175.000,401.000=175.000,402.000=175.000,403.000=175.000,404.000=175.000,405.000=175.000,406.000=175.000,407.000=175.000,408.000=175.000,409.000=175.000,410.000=175.000,411.000=175.000,412.000=175.000,413.000=175.000,414.000=175.000,415.000=175.000,416.000=175.000,417.000=175.000,418.000=175.000,419.000=175.000,420.000=175.000,421.000=175.000,422.000=175.000,423.000=175.000,424.000=175.000,425.000=175.000,426.000=175.000,427.000=175.000,428.000=175.000,429.000=175.000,430.000=175.000,431.000=175.000,432.000=175.000,433.000=175.000,434.000=175.000,435.000=175.000,436.000=175.000,437.000=175.000,438.000=175.000,439.000=175.000,440.000=175.000,441.000=175.000,442.000=175.000,443.000=175.000,444.000=175.000,445.000=175.000,446.000=175.000,447.000=175.000,448.000=175.000,449.000=175.000,450.000=175.000,451.000=175.000,452.000=175.000,453.000=175.000,454.000=175.000,455.000=175.000,456.000=175.000,457.000=175.000,458.000=175.000,459.000=175.000,460.000=175.000,461.000=175.000,462.000=175.000,463.000=175.000,464.000=175.000,465.000=175.000,466.000=175.000,467.000=175.000,468.000=175.000,469.000=175.000,470.000=175.000,471.000=175.000,472.000=175.000,473.000=175.000,474.000=175.000,475.000=175.000,476.000=175.000,477.000=175.000,478.000=175.000,479.000=175.000,480.000=175.000,481.000=175.000,482.000=175.000,483.000=175.000,484.000=175.000,485.000=175.000,486.000=175.000,487.000=175.000,488.000=175.000,489.000=175.000,490.000=175.000,491.000=175.000,492.000=175.000,493.000=175.000,494.000=175.000,495.000=175.000,496.000=175.000,497.000=175.000,498.000=175.000,499.000=175.000,500.000=175.000,501.000=175.000,502.000=175.000;
#STOPS:;
#BGCHANGES:;
// cache tags:
#FIRSTBEAT:0.000;
#LASTBEAT:487.000;
#SONGFILENAME:Songs/new cedric/pretty rave girl/Pretty Rave Girl.sm;
#HASMUSIC:1;
#HASBANNER:0;
#MUSICLENGTH:105.000;
// end cache tags

//---------------dance-single - ----------------
#NOTES:
     dance-single:
     :
     Challenge:
     10:
     1.000,1.000,0.667,0.790,0.210,665.000,70.000,83.000,50.000,10.000:
2000
0000
3002
0000
0003
1000
0100
0010
,
0001
0000
0000
1000
0000
0000
0100
0000
1000
0000
0000
0001
0000
0000
0010
0000
,
0100
0000
0000
1000
0000
0000
0001
0000
0000
0000
0001
0000
0100
0000
0010
0000
,
1000
0000
0000
0100
0000
0000
1000
0000
0100
0000
0000
0010
0000
0000
0001
0000
,
0010
0001
1000
0001
0000
1000
0100
1000
,
0001
0000
0000
0100
0000
0000
0001
0000
0010
0000
0000
0001
0000
0000
1000
0000
,
0100
0000
0000
1000
0000
0000
0001
0000
2002
0000
0000
0000
0000
0000
0000
0000
,
0000
0000
0000
0000
0000
0000
0000
0000
0000
0000
0000
3003
0000
0000
0000
0000
,
2000
3002
0023
2030
,
3001
0000
0010
0000
0001
0000
0010
0000
0001
0000
0000
0100
0000
0000
1000
0000
,
0100
0000
0010
0000
0001
0000
0010
0000
0100
0000
0000
1000
0000
0000
1000
0000
,
0001
0000
0100
0000
0010
0000
0100
0000
0001
0000
0000
1000
0000
0000
0010
0000
,
0100
0010
0001
0010
0200
0000
2300
0000
,
3001
1000
0001
0000
0100
0000
0010
0000
0001
0000
0000
1000
0000
0000
0100
0000
,
0010
0000
0001
0000
0010
0000
0100
0000
1000
0000
0000
0001
0000
0000
0100
0000
,
1000
0000
0100
0000
1000
0000
0001
0000
0010
0000
0000
0001
0000
0000
0000
0000
,
1010
0101
2000
3200
,
0310
0000
0001
0000
0100
0000
0001
0000
0100
0000
0000
1000
0000
0000
0010
0000
,
0100
0000
1000
0000
0100
0000
0010
0000
0001
0000
0000
0100
0000
0000
1000
0000
,
0100
0000
0001
0000
0100
0000
1000
0000
0100
0000
0000
0001
0000
0000
0100
0000
,
0010
0100
0010
0001
0020
0000
2030
0000
,
3100
0001
0100
0000
1000
0000
0100
0000
0010
0000
0000
0001
0000
0000
0100
0000
,
1000
0000
0010
0000
0001
0000
0010
0000
0100
0000
0000
2000
0000
0000
0000
0000
,
0010
0000
0000
0000
0001
0000
0000
3000
0010
0000
1000
0000
0001
0100
0001
0000
,
1000
0100
1000
0000
0100
0000
0100
0000
1001
0000
0000
0000
1100
0000
0000
0000
,
1000
0000
0100
0000
0010
0000
0100
0000
1000
0000
0000
0001
0000
0000
0100
0000
,
0010
0000
0001
0000
0010
0000
0001
0000
0100
0000
0000
1000
0000
0000
1000
0000
,
0100
0000
0010
0000
0001
0000
0010
0000
1000
0000
0000
0100
0000
0000
0010
0000
,
0001
0010
0100
1000
0200
0000
0302
0000
,
1003
0100
1000
0000
0100
0000
0010
0000
0001
0000
0000
1000
0000
0000
0100
0000
,
0010
0000
0001
0000
0010
0000
0100
0000
1000
0000
0000
0001
0000
0000
0100
0000
,
1000
0000
0100
0000
1000
0000
0010
0000
0001
0000
0000
0010
0000
0000
0000
0000
,
1010
0000
0101
0000
1000
0100
0010
0100
,
1000
0100
0010
0001
0010
0001
0010
0100
,
0010
0100
0010
1000
0010
1000
0100
0010
,
0001
0010
0100
0010
0001
1000
0001
1000
,
0001
0100
0010
0001
0010
0100
0010
1000
,
0200
2300
3200
0320
0031
1000
0100
0020
,
2030
3200
0320
0030
1001
0000
0010
0000
,
1001
0100
1001
0010
,
0001
0100
0001
0000
1000
0100
1000
0000
2200
0000
0000
0000
0000
0000
0000
0000
,
0000
0000
0001
0000
,
0000
0000
0000
0010
0001
0000
0000
0000
,
0000
0000
0011
0000
,
0000
0000
0010
0000
,
0000
0000
0001
0000
,
0000
0000
0000
0001
0010
0000
0000
0000
,
0000
0000
0011
3300
,
0000
0000
2000
3002
,
2003
3002
2003
3002
,
0023
0032
0023
0032
,
0023
0000
0032
0000
2003
0000
3100
0010
,
0001
0010
0001
0100
2000
0000
3002
0000
,
2003
3002
2003
3002
,
2003
3200
2300
3200
,
2300
0000
3200
0000
0320
0000
0031
0100
,
0010
0100
1000
0100
1001
0000
0100
0000
,
1010
0100
0011
0100
,
0100
0010
0001
0010
1001
0000
0100
0000
,
1010
0100
0011
0100
,
0010
0001
0010
0100
1001
0000
0100
0000
,
1010
0100
0011
0100
,
1000
0100
0010
0001
1001
0000
0100
0000
,
1010
0000
0000
0000
0100
0000
0000
0000
0001
1000
0001
0000
1000
0001
1000
0000
,
0100
0010
0001
0100
2000
0000
3200
0000
,
0310
0000
0001
0000
0010
0000
0100
0000
1000
0000
0000
0100
0000
0000
0000
0000
,
1000
0000
0100
0000
1000
0000
0100
0000
0010
0000
0000
0001
0000
0000
0010
0000
,
0001
0000
0010
0000
0001
0000
0010
0000
0001
0000
0000
1000
0000
0000
0000
0000
,
0100
0000
0010
0000
0100
0000
1000
0000
0100
0000
0000
0001
0000
0000
0000
0000
,
0100
0000
1000
0000
0100
0000
0001
0000
0100
0000
0000
1000
0000
0000
0100
0000
,
0010
0000
0001
0000
0010
0000
0100
0000
M010
0000
M000
0001
M000
0000
0000
0000
,
MM00
MM00
MM00
0000
MMM0
MMM0
MMM0
0000
,
MMMM
MMMM
MMMM
0000
M000
M000
MM00
MM00
,
MMM0
MMM0
MMMM
MMMM
0100
1000
0100
1000
,
0100
0001
0100
0001
0100
1000
0100
1000
,
0010
1000
0010
0001
0010
0001
0010
1000
,
0100
0010
0001
0001
0010
0100
1000
0001
,
1000
0001
1000
0000
1000
1000
0100
0100
,
1000
1000
0001
0001
0010
0010
0100
0100
,
0010
0010
0001
0001
1000
0100
0010
0001
,
1000
0100
0010
0001
0010
0010
0100
0100
,
1000
1000
0001
0000
1001
0000
0100
0000
,
1010
0100
0011
0100
,
1000
0100
0001
0000
1001
0000
0100
0000
,
1010
0100
0011
0100
,
0001
0100
1000
0000
2002
3003
0100
0000
,
2020
3030
0100
0000
0022
0033
0100
0000
,
0010
0001
0010
0000
2000
0000
3200
0000
,
0302
0023
2030
3200
,
0302
0000
0023
0000
1030
0100
1000
0001
,
1000
0100
1000
0001
0010
0001
0100
0001
,
0010
0001
1000
0100
0010
0100
1000
0100
,
0010
0001
0010
0001
0010
0100
0010
0100
,
0001
0100
0001
1000
0100
0001
0100
1000
,
0001
0100
1000
0100
0001
1000
0100
0001
,
0100
1000
0001
0100
1000
0100
0001
1000
,
0100
0001
0100
1000
1010
0000
0110
0000
,
0101
0000
0110
0000
1000
0100
1000
0100
,
0100
0001
0100
0000
1000
0000
0000
0000
0100
0000
1000
0000
0100
0000
0010
0000
,
0001
0100
0001
0000
0100
0000
0000
0000
1000
0000
0100
0000
1000
0000
0001
0000
,
0010
0100
0010
0000
0001
0000
0000
0000
1000
0000
0010
0000
1000
0000
0001
0000
,
0100
1000
0100
0000
0001
0000
0000
0000
1001
0000
0000
0000
1001
0000
0000
0000
,
0000
0000
1001
1001
,
0000
0000
1001
1001
,
0000
0000
1001
1001
,
0110
1001
2000
3200
,
0302
0023
2030
3200
,
0302
0023
0032
0203
,
2300
3020
0032
0023
,
1130
1100
1001
0100
,
1010
0100
0011
0100
,
1001
1001
1001
0100
,
1010
0100
0011
0100
,
1000
0100
0010
0001
1001
0000
0100
0000
,
1010
0100
0011
0100
,
1000
0100
0001
0000
1001
0000
0100
0000
,
1010
0100
0011
0100
,
0001
0100
1000
0000
1001
0000
0100
0000
,
1010
0100
0011
0100
,
1000
0001
0100
0001
1001
0000
0100
0000
,
1010
0100
0011
0100
,
1000
0001
1000
0001
1000
0000
0101
0000
,
0000
0000
0000
0000
,
0000
0000
0000
0000
,
0000
0000
0000
0000
,
0000
0000
0000
0000
;
