#TITLE:Wisdom;
#SUBTITLE:;
#ARTIST:Onoken;
#TITLETRANSLIT:;
#SUBTITLETRANSLIT:;
#ARTISTTRANSLIT:;
#CREDIT:;
#BANNER:wisdom.png;
#BACKGROUND:wisdom-bg.png;
#LYRICSPATH:;
#CDTITLE:!mwerpTitle.png;
#MUSIC:wisdom.mp3;
#OFFSET:-0.080;
#SAMPLESTART:35.102;
#SAMPLELENGTH:12.000;
#SELECTABLE:YES;
#BPMS:0.000=170.000,192.000=85.000,212.000=170.000;
#STOPS:192.000=1.000
;
#BGCHANGES:;
// cache tags:
#FIRSTBEAT:8.750;
#LASTBEAT:276.000;
#SONGFILENAME:Songs/Ace Megapack/Wisdom/wisdom.sm;
#HASMUSIC:1;
#HASBANNER:1;
#MUSICLENGTH:113.977;
// end cache tags

//---------------dance-single - SMANIAC----------------
#NOTES:
     dance-single:
     SMANIAC:
     Challenge:
     11:
     1.000,1.000,1.000,0.149,0.842,621.000,177.000,17.000,0.000,5.000:

0000
0000
0000
0000
,
0000
0000
0000
0000
,
0000
0000
0000
0001
0100
0001
0000
0000
0000
0000
0000
0000
0000
0000
1000
0100
,
1001
1000
1000
0000
1000
0000
0000
0000
,
1000
0100
1000
0100
0000
0000
0000
0000
0000
0000
0001
0100
1010
0000
1000
0010
,
0101
0000
0000
0000
0000
0000
0000
0000
0000
0000
0000
0000
1000
0100
1000
0100
,
0000
0000
0000
0000
0000
0000
0000
0000
1000
0100
0000
0011
0000
0011
0100
0000
,
0100
0001
1000
0000
1010
0100
0001
0000
0100
0010
0001
1000
0010
0100
0001
1000
,
0100
1000
0001
0000
0000
0000
0000
0000
0000
0000
0000
0000
0000
0000
0000
0000
,
1010
0100
0001
0000
1100
0010
0001
0000
1010
0100
0001
1000
0100
0010
0001
1000
,
0010
0100
0001
1000
0100
0010
0001
1000
0010
0100
0001
1000
0100
0010
0001
0100
,
2002
0000
0000
0000
,
0000
0000
0000
3003
,
1001
0000
0000
0000
0200
0000
0000
0300
1001
0000
0000
0000
0020
0000
0000
0030
,
1001
0000
0000
1000
0100
0000
0010
0000
1001
0000
1000
0000
0100
0000
0010
0000
,
1001
0100
0010
0001
0100
0010
0101
0001
,
1000
0100
0010
0001
0010
0100
1000
0010
,
0100
0001
1000
0001
0100
0001
0011
0001
,
1000
0000
0100
0000
0010
0000
0100
0000
1000
0000
0001
0000
0010
0100
1000
0010
,
1000
0010
0100
0001
0100
1000
0101
0001
,
0010
0100
1000
0100
0010
0001
0010
0100
,
0010
0001
0010
0100
0010
0001
0101
0010
,
0100
0001
1100
0100
0010
0001
1001
0100
,
1001
1000
0100
0010
0000
0010
0100
1000
,
0000
0000
1000
0001
0000
0000
0100
0000
0000
0001
0000
0000
0010
0000
0100
0010
0000
0000
0001
0000
0000
0100
0000
0000
,
0000
0000
1010
0000
0101
0000
0000
0000
1010
0000
0000
1001
0000
0000
0110
0000
,
0000
0000
0011
0000
0101
0000
0000
0000
0011
0000
0000
1100
0000
0000
1010
0000
,
1001
0000
0000
1010
0000
0000
0011
0000
0100
0010
0000
0000
1010
0000
0000
0011
0000
0100
0010
0000
1000
0100
0000
0000
,
0000
0000
0000
1001
0000
0000
1100
0000
0000
0110
0000
0000
0101
0000
0000
0011
0000
0100
0010
0000
0000
1001
0000
0000
,
0000
0000
1100
0000
0011
0000
0000
0000
1100
0000
0000
1010
0000
0000
0101
0000
,
0000
0000
0011
0000
0101
0000
0000
0000
1010
0000
0000
1001
0000
0000
1100
0000
,
0110
0000
0000
0010
0000
0100
0011
0000
0000
0001
0000
0010
1100
0000
0000
0100
0000
1000
0001
0000
0100
0001
0000
1000
,
0100
0000
1000
0010
0000
1000
0110
0000
1000
0001
0000
1000
0110
0000
0000
1000
0000
0100
0011
0000
0000
0100
0000
0010
,
1001
0000
0000
0001
0000
0100
0011
0000
0000
1000
0000
0100
0011
0000
0000
0010
0000
0100
1000
0000
0010
1000
0000
0100
,
0010
0000
0001
0010
0000
0100
1001
0000
1000
0001
0000
0100
1001
0000
0000
0010
0000
0001
1100
0000
0000
0000
0000
0000
,
0110
0000
0000
0010
0000
0100
0011
0000
0000
0001
0000
0010
1100
0000
0000
0100
0000
1000
0001
0000
0100
0001
0000
1000
,
0100
0000
1000
0010
0000
1000
0110
0000
1000
0001
0000
1000
0110
0000
0000
1000
0000
0100
0011
0000
0000
0100
0000
0010
,
1001
0000
0000
0001
0000
0100
0011
0000
0000
1000
0000
0100
0010
0000
0001
0110
0000
0000
1000
0000
0010
1000
0000
0100
,
0010
0000
0000
0000
0000
0000
0000
0000
0001
0000
0000
0000
0010
0000
0000
0000
0000
0000
0000
0000
0100
0000
0000
0000
1001
0000
0000
0000
0000
0000
0000
0000
0010
0000
0000
0000
1001
0000
0000
0000
0000
0000
1001
0000
0000
0000
0000
0000
0000
0000
0000
0000
0000
0000
1001
0000
0000
0000
0000
0000
0010
0000
0000
0000
0000
0000
0000
0000
0001
0000
0000
0000
0010
0000
0000
0000
0000
0000
0000
0000
0100
0000
0000
0000
1000
0000
0000
0000
0000
0000
0000
0000
0100
0000
0000
0000
,
1001
0010
1000
1001
0010
1000
1001
0010
,
0101
0010
0100
0101
0010
0100
0101
0010
,
1100
0001
0010
1100
0001
0010
1100
0001
,
0110
1000
0100
0110
1000
0100
0110
1000
,
0011
0100
0010
0011
0100
0010
0011
0100
,
1010
0001
0010
1010
0001
0010
1010
0001
,
0110
0001
0100
0110
0001
0100
0110
0001
,
1100
0010
0001
1100
0010
0001
1100
0010
,
1001
0000
0000
0000
0001
0010
0100
1000
0010
0100
0001
1000
0010
1000
0100
0010
,
1001
0000
0000
0000
0000
0000
0000
0000
0020
0000
0000
0000
0000
0000
0000
0030
,
1001
0000
0010
0000
0110
0000
1000
0000
0010
0000
0110
0000
0002
0000
0100
0000
1003
0000
0100
0000
0011
0000
1000
0010
0100
0001
0011
0100
0001
0000
0100
0000
,
1001
0000
0010
0000
0110
0000
0001
0010
0100
1000
0110
1000
0002
0000
0100
0000
1003
0000
0100
0000
0011
0000
1000
0000
0100
0000
0011
0000
0001
0000
0100
0000
,
1001
0000
0010
0000
0110
0000
1000
0000
0010
0000
0110
0000
0002
0000
0100
0000
1003
0000
0100
0000
0011
0000
1000
0010
0100
0001
0011
0100
0001
0000
0100
0000
,
1001
0000
0010
0000
0110
0000
0001
0010
0100
1000
0110
1000
0002
0000
0100
0000
1003
0000
0100
0000
0011
0000
1000
0000
0100
0000
0011
0000
0001
0000
0100
0000
,
1001
0000
0000
0000
0011
0000
1000
0100
2011
3000
0101
0000
0000
0000
0000
0000
,
0000
0000
0000
0000
1010
0000
0001
0100
1012
0003
1100
0000
0000
0000
0000
0000
,
0000
0000
0000
0000
0101
0000
0100
0010
2101
3000
1100
0000
0000
0000
0000
0000
,
0000
0000
0000
0000
1010
0000
0010
0100
1012
0003
0011
0000
0000
0000
0000
0000
,
0000
0000
0000
0000
0110
0000
0001
1000
0112
0003
0000
0000
0000
0000
0000
0000
,
0101
0000
1000
0001
1100
0000
0011
0000
2000
3000
0011
0000
0110
0000
0000
0000
,
0110
0000
1100
0000
0000
0000
0000
0000
0002
0003
0000
0000
0110
0000
0000
0000
,
0011
0000
1100
0000
0011
0000
0000
0000
2000
3000
0011
0000
0000
0000
0000
0000
,
1001
0000
0000
0010
0000
0100
0011
0000
0000
0001
0000
0010
1100
0000
0000
0100
0000
1000
0001
0000
0100
0001
0000
1000
,
0100
0000
1000
0010
0000
1000
0110
0000
1000
0001
0000
1000
0110
0000
0000
1000
0000
0100
0011
0000
0000
0100
0000
0010
,
1001
0000
0000
0001
0000
0100
0011
0000
0000
1000
0000
0100
0011
0000
0000
0010
0000
0100
1000
0000
0010
1000
0000
0100
,
0010
0000
0001
0010
0000
0100
1001
0000
1000
0001
0000
0100
1001
0000
0000
0010
0000
0001
1100
0000
0000
0000
0000
0000
,
0110
0000
0000
0010
0000
0100
0011
0000
0000
0001
0000
0010
1100
0000
0000
0100
0000
1000
0001
0000
0100
0001
0000
1000
,
0100
0000
1000
0010
0000
1000
0110
0000
1000
0001
0000
1000
0110
0000
0000
1000
0000
0100
0011
0000
0000
0100
0000
0010
,
1001
0000
0000
0001
0000
0100
0011
0000
0000
1000
0000
0100
0010
0000
0001
0110
0000
0000
1000
0000
0010
1000
0000
0100
,
0010
0000
0000
0000
0000
0000
0000
0000
0001
0000
0000
0000
0010
0000
0000
0000
0000
0000
0000
0000
0100
0000
0000
0000
1001
0000
0000
0000
0000
0000
0000
0000
0010
0000
0000
0000
1001
0000
0000
0000
0000
0000
1001
0000
0000
0000
0000
0000
0000
0000
0000
0000
0000
0000
1001
0000
0000
0000
0000
0000
0010
0000
0000
0000
0000
0000
0000
0000
0001
0000
0000
0000
0010
0000
0000
0000
0000
0000
0000
0000
0100
0000
0000
0000
1000
0000
0000
0000
0000
0000
0000
0000
0100
0000
0000
0000
,
1001
0000
0000
0000
,;

//---------------dance-single - MANIAC----------------
#NOTES:
     dance-single:
     MANIAC:
     Hard:
     9:
     0.663,1.000,0.649,0.061,0.224,448.000,74.000,7.000,0.000,0.000:

0000
0000
0000
0000
,
0000
0000
0000
0000
,
0000
0000
0000
0000
0000
0000
0000
0000
0000
0000
0000
0000
0000
0000
0010
1000
,
0001
0000
0000
0000
,
0000
0000
0000
0000
0000
0000
0000
0000
0000
0000
0010
1000
0001
0000
0001
1000
,
0010
0000
0000
0000
,
0000
0000
0000
0000
0000
0000
0000
0000
1000
0001
0000
0001
0000
0001
0010
0000
,
0100
1000
0001
0100
0010
0100
0001
0100
,
1000
1000
0000
1000
0000
1000
1000
0000
,
0100
0001
0010
0100
1000
0010
0100
0001
,
0110
0000
0000
1001
0000
0000
0110
0000
,
2002
0000
0000
0000
,
3003
0000
0000
0000
,
1001
0000
0000
0000
0200
0000
0000
0300
1001
0000
0000
0000
0020
0000
0000
0030
,
1001
0000
0000
1000
0100
0000
0010
0000
1001
0000
1000
0000
0100
0000
0010
0000
,
1001
0010
0100
1000
0001
0100
0011
0100
,
0010
1000
0001
0100
1000
0100
0001
0010
,
0100
1000
0010
1000
0001
1000
1010
1000
,
0100
0010
0001
0100
0010
1000
0100
1000
,
0001
0100
0010
1000
0100
1000
1001
1000
,
0010
0100
0001
0010
0100
0010
0001
0010
,
0100
1000
0100
0010
0100
1000
0011
1000
,
0001
0100
0011
0100
0010
1000
1010
0100
,
1001
0010
0100
0001
0000
0001
0100
0010
,
0000
0000
0010
1000
0000
0000
0100
0000
0000
0010
0000
0000
0001
0000
0010
0100
0000
0000
0010
0000
0000
0001
0000
0000
,
0000
0000
0100
0000
0100
0000
0000
0000
0100
0000
0000
0100
0000
0000
0100
0000
,
0000
0000
0010
0000
0010
0000
0000
0000
0010
0000
0000
0010
0000
0000
0010
0000
,
1000
0000
0000
1000
0000
0000
0001
0000
0100
0010
0000
0000
0010
0000
0000
0010
0000
0100
0001
0000
0100
0001
0000
0000
,
0000
0000
0000
0001
0000
0000
0100
0000
0000
0010
0000
0000
1000
0000
0000
0001
0000
0100
0010
0000
0000
0100
0000
0000
,
0000
0000
0100
0000
0100
0000
0000
0000
0001
0000
0000
0001
0000
0000
0001
0000
,
0000
0000
1000
0000
1000
0000
0000
0000
0010
0000
0000
0010
0000
0000
0010
0000
,
1001
0100
0101
0100
0101
0100
0010
1000
,
0100
0010
0011
0010
0011
0100
1000
0000
,
1001
0010
0110
0010
0110
0010
1000
0100
,
0010
0001
0101
0001
0101
0100
0010
0000
,
1001
0100
0101
0100
0101
0100
0010
1000
,
0100
0010
0011
0010
0011
0100
1000
0000
,
1001
0010
0110
0010
0100
0110
1000
0100
,
0010
0000
0001
0000
0101
0000
0001
0100
0000
0101
0000
0100
0010
0000
0100
0000
,
1001
0100
0010
1000
0100
0010
1000
0100
,
1000
0001
0100
1000
0001
0100
1000
0001
,
1000
0010
0100
1000
0010
0100
1000
0010
,
1000
0001
0010
1000
0001
0010
1000
0001
,
1000
0100
0001
1000
0100
0001
1000
0100
,
1000
0001
0010
1000
0001
0010
1000
0010
,
1000
0010
0001
1000
0010
0001
1000
0010
,
1000
0100
0010
1000
0100
0010
1000
0100
,
2002
0000
0000
0000
,
3003
0000
0000
0000
0000
0000
0000
0000
0020
0000
0000
0000
0000
0000
0000
0030
,
1001
0010
0100
0001
0100
0010
1000
0100
1000
0001
0011
0000
0100
0011
0000
0100
,
1001
1000
0100
0010
0001
0010
0100
1000
0010
0100
0011
0000
0100
0011
0000
0100
,
1001
0010
0100
0001
0100
0010
1000
0100
1000
0001
0011
0000
0100
0011
0000
0100
,
1001
1000
0100
0010
0001
0010
0100
1000
0010
0100
0011
0000
0100
0011
0000
0100
,
1001
0000
0001
0000
0001
0100
0000
0100
,
0000
0000
0100
0000
0100
0010
0000
0010
,
0000
0000
0010
0000
0010
1000
0000
1000
,
0000
0000
1000
0000
1000
0100
0000
0100
,
0000
0010
0010
0000
,
0010
0000
0010
0001
0000
0001
0100
0000
,
0100
1000
0000
0000
0000
0000
1000
0000
,
0100
0010
1001
0000
0000
1001
0000
0000
,
1001
0100
0101
0100
0101
0100
0010
1000
,
0100
0010
0011
0010
0011
0100
1000
0000
,
1001
0010
0110
0010
0110
0010
1000
0100
,
0010
0001
0101
0001
0101
0100
0010
0000
,
1001
0100
0101
0100
0101
0100
0010
1000
,
0100
0010
0011
0010
0011
0100
1000
0000
,
1001
0010
0110
0010
0100
0110
1000
0100
,
0010
0000
0001
0000
0101
0000
0001
0100
0000
0101
0000
0100
0010
0000
0100
0000
,
1001
0000
0000
0000
,;
