#TITLE:Rendezvous at the Mountain;
#SUBTITLE:;
#ARTIST:bit192;
#TITLETRANSLIT:;
#SUBTITLETRANSLIT:;
#ARTISTTRANSLIT:;
#CREDIT:;
#BANNER:rendezvous_at_the_mountain.png;
#BACKGROUND:rendezvous_at_the_mountain-bg.png;
#LYRICSPATH:;
#CDTITLE:cdtitle.png;
#MUSIC:rendezvous_at_the_mountain.ogg;
#OFFSET:0.001;
#SAMPLESTART:33.099;
#SAMPLELENGTH:12.000;
#SELECTABLE:YES;
#DISPLAYBPM:192.000;
#BPMS:0.000=192.000,96.000=251.620,97.000=260.040,98.000=312.459,98.500=360.079,99.000=392.499,99.500=409.718,100.500=415.738,102.000=469.038,103.000=479.058,104.000=496.278,105.000=499.998,106.000=638.018,106.500=748.036,107.000=900.000,124.000=379.442,126.000=192.000,187.000=192.040,190.000=192.000,256.000=955.780,281.000=192.000,342.000=192.020,347.000=192.000;
#STOPS:;
#BGCHANGES:;
// cache tags:
#FIRSTBEAT:16.000;
#LASTBEAT:350.000;
#SONGFILENAME:Songs/Japanese Collaboration Mix/rendezvous_at_the_mountain/rendezvous_at_the_mountain.sm;
#HASMUSIC:1;
#HASBANNER:1;
#MUSICLENGTH:98.924;
// end cache tags

//---------------dance-single - Copied from----------------
#NOTES:
     dance-single:
     Copied from:
     Challenge:
     11:
     0.833,1.000,0.667,0.222,0.435,489.000,66.000,22.000,0.000,0.000:
0000
0000
0000
0000
,
0000
0000
0000
0000
,
0000
0000
0000
0000
,
0000
0000
0000
0000
,
1100
0000
0000
0000
,
0101
0000
0000
0000
,
1100
0000
0101
0000
,
1100
0101
0020
0000
,
1030
0000
0100
0000
1000
0000
0010
0000
1000
0000
0001
0000
1000
0010
0000
0010
,
1000
0000
0001
0000
0100
0000
0001
0000
0010
0000
0001
0000
0100
0001
0000
0001
,
1000
0001
0100
0001
0010
0001
0100
0001
,
1000
0001
0100
0001
0011
0000
1100
0000
,
0001
0000
0001
0000
0001
0000
1000
0000
1000
0000
1000
0000
0010
0100
0000
0100
,
0010
0000
0010
0000
0010
0000
0100
0000
0100
0000
0100
0000
0001
1000
0000
1000
,
0001
0100
0001
0100
0001
0000
0010
0000
0100
0000
1000
0000
0010
0000
0100
0000
,
0001
0010
0100
1000
0010
0100
0001
0010
,
1000
0011
0000
0101
0000
1001
0000
0101
,
0000
0011
0000
0101
0000
1001
0000
0101
,
0000
1001
0000
0110
0000
1001
0000
0110
,
0000
1001
0000
0110
1010
0000
0011
0000
,
1000
1010
0000
0110
0000
0011
0000
0110
,
0000
1010
0000
0110
0000
0011
0000
0110
,
0000
1010
0000
0011
0000
0101
0000
1100
,
0010
0001
0010
0001
0010
0000
0001
0000
1000
0100
1000
0100
1000
0000
0001
0000
,
0220
0000
0000
0000
,
0000
0000
0000
0000
,
0000
0000
0000
0000
,
0000
0000
0000
0000
,
0000
0000
0000
0000
,
0000
0000
0000
0000
,
0000
0000
0000
0000
,
0330
0000
2001
0001
,
0001
0001
0001
0000
0001
0001
0001
0001
,
0001
0000
3001
0000
1002
1000
1000
0000
,
1000
1000
1000
0000
1000
1000
1000
1000
,
1000
1000
1003
0000
0210
0000
0010
0000
,
0010
0010
0310
0000
0120
0100
0100
0100
,
0100
0000
0130
0000
0210
0010
0310
0000
,
0120
0100
0130
0000
0110
0110
0110
0110
,
0110
0000
0110
0000
0110
0000
0000
0000
1000
0000
0001
0000
1000
0000
0001
1000
,
0000
0001
1000
0000
0001
0000
1000
0000
0010
0000
0100
0000
0010
0000
0100
0010
,
0000
0100
0010
0000
0100
0000
0010
0000
1000
0000
0100
0000
1000
0000
0100
1000
,
0000
0100
1000
0000
0100
0000
1000
0000
0001
0000
0010
0000
0001
0000
0010
0001
,
0000
0010
0001
0000
0010
0000
0001
0000
1000
0000
0001
0000
1000
0000
0001
1000
,
0000
0001
1000
0000
0001
0000
1000
0000
0100
0000
0010
0000
0100
0000
0010
0100
,
0000
0010
0100
0000
0010
0000
0100
0000
1000
0000
0010
0000
1000
0000
0010
1000
,
0000
0010
1000
0000
0010
0000
1000
0000
0001
0000
0100
0000
0001
0000
0100
0001
,
0000
0100
0001
0000
0100
0000
0001
0000
2000
0000
0000
0000
3001
0000
0010
0000
,
0000
0000
0010
0000
0001
1000
0001
1000
0002
0000
0000
0000
1003
0000
0010
0000
,
0000
0000
0010
0000
1000
0001
1000
0001
2000
0000
0000
0000
3001
0000
0100
0000
,
0000
0000
0100
0000
0001
1000
0001
1000
0002
0000
0000
0000
1003
0000
0100
0000
,
0000
0000
0100
0000
1000
0001
1000
0001
1000
0000
0001
0000
1000
0000
0010
0000
,
0000
0000
0100
0000
0001
1000
0001
1000
0001
0000
1000
0000
0001
0000
0010
0000
,
0000
0000
0100
0000
1000
0001
1000
0001
1000
0000
0001
0000
1000
0000
0100
0000
,
0000
0000
0010
0000
0001
1000
0001
1000
0001
0000
0100
0000
1000
0000
0001
0000
,
0010
1000
0001
0100
1001
0000
0000
0000
,
0110
0000
0201
1000
,
0301
0000
0110
0000
,
1001
0000
1020
0031
,
1000
0010
1000
0010
0100
0001
0100
0001
0100
0000
0000
0000
0000
0000
0000
0000
,
0011
0000
2010
0100
,
3010
0000
0000
0000
1000
0001
0100
1000
,
0001
0010
2000
0000
0100
0000
3100
0000
,
0000
0000
0000
0000
,
2002
0000
0000
0000
,
0000
0000
0000
0000
,
0000
0000
0000
0000
,
0000
0000
0000
0000
,
0000
0000
0000
0000
,
0000
0000
0000
0000
,
0000
0000
0000
0003
3000
0000
0000
0000
0001
0000
0010
0000
0100
0000
1000
0000
,
0100
0000
0010
0000
0001
1000
0000
1000
0001
0000
0100
0000
0010
0000
1000
0000
,
0010
0000
0100
0000
0001
1000
0000
1000
0001
0000
1000
0000
0010
0000
0100
0000
,
0010
0000
1000
0000
0001
1000
0000
1000
0001
0000
1000
0000
0100
0000
0010
0000
,
0100
0000
1000
0000
0001
1000
0000
1000
0001
0000
0010
0000
0100
0000
0010
0000
,
0001
0000
1000
0000
0010
0100
0000
0100
0010
0000
0100
0000
0110
0000
0000
0000
,
0210
0000
0000
0000
0301
1000
0000
1000
0001
0000
0100
0000
0010
0000
0100
0000
,
0001
0000
1000
0000
0100
0010
0000
0010
0100
0000
1000
0000
0001
0000
0100
0000
,
0010
0000
0100
0000
0001
1000
0000
1000
0001
0000
0100
0010
0100
0000
0001
0000
,
0000
0000
0001
0000
1000
0010
0000
0010
1000
0000
0010
0100
0010
0000
1000
0000
,
0000
0000
1000
0000
0001
0100
0000
0100
0001
0000
0100
0010
0100
0000
0001
0000
,
0000
0000
0001
0000
1000
0010
0000
0010
1000
0000
0010
0100
0010
0000
1000
0000
,
0000
0000
1000
0000
0001
0100
0000
0100
0001
0000
0100
0010
0100
0000
0001
0000
,
1000
0000
0001
0000
1000
0010
1000
0010
1000
0000
0010
0100
0010
0000
1000
0000
,
0001
0000
1000
0000
0001
0100
0001
0100
0001
0000
0100
0010
0100
0000
0001
0000
,
1000
0000
0001
0000
1000
0010
1000
0010
1000
0000
0100
0000
0001
0000
0100
0000
,
1000
0010
0001
0010
0110
0000
2002
0000
,
3003
0000
0110
0000
0000
1100
0000
0000
0101
0000
0000
0000
0000
0000
0000
0000
;
