#TITLE:Daddy DJ;
#SUBTITLE:(Shpadoinkle);
#ARTIST:Daddy DJ;
#TITLETRANSLIT:;
#SUBTITLETRANSLIT:;
#ARTISTTRANSLIT:;
#CREDIT:;
#BANNER:../thisandthat-bn.png;
#BACKGROUND:../thisnthat-bg.png;
#LYRICSPATH:;
#CDTITLE:;
#MUSIC:Daddy DJ.ogg;
#OFFSET:0.771;
#SAMPLESTART:43.673;
#SAMPLELENGTH:12.000;
#SELECTABLE:YES;
#DISPLAYBPM:135.000;
#BPMS:0.000=135.000,294.500=270.000,296.000=135.000,298.500=270.000,300.000=135.000,310.500=270.000,312.000=135.000,314.500=270.000,316.000=135.000,385.000=270.000,391.000=135.000;
#STOPS:294.500=0.111
,295.000=0.111
,295.500=0.111
,298.500=0.111
,299.000=0.111
,299.500=0.111
,310.500=0.111
,311.000=0.111
,311.500=0.111
,314.500=0.111
,315.000=0.111
,315.500=0.111
;
#BGCHANGES:;
// cache tags:
#FIRSTBEAT:15.500;
#LASTBEAT:485.000;
#SONGFILENAME:Songs/Seph, Gson & Shpadoinkle's Pack of This 'n That/Daddy DJ (11)/Daddy DJ.sm;
#HASMUSIC:1;
#HASBANNER:1;
#MUSICLENGTH:105.000;
// end cache tags

//---------------dance-single - Shpadoinkle----------------
#NOTES:
     dance-single:
     Shpadoinkle:
     Challenge:
     11:
     1.000,1.000,0.305,0.867,1.000,1124.000,32.000,91.000,8.000,0.000:

0000
0000
0000
0000
,
0000
0000
0000
0000
,
0000
0000
0000
0000
,
0000
0000
0000
0000
0000
0000
0000
0001
,
2002
3003
0000
0000
,
1000
0001
0010
0000
0100
0000
1000
0010
0000
0010
1000
0000
0100
0000
0010
0001
,
0000
0001
0010
0000
0100
0000
1000
0100
0000
0100
1000
0000
0010
0000
0100
0010
,
0000
0010
0100
0000
0001
0000
1000
0001
0000
0001
0010
0000
0100
0000
1000
0010
,
0000
0010
0100
0000
0001
0000
0010
0100
0000
0100
0010
0000
0001
0000
1000
0000
,
0001
0010
0100
0000
1000
0000
0010
0100
0000
0100
0010
0000
1000
0000
0100
0000
,
1000
0100
0010
0000
0001
0010
0100
0000
1000
0010
0100
0000
0001
0100
0010
0000
,
1000
0100
0010
0000
0001
0000
1000
0010
0000
0010
1000
0000
0100
0000
0010
0000
,
0001
0100
0001
0000
1000
0010
1000
0000
0001
1000
0100
0000
1000
0010
0100
0000
,
0001
0010
0100
0000
1000
0000
0010
0100
0000
0100
0010
0000
1000
0000
0100
0000
,
0010
0001
0010
0000
0001
1000
0010
0000
1000
0100
0010
0000
0001
1000
0100
0000
,
1000
0010
0100
0000
0001
0000
0010
0001
0000
0001
0100
0000
0010
0000
1000
0000
,
0100
0010
0001
0010
0100
1000
0010
0100
0010
0100
0010
1000
0100
0010
0001
0010
,
0001
0000
2000
3000
0010
0000
0200
0300
1000
0000
0200
0300
0010
0000
2000
3000
,
0100
0000
0020
0030
0001
0000
2000
3000
0010
0000
0002
0003
0010
0000
2000
3000
,
0100
0000
0002
0003
0100
0000
2000
3000
0010
0000
0002
0003
0010
0000
2000
3000
,
0100
0000
0020
0030
0001
0000
0200
0300
0001
0000
0200
0300
0001
0000
0020
0030
,
0100
0000
2000
3000
0100
0000
0020
0030
0001
0000
0020
0030
1000
0000
0020
0030
,
0001
0000
0020
0030
0100
0000
2000
3000
0001
0000
0200
0300
0010
0000
2000
3000
,
0100
0000
0020
0030
0100
0000
2000
3000
0010
0000
0200
0300
0010
0000
2000
3000
,
0100
0000
0020
0030
0001
0000
2000
3000
0010
0000
0200
0300
0001
0000
0011
0000
,
0110
0100
1000
0001
0010
0100
0010
0001
,
2000
3100
0010
0100
1000
0020
0230
0320
,
2030
3100
0001
0100
1000
0010
0100
0010
,
1000
0010
0001
0010
1000
0200
0320
0032
,
1003
0010
0100
1000
0100
0010
1000
0100
,
0001
0100
1000
0010
0100
0020
2030
3200
,
0310
0001
0100
0010
1000
0001
0020
0230
,
1300
0010
0100
0001
0010
0100
1000
0100
,
1000
0010
1000
0000
0100
0010
0001
0000
1000
0010
0100
0000
0001
0010
0100
0000
,
1000
0100
0010
0000
0100
0010
0001
0000
1000
0010
1000
0000
0001
0010
0100
0000
,
1000
0100
0010
0001
1000
0100
0010
0001
1000
0100
1000
0100
1000
0001
0100
0001
,
0100
0001
0010
0100
1000
0001
0010
0100
1000
0100
0010
0100
1000
0100
0010
0100
,
1000
0010
1000
0000
0001
0010
0100
0000
0010
0100
1000
0000
0001
0100
0001
0000
,
1000
0010
0100
0000
0001
0010
0100
0000
1000
0001
0010
0000
0001
1000
0001
0000
,
1000
0100
1000
0100
1000
0010
1000
0010
1000
0001
0010
0100
1000
0100
0010
0001
,
1000
0010
0100
0001
1000
0010
0100
0001
0010
0001
0010
0001
1000
0000
0100
0000
,
0110
0000
0000
0110
0000
0000
0010
0000
0001
0000
1000
0000
0010
0000
0100
0000
,
0101
0000
0000
0101
0000
0000
0001
0000
1000
0000
0010
0000
0100
0000
0001
0000
,
0010
0000
0100
1000
0010
0000
1000
0000
0010
0000
0100
0000
0001
0000
1000
0000
,
0010
0000
1000
0001
0010
0000
0001
0000
1000
0100
1000
0100
1000
0000
0010
0000
,
1010
0000
0000
1010
0000
0000
1000
0000
0001
0000
0010
0000
0001
0000
1000
0000
,
1001
0000
0000
1001
0000
0000
0001
0000
0010
0000
0001
0000
1000
0000
0100
0000
,
0020
0030
MMMM
0010
0001
1000
0010
0100
,
0020
0000
0030
0000
1000
0001
1000
0001
0100
0010
0100
0010
1000
0010
0100
0001
,
1000
0000
0100
0010
0001
0000
1000
0000
0010
0000
0100
1000
0100
0000
0001
0000
,
0010
0000
0100
1000
0100
0000
1000
0000
0001
0000
0010
0100
1000
0000
0010
0000
,
0100
0000
0001
0010
0100
0000
0010
0000
0001
0000
1000
0010
0100
0000
0001
0000
,
1000
0000
0010
0100
0001
0000
1000
0000
0001
0000
0010
0000
0100
1000
0100
0010
,
0001
0000
1000
0010
0100
0000
0001
0000
1000
0000
0010
0100
1000
0000
0100
0000
,
0001
0000
0010
0100
1000
0000
0100
0000
0010
0000
0001
0010
0100
0000
1000
0000
,
0010
0000
1000
0100
0010
0001
0100
0001
0100
0001
0010
0100
1000
0100
0010
0001
,
0200
0000
0300
0000
0000
0000
0000
0000
0001
0010
0001
0000
1000
0100
1000
0000
,
0001
0000
2000
3000
0010
0000
0200
0300
0001
0000
0200
0300
1000
0000
0200
0300
,
0001
0000
0020
0030
1000
0000
0020
0030
0001
0000
0020
0030
0100
0000
2000
3000
,
0010
0000
0002
0003
0010
0000
2000
3000
0100
0000
0020
0030
0001
0000
0200
0300
,
0010
0000
0200
0300
0010
0000
0002
0003
0010
0000
0200
0300
0001
0000
1000
0000
,
1100
0100
0110
0010
0011
0001
1001
1000
,
1010
0010
0110
0100
0101
0001
1001
1000
,
1100
0100
0010
0001
0010
0100
1000
0010
,
0001
0010
1000
0100
0010
0001
1000
1010
,
0110
0100
0001
1000
0010
0100
0010
1000
,
0200
0310
0001
1000
0010
0002
0023
2030
,
3200
0310
0001
0010
0001
0100
0001
1000
,
0001
0100
0010
1000
0100
0020
0032
0203
,
0310
0001
0010
1000
0100
0001
0100
1000
,
0010
0100
0001
1000
0010
0200
0320
2030
,
3100
0010
0001
1000
0100
0010
0002
0023
,
0130
1000
0001
0100
0010
1000
0100
0010
,
0001
1000
0001
0000
1000
0010
1000
0000
0100
0010
0001
0000
0100
0000
0010
0000
,
1000
0100
0010
0000
0001
0010
0100
0000
1000
0010
1000
0000
0100
0000
0010
0000
,
0001
1000
0010
1000
0100
0010
0001
1000
0010
0100
0001
0010
0001
1000
0001
0010
,
0100
1000
0001
0010
0100
1000
0100
0010
0100
0010
0001
0010
0100
1000
0100
0010
,
0001
1000
0001
0000
1000
0010
1000
0000
0100
0010
0001
0000
1000
0000
0010
0000
,
1000
0001
0010
0000
0100
1000
0100
0000
1000
0100
0010
0000
0001
0000
0010
0000
,
0001
0010
0100
1000
0100
0010
0001
0010
0001
1000
0100
1000
0010
0100
0010
1000
,
0100
0010
0001
1000
0010
0100
0010
1000
0100
0010
0100
1000
0010
0000
0100
0000
,
0110
0000
0000
0110
0000
0000
0010
0000
1000
0000
0001
0000
0010
0000
0100
0000
,
1100
0000
0000
1100
0000
0000
1000
0000
0001
0000
0010
0000
0100
0000
1000
0000
,
0010
0000
1000
0100
0010
0000
0001
0000
1000
0000
0010
0000
0100
0000
0001
0000
,
0010
0000
0100
1000
0010
0000
0100
0000
0001
0010
0001
0010
0001
0000
1000
0000
,
1010
0000
0000
1010
0000
0000
0010
0000
0100
0000
0001
0000
0010
0000
0100
0000
,
1100
0000
0000
1100
0000
0000
1000
0000
0001
0000
0010
0000
0100
0000
0010
0000
,
0002
0003
MMMM
0001
1000
0010
0100
0010
,
2000
0000
3000
0000
0001
1000
0001
0010
0100
0010
0100
1000
0001
0010
0100
1000
,
0001
0000
1000
0010
0100
0000
0001
0000
0010
0000
0100
1000
0100
0000
1000
0000
,
0010
0000
0100
0010
0001
0000
0010
0000
1000
0000
0100
0010
0001
0000
0100
0000
,
0010
0000
1000
0010
0100
0000
0001
0000
0010
0000
0100
0010
0001
0000
1000
0000
,
0010
0000
0100
0001
0010
0000
0001
0000
1000
0100
0010
0001
1000
0100
0010
0100
,
1000
0000
0001
0010
0100
0000
1000
0000
0010
0000
0100
0010
1000
0000
0010
0000
,
0001
0000
0010
1000
0100
0000
0010
0000
0001
0000
1000
0010
0100
0000
0001
0000
,
1000
0000
0001
0010
0100
0000
1000
0000
0010
0000
1000
0100
0010
0000
0001
0000
,
0022
0000
0000
0000
,
0000
0000
0000
0000
0000
0000
0000
0000
0033
0000
0000
0000
1000
0100
0010
0000
,
0001
0000
1000
0010
0000
0010
1000
0000
0100
0000
0010
0001
0000
0001
0010
0000
,
0001
0000
1000
0010
0000
0010
0100
0000
0001
0000
1000
0001
0000
0001
0010
0000
,
0100
0000
1000
0010
0000
0010
1000
0000
0100
0000
0010
0000
0001
1000
0001
1000
,
0001
0000
0000
0010
0000
0000
0001
0000
0000
0010
0000
0000
0100
0000
0000
1000
0000
0000
0100
0000
0000
0010
0000
0000
0001
0000
0010
0000
0001
0000
0010
0000
0001
0000
0010
0000
0001
0000
0000
0000
0000
0000
1000
0000
0000
0000
0000
0000
,
0100
0000
0010
0001
0000
1000
0010
0000
0100
0000
0001
0000
0000
1000
0010
0000
,
0100
0000
0001
0010
0000
0100
1000
0000
0010
0000
0100
0000
0000
0001
1000
0000
,
0010
0000
0100
0010
0000
0100
0010
0000
1000
0000
0100
0000
0000
0010
0001
0000
,
1000
0000
0010
0100
0000
0010
2000
3000
0200
0300
0020
0030
0001
0000
1000
0000
,
0010
0000
1000
0001
0000
1000
0010
0000
0100
0000
0001
0000
0000
0010
0100
0000
,
1000
0000
0001
0100
0000
0010
1000
0000
0100
0000
0010
0000
0001
0010
0100
1000
,
0001
0010
0100
1000
0001
1000
0001
1000
0100
0010
0001
1000
0010
1000
0010
1000
,
0010
0100
0001
0010
0100
1000
0100
0010
0001
0000
1000
0000
0100
0010
0001
0000
,
1000
0000
0010
0100
0000
0010
0100
0000
0001
0000
0010
0000
0100
1000
0010
0000
,
0100
0000
0001
1000
0000
0001
0010
0000
0100
0000
1000
0000
0010
0100
0010
0000
,
1000
0000
0010
0100
0000
1000
0100
0000
0001
0000
0010
0000
0100
1000
0001
0000
,
0010
0000
0001
1000
0000
0001
0020
0030
0200
0300
2000
3000
0001
0000
1000
0000
,
0010
0000
1000
0010
0000
0010
0100
0000
1000
0000
0100
0001
0000
0001
0010
0000
,
0001
0000
1000
0010
0000
0010
1000
0000
0100
0000
0010
0000
0001
0010
0100
1000
,
0001
0100
0010
1000
0001
0010
0001
0010
0001
1000
0010
0100
0010
0100
0010
1000
,
0100
0010
0001
0010
0001
0010
0001
1000
0001
1000
0010
0100
0002
0000
0000
0000
,
0000
0000
0003
2000
,
0000
0000
3000
0020
,
0000
0000
0030
0210
,
0000
0300
0000
0000
;
