#TITLE:untitled gabber song;
#SUBTITLE:;
#ARTIST:Emotional Joystick;
#TITLETRANSLIT:;
#SUBTITLETRANSLIT:;
#ARTISTTRANSLIT:;
#CREDIT:DukAmok;
#BANNER:untitled_gabber_song.png;
#BACKGROUND:untitled_gabber_song-bg.png;
#LYRICSPATH:;
#CDTITLE:!duktitle.png;
#MUSIC:untitled_gabber_song.mp3;
#OFFSET:1.180;
#SAMPLESTART:37.500;
#SAMPLELENGTH:10.000;
#SELECTABLE:YES;
#BPMS:0.000=178.000;
#STOPS:;
#BGCHANGES:;
// cache tags:
#FIRSTBEAT:4.000;
#LASTBEAT:440.000;
#SONGFILENAME:Songs/Community Keyboard Megapack - Volume 1/(DukAmok) untitled gabber song/untitled_gabber_song.sm;
#HASMUSIC:1;
#HASBANNER:1;
#MUSICLENGTH:147.513;
// end cache tags

//---------------dance-single - Heavy----------------
#NOTES:
     dance-single:
     Heavy:
     Hard:
     10:
     1.000,1.000,0.834,0.027,0.654,967.000,123.000,4.000,0.000,0.000:
0000
0000
0000
0000
,
1000
0001
0100
0010
1000
0100
0000
0010
,
0000
0001
1000
0010
0100
0001
0010
0100
,
0010
0001
1000
0010
0100
0001
0000
1000
,
0000
0010
0100
0001
0010
0100
0010
0001
,
1000
0010
0100
0001
0100
0001
0000
0010
,
0000
0100
1000
0010
0100
0010
1000
0001
,
0010
0100
1000
0100
0010
0100
0000
0100
,
0000
0010
0001
0100
0010
0100
0001
0010
,
0001
1000
0010
0100
0001
0010
0000
0100
,
0000
1000
0001
0100
0010
1000
0100
0010
,
0100
1000
0001
0100
0010
1000
0000
0001
,
0000
0100
0010
1000
0100
0010
0100
1000
,
0001
0100
0010
1000
0010
1000
0000
0100
,
0000
0010
0001
0100
0010
0100
0001
1000
,
0100
0010
0001
0010
0100
0010
0000
0100
,
0000
1000
0001
0010
0100
0010
0001
1000
,
0002
0000
0000
0000
,
1003
0010
0100
0001
,
0010
0100
1000
0010
,
0101
0011
0110
1100
,
1010
0000
0110
0000
0101
0000
2002
3003
,
0010
0100
1000
0010
0100
0001
0010
0100
,
1000
0010
0100
0001
0010
0100
0010
0001
,
1000
0010
0100
0001
1000
0100
0010
0001
,
0010
0100
0010
0001
1000
0010
0100
0001
,
0110
1000
0010
1100
0001
0010
0000
0101
,
0000
0000
1000
0000
0001
0000
0100
0000
0010
0000
1000
0000
0100
0000
0010
0001
,
0010
0001
1000
0011
0100
0001
0110
1000
,
0101
0000
0010
0000
0100
0000
0001
0000
0010
0000
0100
0000
0010
0001
0100
0010
,
1000
0010
0100
0001
0100
0001
0000
0010
,
0000
0000
0000
0100
0000
0000
1000
0000
0000
0010
0000
0000
0100
0000
0000
0010
0000
0000
1000
0000
0001
0000
0100
0000
,
0011
0100
1000
0101
0010
0100
0000
1100
,
0000
0010
0001
1100
0010
0100
0001
0010
,
0101
1000
0010
1100
0001
0010
0000
0110
,
0000
1000
0001
1100
0010
1000
0100
0010
,
0101
1000
0001
1100
0010
1000
0000
0011
,
0000
0100
0010
1001
0100
0010
0100
1000
,
0011
0100
0010
1001
0010
1000
0000
0101
,
0000
0010
0001
1100
0010
0100
0001
1000
,
0101
0010
0001
1010
0100
0010
0000
0101
,
0000
1000
0001
0010
0100
0010
0001
1000
,
0001
0100
0010
0000
1000
0010
0100
0000
0001
0010
0100
1000
0100
0010
0100
0000
,
0010
0001
1000
0000
0010
0100
0001
0000
1000
0001
1000
0100
0010
0001
0010
0000
,
0001
1000
0010
0000
0100
0001
0010
0000
0100
1000
0100
0010
0001
1000
0010
0000
,
0100
0001
1000
0000
0100
1000
0010
0000
0100
0001
0010
0100
0010
0001
0100
0001
,
1000
0011
1000
0101
0010
0101
0010
1100
,
0001
0110
1000
0101
0010
1100
0010
1001
,
0100
0011
1000
0101
0010
1100
0001
0110
,
1000
0101
0010
1001
0100
0011
1000
0101
,
1010
0000
0000
0101
0000
0000
0011
0000
,
1100
0000
0001
0101
0000
0000
1010
0000
,
1100
0000
0100
0110
0000
0000
0011
1000
,
0011
0000
1001
0010
0101
0000
1010
0000
,
0001
0010
0100
0010
0001
1000
0010
0100
0001
0010
0100
1000
0010
0100
0010
1000
,
0100
0010
0001
0010
0100
1000
0010
0100
0010
1000
0100
0010
0001
0010
0100
0010
,
0001
0100
0010
1000
0010
0100
0001
0010
0100
1000
0001
0100
0010
1000
0100
0010
,
0001
0100
0001
0100
0010
1000
0100
0010
0001
0010
0100
1000
0010
0100
0001
0000
,
0110
1000
0010
0100
0001
0010
0000
0100
,
0000
1000
0001
0100
0010
1000
0100
0010
,
0101
1000
0001
0100
0010
1000
0000
0002
,
0000
0100
0010
1000
0100
0010
0103
1000
,
0011
0100
1001
0010
0101
1000
0000
0101
,
0000
0010
1001
0100
1010
0100
0011
1000
,
0101
0010
1001
0010
0101
0010
0000
0110
,
0000
1000
0101
0010
1000
0010
0100
0001
,
0011
0000
0100
1000
0010
0000
0100
0001
0100
0010
1000
0000
0100
0000
0010
0001
,
0100
0000
0010
1000
0001
0000
0010
0100
1000
0100
0010
0000
0100
0000
0010
0001
,
0100
0001
1100
0010
0101
0001
0000
1001
,
0000
0010
0100
0001
1010
1100
0110
0011
,
1001
0010
1100
0001
0110
0001
0000
1010
,
0000
0100
1001
0010
0101
0010
1100
0001
,
1010
0100
1001
0100
1010
0100
0000
0110
,
0000
0001
1010
0100
0001
0100
0010
1000
,
0101
0010
1000
0100
0010
0001
1010
0000
,
0101
0010
1000
0001
0100
0010
1001
0010
,
0101
0010
1000
0100
0010
0100
0011
0000
,
1010
0100
0001
1010
0100
0011
0110
1001
,
0100
0000
1000
0100
0010
0001
0010
0000
0100
1000
0010
0100
0001
0000
0010
0100
,
0010
0000
0001
1000
0010
0100
0010
0000
1000
0100
0010
0100
1000
0000
0001
0100
,
0001
0000
0010
0100
1000
0010
0100
0000
0001
0100
0001
0010
0100
0000
0010
0001
,
1000
0000
0001
0100
0010
1000
0100
0000
0010
0100
1000
0010
0100
0000
0001
0010
,
0100
0001
0010
0100
0001
0010
1001
0100
,
1010
0010
1000
0100
0010
1000
0011
0100
,
1010
1000
0100
0010
1000
0100
0010
0100
,
0101
0100
0001
1010
0100
0001
1100
0010
,
0101
0010
1000
0100
0010
1000
0011
0100
,
1001
1000
0001
0100
1000
0001
1010
0100
,
1001
0001
0100
1010
0001
0100
1001
0100
,
0110
1000
0010
0001
1000
0010
0100
0001
,
0010
0100
0010
1000
,
0100
0000
0010
0000
0001
0000
0100
0010
,
1000
0100
0010
0001
0010
0100
1000
0010
,
0000
0100
0001
0010
0100
0000
0010
0001
,
1000
0010
0100
0001
0010
0000
0100
0010
0001
1000
0010
0000
0100
0001
0010
0100
,
1000
0010
0100
0001
0100
0000
0010
1000
0010
1000
0100
0000
0010
0001
0010
0100
,
0010
0100
1000
0010
0100
0000
0001
0010
0100
0010
0001
0000
1000
0010
0100
0001
,
0010
0100
0010
0001
1000
0000
0001
1000
0001
0100
0010
0000
1000
0010
0100
0001
,
1000
0100
0010
0001
0010
0000
0100
1000
0100
0010
0100
0000
0010
0001
0100
0010
,
1000
0100
1000
0010
0100
0000
0010
1000
0001
0010
0100
0000
0010
0001
1000
0010
,
0100
0001
0010
0100
1000
0000
0001
1000
0100
1000
0001
0000
1000
0010
0100
0001
,
0010
0001
1000
0010
0100
0000
0001
0010
0100
0010
0100
0000
1000
0100
0010
0001
,
0100
0001
0010
0001
1000
0010
0100
0001
0010
0100
1000
0010
0100
0001
0010
0100
,
0010
0100
1000
0010
0100
0001
0100
0010
1000
0100
0010
0001
1000
0100
0010
0001
,
0010
0001
0100
0010
1000
0010
0100
0001
0010
0100
1000
0010
0100
0001
0010
0001
,
0100
0010
1000
0100
0010
0100
0000
0000
0000
0000
0000
0101
0000
0000
0000
0000
,
0010
1000
0100
1000
0001
0100
0010
1000
0100
0010
0001
0100
0010
1000
0100
0010
,
0100
0010
0001
0100
0010
1000
0010
0100
0001
0010
0100
1000
0001
0010
0100
1000
,
0100
1000
0010
0100
0001
0100
0010
1000
0100
0010
0001
0100
0010
1000
0100
1000
,
0010
0100
0001
0010
0100
1000
0010
1000
0100
0010
0001
1000
0100
0010
0100
1000
,
0001
0000
0000
0000
;

//---------------dance-single - Challenge----------------
#NOTES:
     dance-single:
     Challenge:
     Challenge:
     12:
     1.000,1.000,1.000,0.047,0.793,1021.000,336.000,7.000,0.000,0.000:
0000
0000
0000
0000
,
0101
1000
0010
1100
0001
0010
0000
0101
,
0000
1000
0001
1100
0010
1000
0100
0010
,
0101
1000
0001
1100
0010
1000
0000
0011
,
0000
0100
0010
1001
0100
0010
0100
1000
,
0011
0100
0010
1001
0010
1000
0000
0101
,
0000
0010
0001
1100
0010
0100
0001
1000
,
0101
0010
0001
1010
0100
0010
0000
0011
,
0000
0100
1000
0011
0100
0010
1000
0100
,
1010
0001
0100
0011
1000
0100
0000
1010
,
0000
0001
1000
0011
0100
0001
0010
0100
,
1010
0001
1000
0011
0100
0001
0000
1010
,
0000
0010
0100
1001
0010
0100
0010
0001
,
1100
0010
0100
0011
0100
0001
0000
0110
,
0000
0100
1000
0011
0100
0010
1000
0001
,
1010
0100
1000
0101
0010
0100
0000
1010
,
0000
0001
1000
0101
0010
0100
1000
0001
,
2002
0000
0000
0000
0000
0000
0000
3003
,
1001
0101
0011
1100
,
0110
1010
0101
0011
,
1010
1100
0110
0011
,
0101
0000
0110
0000
1010
0000
2002
3003
,
0100
1010
0001
1100
0010
1001
0100
1010
,
0001
0101
0010
1001
0100
1010
0100
1010
,
0001
0101
0010
1100
0001
0011
0100
1010
,
0100
1010
0100
1001
0001
0101
0010
1001
,
0110
0001
0100
0011
1000
0100
0000
1010
,
0000
0000
0001
0000
1000
0000
0010
0000
1100
0000
0011
0000
0011
0000
0101
1000
,
0110
1000
0001
1100
0010
1000
0110
0001
,
1010
0000
0100
0000
0010
0000
1000
0000
0100
0000
0010
0000
0101
1000
0010
0100
,
1001
0100
0010
1000
0010
1000
0000
0100
,
0000
0000
0000
0010
0000
0000
0001
0000
0000
0100
0000
0000
0010
0000
0000
0100
0000
0000
0001
0000
1000
0000
0010
0000
,
1100
0000
0000
0010
0000
0000
0001
0000
0000
1010
0000
0000
0100
0000
0000
0010
0000
0000
0001
0010
0100
1000
0100
0010
,
0001
0000
0100
0000
1000
0000
0011
0000
0100
0000
0010
0000
1010
0001
0100
0001
,
1010
0001
0100
0011
1000
0100
0000
0110
,
0000
0000
0001
0000
1000
0000
0011
0000
0100
0000
0001
0000
0010
0001
0100
0001
,
1010
0001
1000
0011
0100
0001
0100
1100
,
0100
0000
0000
0010
0000
0000
0100
0000
0000
1001
0000
0000
0010
0000
0000
0100
0000
0000
0010
0001
0010
0100
1000
0001
,
1100
0000
0000
0010
0000
0000
0100
0000
0000
1001
0000
0000
0100
0000
0000
0001
0000
0000
1000
0010
0100
0001
1000
0100
,
0010
0000
0100
0000
1000
0000
0011
0000
0100
0000
0010
0000
1000
0000
0001
0100
,
1010
0000
0000
0100
0000
0000
1000
0000
0000
0101
0000
0000
0010
0000
0000
0100
0000
0000
0001
0010
0100
1000
0001
0010
,
1100
0001
1000
0100
0010
0100
1000
0001
,
1001
0010
0100
0000
1001
0100
0010
0000
1001
0100
0010
0001
1010
0100
0010
0000
,
0101
1000
0001
0000
0101
0010
1000
0000
0011
1000
0001
0010
0101
1000
0100
0000
,
1010
0001
0100
0000
0011
1000
0100
0000
1010
0001
0010
0100
1010
0001
0100
0000
,
0011
1000
0001
0000
1010
0001
0100
0000
0011
1000
0100
0010
0101
1000
0010
1000
,
0101
1100
0101
1010
0101
1010
0101
0011
,
1100
0110
0011
1010
1100
0011
0101
1001
,
0110
1100
0011
1010
1100
0011
1001
0110
,
0011
0000
1010
0000
0110
0000
1001
0000
1010
0000
1100
0000
0011
0000
1010
0001
,
0110
0000
0000
1010
0000
0000
1100
0000
,
0011
0000
1000
1010
0000
0000
0101
0000
,
0011
0000
0010
0110
0000
0000
1100
0001
,
1100
0000
1001
0100
1010
0000
0101
0000
,
1001
0100
0010
0100
1010
0001
0100
0010
1001
0100
0010
0001
1100
0010
0100
0001
,
1010
0100
1000
0100
1010
0001
0100
0010
1100
0001
0010
0100
1001
0100
0010
0100
,
1001
0010
0100
0001
1100
0010
1000
0100
1010
0001
1000
0010
1100
0001
0010
0100
,
1001
0000
0000
0010
0000
0000
1000
0000
0000
0010
0000
0000
1100
0000
0000
0001
0000
0000
0010
0000
0000
0100
0000
0000
1010
0000
0100
0000
0001
0000
0010
0000
0100
0000
1000
0000
0001
0000
0010
0000
0100
0000
1000
0000
0001
0000
1000
0000
,
0110
0001
0100
0010
1000
0100
0000
0010
,
0000
0001
1000
0010
0100
0001
0010
0100
,
1010
0001
1000
0010
0100
0001
0000
2000
,
0000
0010
0100
0001
0010
0100
3010
0001
,
1100
0011
1001
0101
1010
0101
0100
1010
,
0100
0101
1001
1010
0101
0011
1100
0101
,
1010
0101
1001
1100
1010
0101
1000
0110
,
1000
0101
1010
0101
1001
0110
1010
0101
,
1100
0000
0010
0001
0100
0000
0010
1000
0010
0100
1001
0000
0110
0000
0100
1000
,
0011
0000
0100
0001
1000
0000
0100
0010
0001
0010
1100
0000
0010
0000
0100
1000
,
0011
1000
0011
0100
1010
1000
0010
1001
,
1000
0100
0011
1000
0101
0011
0110
1100
,
1001
0100
0011
1000
0110
1000
0000
0101
,
0000
0010
1001
0100
1010
0100
0011
1000
,
0101
0010
1001
0010
0101
0010
0000
0110
,
0000
1000
0101
0010
1000
0010
0100
0001
,
1010
0000
0100
0000
0001
0000
0010
0000
0100
0000
1000
0000
0101
0000
0000
0100
,
1010
0000
0000
0100
0000
0000
0001
0000
0000
1000
0000
0000
0010
0000
0100
0000
0010
0000
1001
0000
0010
0000
0100
0000
,
1010
0000
0100
0000
0001
0000
0010
0000
0100
0000
0010
0000
1100
0000
0000
0010
,
0101
0000
0000
0010
0000
0000
1000
0000
0000
0101
0000
0000
0010
1000
0100
0010
0001
1000
0100
0010
0001
1000
0010
0100
,
1001
0000
0001
0010
0100
1000
0101
0000
0010
0001
0100
0010
1001
0000
0100
0010
,
0101
0000
1000
0001
0100
0010
1100
0000
0001
0010
0100
0010
0101
0000
1000
0010
,
1001
0000
0100
0010
0001
0100
1010
0000
1000
0010
1000
0100
0011
0000
0100
1000
,
0101
0000
1000
0010
0100
0001
1010
0000
0100
0010
0001
0100
0011
0000
1000
0100
,
0011
1000
0100
0010
1000
0100
1001
0010
,
0101
0100
0001
0010
0100
0001
1100
0010
,
0101
0001
0010
0100
0001
0010
0100
0010
,
1010
0010
1000
0101
0010
1000
0011
0100
,
1010
0100
0001
0010
0100
0001
1100
0010
,
1001
0001
1000
0010
0001
1000
0101
0010
,
1001
1000
0010
0101
1000
0010
1001
0010
,
0110
0001
0100
1000
0001
0100
0010
1000
,
0101
1010
1100
0011
,
0110
0000
0101
0000
1010
0000
0011
0100
,
1001
0010
0101
1000
1100
0010
0011
0100
,
1001
0010
2001
3100
0011
0000
1200
1300
,
0011
0100
0010
1000
0101
0000
0010
0100
1000
0001
1100
0000
0010
1000
0100
0010
,
1001
0100
0010
1000
0011
0000
0100
0001
0100
0001
1010
0000
0100
1000
0100
0010
,
1100
0010
0001
0100
0011
0000
1000
0100
0010
0100
1010
0000
0001
0100
0010
1000
,
0101
0010
0100
1000
0011
0000
1000
0001
1000
0010
1100
0000
0001
0100
0010
1000
,
0101
0010
0100
1000
0101
0000
0010
0001
0010
0100
1010
0000
0100
1000
0010
0100
,
1001
0010
0001
0100
1010
0000
0100
0001
1000
0100
0011
0000
0100
1000
0001
0100
,
0011
1000
0100
0010
0101
0000
1000
0001
0010
0001
1010
0000
0001
0100
0010
1000
,
0110
1000
0001
0100
1010
0000
1000
0100
0010
0100
1010
0000
0001
0010
0100
1000
,
0011
1000
0100
1000
0011
0100
0010
1000
0101
0010
0001
0100
0011
1000
0100
0010
,
1100
0010
0001
0100
0011
1000
0010
0100
1001
0010
0100
1000
0101
0010
0100
1000
,
0101
1000
0010
0100
1001
0100
0010
1000
0101
0010
0001
0100
0011
1000
0100
1000
,
0011
0100
0001
0010
0100
1010
0000
0000
0000
0000
0000
0110
0000
0000
0000
0000
,
1010
0001
0010
0001
1100
0010
0100
0001
1010
0100
1000
0010
1100
0001
0010
0100
,
0011
0100
1000
0010
1100
0001
0100
0010
1001
0100
0010
0001
1010
0100
0010
0001
,
0110
0001
0100
0010
1001
0010
0100
0001
1010
0100
1000
0010
1100
0001
0010
0001
,
1100
0010
1000
0100
1010
0001
0100
0001
1010
0100
1000
0001
1010
0100
0010
0001
,
1010
0000
0000
0000
;
