#TITLE:Drop Out;
#SUBTITLE:;
#ARTIST:NW260;
#TITLETRANSLIT:;
#SUBTITLETRANSLIT:;
#ARTISTTRANSLIT:;
#CREDIT:;
#BANNER:../Banner.png;
#BACKGROUND:../BG.png;
#LYRICSPATH:;
#CDTITLE:../CDTitleKIRBY.png;
#MUSIC:Drop Out.ogg;
#OFFSET:-0.038;
#SAMPLESTART:23.115;
#SAMPLELENGTH:12.000;
#SELECTABLE:YES;
#BPMS:0.000=260.000;
#STOPS:;
#BGCHANGES:;
// cache tags:
#FIRSTBEAT:0.000;
#LASTBEAT:436.000;
#SONGFILENAME:Songs/Index Fusion - Part 2/Drop Out - [Kirby5464]/Drop Out.sm;
#HASMUSIC:1;
#HASBANNER:1;
#MUSICLENGTH:100.842;
// end cache tags

//---------------dance-single - ----------------
#NOTES:
     dance-single:
     :
     Challenge:
     23:
     1.000,1.000,0.258,0.535,0.932,910.000,26.000,54.000,1.000,0.000:

2000
3000
0000
0000
,
0002
0003
0000
0000
,
0200
0300
0000
0000
,
0010
0100
0010
1000
0001
1000
0100
0010
0001
1000
0010
1000
0001
0000
0000
0000
,
2000
3000
0000
0000
,
0200
0300
0000
0000
,
0020
0030
0000
0000
,
0001
0010
0100
1000
0010
0100
0010
1000
0001
0100
0010
0100
0001
0000
0000
0000
,
1001
1010
0000
0000
,
0001
1000
0001
1000
0001
0000
0000
0000
,
1001
0011
0000
0000
,
1000
0100
0010
0001
0100
0010
0100
0001
1000
0001
0010
0100
1000
0000
0000
0000
,
0001
0010
0100
1000
0001
1000
0001
0010
,
0100
1000
0100
1000
0001
0010
0001
0010
,
0100
1000
0001
0010
0001
1000
0010
1000
,
0001
0010
0001
1000
0010
1000
0100
0010
0001
0100
0010
0100
0001
0000
0000
0000
,
1000
0100
0010
0001
1000
0100
1000
0001
,
0100
0001
1000
0000
0001
0000
0000
0000
,
0001
0010
0100
1000
0010
0100
0010
1000
,
0001
0010
0100
1000
0010
0100
0010
1000
,
0001
1000
0100
0010
0001
1000
0100
1000
,
0001
0100
0001
0010
0100
1000
0001
0100
,
0010
1000
0100
0010
0100
1000
0001
0010
,
0001
1000
0010
1000
0100
0010
0001
1000
,
0100
1000
0001
0010
0100
1000
0010
0100
,
0010
1000
0001
0100
0010
1000
0100
0010
,
0100
1000
0001
0010
0100
1000
0010
0100
,
0010
1000
0001
1000
0100
0010
0001
0100
,
0010
0100
0001
1000
0001
0010
0100
1000
,
0001
0010
0001
1000
0010
1000
0100
0010
0001
0100
0010
0100
0001
1000
0100
0010
0001
0100
0010
0100
0001
1000
0001
0100
,
0010
1000
0100
0010
0001
0100
0010
0100
,
0001
1000
0100
0010
0001
0100
0010
0100
,
0001
1000
0001
0010
0100
1000
0001
0010
,
0001
1000
0010
1000
0100
0010
0001
1000
,
0010
0100
0001
0010
0100
0010
0001
1000
,
0100
1000
0001
0100
0001
0010
0100
1000
,
0001
0010
0001
1000
0100
0010
0001
0100
,
0010
1000
0100
0010
0001
0100
0010
0100
0001
1000
0001
0010
0100
1000
0001
0010
0001
1000
0010
1000
0100
0010
0001
1000
,
0001
0100
0001
1000
0100
0010
0001
0100
,
0010
0100
0001
1000
0001
0010
0100
1000
,
0010
0100
0010
1000
0001
1000
0100
0010
,
0001
1000
0100
1000
0010
0100
0010
0000
,
1000
0100
0010
0001
1000
0100
1000
0001
,
0100
0001
1000
0000
0001
0000
0000
0000
,
0001
0010
0100
1000
0010
0100
0010
1000
,
0001
0010
0100
1000
0010
0100
0010
1000
,
0001
1000
0100
0010
0001
1000
0100
1000
,
0001
0100
0001
0010
0100
1000
0001
0100
,
0010
1000
0100
0010
0100
1000
0001
0010
,
0001
1000
0010
1000
0100
0010
0001
1000
,
0100
1000
0001
0010
0100
1000
0010
0100
,
0010
1000
0001
0100
0010
1000
0100
0010
,
0100
1000
0001
0010
,
0100
1000
0010
0100
,
0010
1000
0001
1000
,
0001
0010
0100
1000
0010
0100
0010
1000
0001
1000
0100
0010
0001
0100
0010
0100
,
0001
1000
0100
0010
0001
0100
0010
0100
,
0001
1000
0100
0010
0001
0100
0010
0100
,
0001
1000
0001
0010
0100
1000
0001
0010
,
0001
1000
0100
0010
0001
0100
0010
0100
0001
1000
0001
0010
0100
1000
0001
1000
,
0010
0000
1000
0100
0010
0100
1000
0001
,
0010
0001
1000
0010
1000
0100
0010
0001
,
1000
0100
1000
0001
0010
0100
1000
0010
,
0100
0000
0000
0001
0000
0000
0100
0010
1000
0001
1000
0100
0010
0001
1000
0100
1000
0001
0100
0001
0010
0100
1000
0001
,
1000
0001
1000
0001
0010
0100
1000
0010
,
0100
0010
1000
0001
1000
0100
0010
0001
,
0100
0010
0100
0001
1000
0001
0010
0100
,
1000
0001
0010
0001
0100
0010
1000
0100
,
0010
0001
0100
0010
0100
0001
1000
0001
,
0010
0100
1000
0001
0100
0010
1000
0100
,
0010
0100
1000
0001
0010
0001
0100
0001
,
1000
0000
0000
0001
0000
0000
1000
0100
0010
0001
0100
0010
0100
0001
1000
0001
0010
0100
1000
0010
0100
0001
0010
0100
,
1000
0010
0100
0010
1000
0001
0100
0000
0000
0001
0000
0000
1000
0000
0000
0100
0000
0000
1000
0000
0000
0001
0000
0000
,
0100
0001
0010
0100
1000
0001
1000
0010
,
0100
0010
1000
0100
0010
0100
1000
0001
,
0010
0001
1000
0001
1000
0100
0010
0001
,
1000
0010
0100
0000
0110
0000
1100
0000
,
0011
1010
0101
1001
,
1100
0110
0011
1010
,
0110
0101
1001
0110
,
1001
1100
0011
0110
,
1001
1100
0011
0110
,
0001
1000
0001
0100
0010
0100
0001
1000
,
0001
0010
0100
1000
0001
0010
0100
0010
,
0002
2003
3002
0000
0000
0000
0000
0000
,
0000
0000
0000
0000
,
0000
0000
1003
0100
0010
0100
1000
0001
,
0010
0001
1000
0010
1000
0100
0010
0001
,
0100
0010
0100
0001
1000
0001
0010
0100
,
1000
0010
0100
0001
0010
0100
0010
0001
,
1000
0000
0100
0000
1000
0001
0010
0100
1000
0010
0100
0010
1000
0001
1000
0100
,
0010
0001
0100
0010
0100
0001
0010
0001
1000
0010
1000
0100
0010
0001
1000
0010
,
0100
0001
0010
0100
0010
0001
1000
0100
1000
0001
0010
0100
1000
0010
0100
0001
,
0010
0100
1000
0010
0100
0001
1000
0001
0010
0100
1000
0001
1000
0010
0100
0010
,
1000
0100
0010
0001
0100
0000
0010
0000
1000
0000
0001
0000
0010
0000
0100
0000
,
1000
0001
0010
0001
1000
0010
1000
0100
,
0010
0001
1000
0010
1000
0100
0010
0001
,
0100
0010
0100
0001
1000
0001
0010
0100
,
1000
0000
0001
0000
1000
0010
1000
0100
0010
0001
1000
0010
0100
0001
0010
0100
,
0010
0001
1000
0100
1000
0001
0010
0100
1000
0010
0100
0001
0010
0100
1000
0010
,
0100
0001
1000
0001
0010
0100
1000
0001
1000
0010
0100
0010
1000
0100
0010
0001
,
0100
0010
0100
0001
1000
0001
0010
0100
1000
0010
0100
0010
1000
0100
1000
0001
,
0100
0001
0010
0100
1000
0001
0100
0010
2000
3200
0320
0230
2300
3002
0023
0032
,
2003
3200
0320
0032
0203
0320
2030
3200
0320
0032
0203
0320
2030
3002
2003
3200
,
0320
0032
2003
3002
0203
0320
0230
0302
0023
0230
2300
3002
0023
0032
2003
3200
,
0320
0032
0203
0320
0230
0000
0000
0000
0000
0000
0000
0000
0000
0000
0000
0000
,
0300
0000
0000
0000
,
0000
0000
0000
0000
,
0000
0000
0000
0000
,
00M0
0000
0000
0000
;

//---------------dance-single - ----------------
#NOTES:
     dance-single:
     :
     Hard:
     19:
     1.000,1.000,0.526,0.258,0.987,825.000,53.000,26.000,0.000,0.000:

0000
0000
0000
0000
,
0000
0000
0000
0000
,
0000
0000
0000
0000
,
0000
0000
0000
0000
,
1000
0100
1000
0100
1000
0100
1000
0100
,
1000
0002
1003
0002
0103
0001
0100
0001
,
0100
0010
1000
0100
0010
0001
0010
0100
,
1000
0100
0010
0001
0010
0100
1000
0001
0010
0001
1000
0100
0010
0001
1000
0001
,
1000
0000
0020
0030
1001
0000
0200
0300
,
0001
2000
3000
2000
3100
0010
0001
0010
,
0100
1000
0001
0000
1000
0000
2001
0000
,
0000
0010
0000
3010
0100
0000
0010
0000
,
1000
1001
0001
1000
,
0010
0100
0000
0100
0001
0000
1000
0000
,
0001
0000
2002
3003
1000
0000
0010
0000
,
0100
0001
0000
0001
1000
0100
0010
0001
,
1000
0100
1000
0001
0100
0001
1000
0100
,
1000
0001
0100
0001
2000
0000
0000
0000
,
3001
0000
1001
1000
0100
0000
0010
0001
,
1000
0000
0200
0000
1300
0000
0200
0000
1300
0000
0000
0000
1000
0001
1000
0001
,
1000
0000
0100
1000
0100
0000
0010
0001
,
0010
0200
1300
0200
1300
0100
0010
0001
,
0100
0000
0010
1000
0010
0000
0100
0001
,
0100
0000
0020
0000
1030
0000
0002
0000
1003
0000
0010
0000
1000
0001
1000
0001
,
1000
0000
1001
0001
1000
0000
0100
0010
,
0001
2000
3001
2000
3001
0000
0000
0000
,
1000
0100
1000
0000
0000
0000
0001
0010
0001
0000
0000
0000
1001
0000
0000
0000
,
0001
1000
0001
0000
0000
0000
1000
0001
1000
0000
0000
0000
1001
0000
0000
0000
,
1000
0010
1000
0000
0000
0000
0001
0100
0001
0000
0000
0000
1001
0000
0000
0000
,
1000
0100
1000
0000
0001
0000
0000
0000
1000
0000
0001
0000
0000
0000
0001
0000
,
1000
0100
0010
0001
0010
0100
1000
0010
,
1000
0010
1000
0001
0100
0001
0100
0010
,
1000
0100
0010
0001
0010
0100
1000
0100
,
0010
0110
0000
0100
0010
0001
1000
0001
,
1000
0100
1000
0000
0000
0000
0001
0010
0001
0000
0000
0000
1001
0000
0000
0000
,
0001
1000
0001
0000
0000
0000
1000
0001
1000
0000
0000
0000
1001
0000
0000
0000
,
1000
0010
1000
0000
0000
0000
0001
0100
0001
0000
0000
0000
1001
0000
0000
0000
,
1000
0100
1000
0000
0000
0000
0010
0001
0010
0000
0100
0000
0000
0000
0100
0000
,
1000
0010
1000
0001
0100
0020
1030
0020
,
1030
0001
0010
0100
1000
0200
0310
0002
,
0013
0100
1000
0100
0010
0002
1003
0002
,
1003
1001
0000
1000
0001
0000
0000
0000
,
0001
0010
0100
1000
0001
0010
0100
1000
,
0001
0000
0010
0000
0100
1000
0100
0010
0001
1000
0100
0010
0001
0010
0100
0010
,
0100
0000
1000
0010
0100
0000
0001
1000
,
0000
0000
1001
0000
0000
0000
1001
0000
0000
0000
0000
0000
0001
0010
0001
0010
,
0001
0000
1000
0010
1000
0000
0001
0100
,
0000
0000
0101
0000
0000
0000
1010
0000
0000
0000
0000
0000
1000
0100
1000
0100
,
1000
0000
1000
0010
1000
0000
0001
0100
,
0000
0000
0101
0000
0000
0000
1010
0000
0000
0000
0000
0000
0001
1000
0001
1000
,
0001
0000
0001
0010
0001
0000
0001
0010
,
0000
0011
0000
0110
0000
1100
0000
0000
,
0001
0010
0100
0010
0001
0010
0100
0010
0001
0000
0000
0000
0000
0000
0000
0000
,
1000
0100
0010
0100
1000
0100
0010
0100
1000
0000
0000
0000
0000
0000
0000
0000
,
0001
0100
0010
0100
0001
0100
0010
0100
0001
0000
0000
0000
0000
0000
0000
0000
,
1000
0010
0100
0010
1000
0010
0100
0010
1000
0000
0001
0000
0000
0000
0001
0000
,
4000
0000
0000
0000
0000
0000
0000
0000
3100
0010
0001
0010
0100
1000
0100
0010
,
0004
0000
0000
0000
0000
0000
0000
0000
1003
0010
0100
0010
1000
0001
0100
0010
,
4000
0000
0000
0000
0000
0000
0000
0000
3001
0010
0100
1000
0001
0010
0100
1000
,
0001
0010
0100
1000
0001
0001
1000
1000
,
0000
0000
1000
0010
1000
0010
1000
0001
,
0100
0001
0100
0010
1000
0100
0010
0001
,
0010
0100
1000
0010
1000
0100
0010
0001
,
1000
0010
1000
0001
0100
0010
1000
1001
,
0000
0000
1001
0000
1000
0100
0010
0001
0010
0000
0100
0000
0000
0000
0000
0000
,
1000
0010
1000
0010
1000
0001
1000
0001
1000
0000
0100
0000
0000
0000
0000
0000
,
0010
0000
0001
0000
1000
0010
0100
0001
0100
0000
0010
0000
0000
0000
0000
0000
,
1000
0001
1000
0001
1000
0010
1000
0010
1000
0000
0001
0000
0000
0000
0000
0000
,
0000
0000
0000
0000
0001
0010
0001
0010
0001
0000
1000
0000
0001
0000
1000
0000
,
0010
0000
1000
0000
0001
1000
0001
1000
0001
0000
0100
0000
0001
0000
1000
0000
,
0100
0000
0010
0000
0001
0010
0001
0010
0001
0000
0010
0000
0100
0000
1000
0000
,
0100
0010
0001
0010
0100
1000
0100
1000
0001
0000
0010
0000
0001
0000
1000
0000
,
0001
0000
1000
0000
0001
0010
0001
0010
0001
0000
0000
0000
0000
0000
1000
0000
,
0001
0010
0001
0010
0001
0000
0000
0000
1000
0010
1000
0001
1000
0000
0100
0000
,
0000
0000
0010
0000
0001
0010
0100
1000
0001
0000
1000
0100
0010
0001
0010
0000
,
0100
1000
0100
0000
0010
0001
0010
0000
0100
1000
0100
1000
0100
0000
0010
0000
,
0001
1000
1001
0000
1100
0000
0110
0000
,
0011
0000
1001
0000
0001
0000
0101
0001
,
0010
0100
1000
0100
0010
0001
0010
0100
,
1000
0001
0100
0001
1000
0100
0010
0001
,
1000
0100
1100
0000
1100
0000
0110
0000
,
0110
0000
0110
0000
0010
0000
1001
0001
,
0010
0100
1000
0100
0010
0001
0100
0001
,
0100
0010
1000
0010
0100
0010
1000
0010
,
1000
0000
0000
0000
1001
0000
0000
0000
0000
0000
0000
1000
0000
0000
0000
0000
,
0000
0000
0000
0000
0000
1000
0000
0000
0001
0100
0010
1000
0010
0100
0001
1000
,
0001
0010
0001
0010
0001
0000
0000
0000
1000
0100
1000
0100
1000
0000
0000
0000
,
0001
0100
0001
0100
0001
0000
0000
0000
1000
0010
1000
0010
1000
0000
0000
0000
,
0001
1000
0001
1000
0001
0000
0000
0000
1000
0010
0100
0010
1000
0000
0000
0000
,
0001
0100
0010
0100
0001
0000
0000
0000
1000
0100
0010
0100
1000
0000
0000
0000
,
0001
0010
0100
0010
0001
0000
0000
0000
1000
0010
0100
0010
1000
0000
0000
0000
,
0001
0100
0010
0100
0001
0000
0000
0000
1000
0100
0010
0001
0010
0000
0000
0000
,
0100
1000
0100
0010
0001
0000
0000
0000
1000
0010
0100
0001
0100
0000
0000
0000
,
0010
1000
0010
0100
0001
0000
0000
0000
1001
0000
0000
0000
0000
0000
0000
0000
,
0000
0000
0000
0000
1000
0100
1000
0100
0010
0001
0010
0001
1000
0010
1000
0010
,
0100
0001
0100
0001
0100
0010
0100
0010
0100
0001
0100
0001
1000
0010
1000
0010
,
0100
0010
0100
0010
1000
0010
1000
0010
1000
0001
1000
0001
1000
0100
0010
0001
,
1000
0100
0010
0001
1000
0100
0010
0001
1000
0100
0010
0001
0010
0100
0010
0001
,
0010
0100
1000
0100
1000
0100
0010
0100
0010
0100
0010
0001
1000
0001
1000
0001
,
1000
0010
1000
0010
0100
0001
0100
0001
0100
0010
0100
0010
1000
0010
1000
0010
,
1000
0010
0100
0010
1000
0010
0100
0010
1000
0010
0100
0010
1000
0010
0100
0010
,
1000
0001
0100
0010
0100
0001
0100
0001
0100
0001
0100
0010
0100
0000
0010
0000
,
1000
0001
0000
1100
0000
1100
0000
0110
,
0000
0110
0000
0011
0000
0011
0000
0101
,
0000
0101
0000
1010
0000
1010
0000
0010
,
0000
2002
0000
3003
0000
0000
0000
0000
;
