#TITLE:Metal Max Metal;
#SUBTITLE:Metal Max;
#ARTIST:S.S.H.;
#TITLETRANSLIT:;
#SUBTITLETRANSLIT:;
#ARTISTTRANSLIT:;
#CREDIT:;
#BANNER:MetalMaxMetal-Bn[1].jpg;
#BACKGROUND:MetalMaxMetal-Bg[1].jpg;
#LYRICSPATH:;
#CDTITLE:Toastmaster CD.png;
#MUSIC:metal_max_metal.mp3;
#OFFSET:0.080;
#SAMPLESTART:9.900;
#SAMPLELENGTH:11.000;
#SELECTABLE:YES;
#BPMS:0.000=117.500,21.000=123.020,52.500=2.081,52.563=51.561,52.625=62.160,52.750=88.381,52.875=97.581,53.000=123.021,338.500=124.001,343.000=123.021,370.375=131.001,372.000=123.021;
#STOPS:52.500=0.040
;
#BGCHANGES:;
// cache tags:
#FIRSTBEAT:0.250;
#LASTBEAT:375.250;
#SONGFILENAME:Songs/Astronomic Metal Collection 2/(To4stm4st3r) Metal Max Metal/Metal Max Metal.sm;
#HASMUSIC:1;
#HASBANNER:1;
#MUSICLENGTH:186.592;
// end cache tags

//---------------dance-single - ----------------
#NOTES:
     dance-single:
     :
     Challenge:
     13:
     1.000,1.000,1.000,0.155,1.000,1532.000,277.000,29.000,0.000,18.000:
0000
0000
1000
0100
0010
0001
1010
0100
1000
0100
0010
0001
0010
0100
1000
0100
0010
0001
0010
0100
1000
0100
0010
0001
0010
0100
1000
0100
0010
0001
0010
0100
,
1000
0100
0010
0001
0010
0100
1010
0000
0000
0000
0000
0000
1100
0000
0000
0000
0000
0000
0011
0000
0000
0000
0000
0000
1100
0000
0000
0000
0000
0000
0011
0000
,
0000
0000
1001
0000
0100
1000
0101
0010
0001
0010
0100
1000
0100
0010
0001
0010
0100
1000
0100
0010
0001
0010
0100
1000
0100
0010
0001
0010
0100
1000
0100
0010
,
0001
0000
0010
0000
0100
0000
0001
0000
0010
0000
0100
0000
1000
0000
0011
0000
0000
0000
0000
0000
0000
0000
0000
0000
0000
0000
0000
1010
0000
0000
0000
0000
0000
0000
0000
0000
0000
0000
0000
1001
0000
0000
0000
0000
0000
0000
0000
0000
0000
0000
0000
0101
0000
0000
0000
0000
0000
0000
0000
0000
0000
0000
0000
1100
,
0000
0000
0000
0000
0000
0000
0000
1010
0000
0000
0000
0000
0000
0000
0000
0101
0000
0000
0000
0000
0000
0000
0000
0000
0001
0000
0000
0000
0000
0000
0000
0000
0001
0000
0000
0000
0000
0000
0000
0000
0001
0000
0000
0000
0000
0000
0000
0000
0001
0000
0000
0000
0000
0000
0000
0000
0001
0000
0000
0000
0000
0000
0000
0000
,
0001
0000
1001
0000
0011
1100
0010
1000
0011
1000
0001
0100
1001
1010
0100
0010
,
0101
1000
0010
1000
0101
1010
0100
0010
1100
0001
1000
0110
1000
0001
1010
0100
,
0011
1100
0011
0000
0011
1100
0001
0010
1001
0100
1000
0001
1010
1001
0100
0001
,
0110
0000
0000
0000
0000
0000
0000
0000
0000
0000
0000
0000
1000
0000
0000
0000
0000
0000
0000
0000
0000
0000
0000
0000
0001
0000
0000
0000
0000
0000
0000
0000
0000
0000
0000
0000
0010
0000
0000
0000
0000
0000
0000
0000
0000
0000
0000
0000
1000
0000
0000
0000
0000
0000
0100
0000
0000
0000
0000
0000
0010
0000
0000
0000
0000
0000
0001
0000
0000
0000
0000
0000
1000
0000
0000
0000
0000
0000
0100
0000
0000
0000
0000
0000
0010
0000
0000
0000
0000
0000
0001
0000
0000
0000
0000
0000
1000
0000
0000
0000
0000
0000
0100
0000
0000
0000
0000
0000
0010
0000
0000
0000
0000
0000
0001
0000
0000
0000
0000
0000
1000
0000
0000
0000
0000
0000
0000
0000
0100
0000
0000
0000
0000
0000
0000
0000
0010
0000
0000
0000
0000
0000
0000
0000
0001
0000
0000
0000
0000
0000
1000
0000
0000
0000
0000
0000
0100
0000
0000
0000
0000
0000
0010
0000
0000
0000
0000
0000
0001
0000
0000
0000
0000
0000
0010
0000
0000
0000
0000
0000
0100
0000
0000
0000
0000
0000
1000
0000
0000
0000
0000
0000
,
0001
0010
0100
1000
0001
0010
0100
1000
0011
0000
1100
0000
0010
0000
0100
0000
0011
0000
1000
0000
0010
0000
0100
0000
1001
0000
1010
0000
0100
0000
0001
0000
,
1100
0010
0100
0001
1010
0101
0010
1000
0011
1000
0010
1100
0001
0100
1010
0001
,
1100
0011
1100
0000
0011
1100
0001
1000
0011
1000
0100
0010
1001
1100
0010
0100
,
0011
0000
1000
0000
0100
0000
0010
0000
0101
0010
0100
1000
0001
0010
0100
1000
0001
0010
0100
1000
0001
0010
0100
1000
0011
0000
1000
0000
0100
0000
0011
0000
,
1000
0000
0000
0000
0100
0000
0000
0000
0022
0000
0000
0000
0000
0000
0000
0033
1001
0000
0000
0000
0100
0000
0000
0000
0001
0000
0000
0000
0100
0000
0000
0000
0010
0000
0000
0000
1000
0000
0000
0000
0001
0000
0000
0000
0010
0000
0000
0000
0100
0000
0000
0000
1000
0000
0000
0000
0010
0000
0000
0000
0100
0000
0000
0000
,
0001
0010
1000
0100
0010
0001
1000
0100
0010
0001
0100
0010
1000
0100
0001
0010
,
0100
1000
0100
0001
1010
0001
0010
0100
1000
0010
0100
1000
0001
0100
0010
0100
,
0001
0010
0100
1000
0010
0100
0001
0010
1000
0001
0010
0100
1001
0010
0100
1001
,
0010
1000
0110
1000
0101
0010
1000
0001
1100
0010
0100
0001
1010
0100
0001
1000
,
0011
0100
0001
1000
0011
0100
0010
1000
0011
0100
0010
0100
1010
0100
0010
0001
,
1100
0010
0100
0001
0110
1000
0100
0001
1100
0010
0100
0001
1010
0100
0001
1000
,
0011
0000
0001
0000
0100
0000
1000
0000
0110
0000
0001
0000
0010
0000
0100
0000
1010
0000
0100
0000
0010
0000
0001
0000
1000
0010
1000
0010
1000
0010
1000
0010
,
2000
0000
3000
0000
0101
0010
1000
0100
0011
0100
0010
1000
0110
1000
0001
0100
,
1010
0100
0001
0010
1100
0010
0100
0010
1100
0001
0010
0100
1001
0010
0100
0001
,
1010
0100
0001
0010
1100
0001
0100
0010
0101
1000
0010
0100
0011
1000
0010
0100
,
0011
0000
1000
0000
0010
0000
0100
0000
0011
0000
1000
0000
0100
0000
0010
0000
0101
0000
0010
0000
0100
0000
1000
0000
0001
0100
0001
0100
0001
0100
0001
0100
,
0002
0000
0000
0000
0000
0000
0000
0003
0000
0000
0000
0000
1010
0000
0000
0000
0000
0000
0101
0000
0000
0000
0000
0000
1010
0000
0000
0000
0000
0000
1100
0000
,
0000
0000
0000
0000
0011
0000
0000
0000
0000
0000
0000
0000
1010
0000
0000
0000
0000
0000
0101
0000
0000
0000
0000
0000
0110
0000
0000
0000
0001
0010
0100
1000
,
0001
0000
0000
0000
0000
0000
0010
0000
0000
0000
0000
0000
0100
0000
0000
0000
0000
0000
1000
0000
0000
0000
0000
0000
0011
0000
0000
0000
0000
0000
0000
0000
1000
0000
0000
0000
0000
0000
0000
0000
0100
0000
0000
0000
0000
0000
0000
0000
1010
0000
0000
0000
0000
0000
0001
0000
0000
0000
0000
0000
0010
0000
0000
0000
0000
0000
0100
0000
0000
0000
0000
0000
1000
0000
0000
0000
0000
0000
0100
0000
0000
0000
0000
0000
0010
0000
0000
0000
0000
0000
0001
0000
0000
0000
0000
0000
0010
0000
0000
0000
0000
0000
0100
0000
0000
0000
0000
0000
1000
0000
0000
0000
0000
0000
0100
0000
0000
0000
0000
0000
0010
0000
0000
0000
0000
0000
0001
0000
0000
0000
0000
0000
0010
0000
0000
0000
0000
0000
0100
0000
0000
0000
0000
0000
1000
0000
0000
0000
0000
0000
0100
0000
0000
0000
0000
0000
0010
0000
0000
0000
0000
0000
0001
0000
0000
0000
0000
0000
1000
0000
0000
0000
0000
0000
0100
0000
0000
0000
0000
0000
0010
0000
0000
0000
0000
0000
0001
0000
0000
0000
0000
0000
,
1000
0100
0010
0001
1000
0100
0010
0001
1100
0000
0010
0000
2200
0000
3301
0000
0010
0000
0100
0000
1000
0000
0010
0000
0100
0000
0010
0000
1000
0000
0100
0000
,
0001
0010
0100
0001
1010
0100
0022
0133
0001
0010
1000
0010
0100
0001
0010
0100
,
1000
0010
0100
0010
1100
0001
0220
1330
0001
0100
0010
1000
0100
0010
0001
0100
,
0010
1000
0010
0100
0011
1000
0022
0133
0010
1000
0010
0100
1000
0010
0100
0001
,
0010
0001
0100
0001
2100
0010
0100
0001
0010
0100
0001
0100
0001
0010
0100
0010
,
3001
0010
1000
0010
0102
1000
0100
0010
0100
1000
0010
1000
0100
0010
1000
0010
,
0103
0001
0010
0100
1020
0001
0100
1000
0100
0001
1000
0001
0100
0001
1000
0100
,
1030
0010
0100
0001
2010
0100
0001
0010
0001
0100
0010
0100
0001
0010
0100
0001
,
3100
0010
1000
0100
1010
0001
1000
0100
0010
0001
1010
0100
0010
0001
1000
0100
,
1010
0001
1000
0100
0010
0001
1010
0100
0010
0001
0100
0001
1010
0100
1000
0010
,
0100
0001
1010
0100
0001
0010
1000
0010
0101
0010
0100
1000
0001
0010
0101
1000
,
0001
0010
0100
1000
0011
1000
0010
0100
0001
0010
1100
0001
0100
0010
1000
0010
,
1001
0100
0001
0100
0010
1000
0110
0001
1000
0010
0100
0001
1010
0100
0001
0010
,
0100
0000
0000
1000
0000
0000
0011
0000
0000
0100
0000
0000
0010
0000
0000
1000
0000
0000
0100
0000
0000
0010
0000
0000
1100
0000
0000
0010
0000
0000
0001
0000
0000
0100
0000
0000
0010
0000
0000
1000
0000
0000
0101
0000
0010
0000
0100
0000
,
1000
0000
0001
0000
0010
0000
0100
0000
1000
0000
0100
0000
0020
0000
0000
0000
0000
0000
0000
0000
0000
0000
0000
0000
2030
0000
0000
0000
0000
0000
0000
0000
0000
3100
0000
0000
0010
0000
0000
0001
0000
0000
0100
0000
0000
0010
0000
0000
,
0100
0001
0010
0100
1001
0010
0100
0010
1000
0100
0010
0001
1010
0100
0001
0010
,
0100
0000
0000
0010
0000
0000
0100
0000
0000
1000
0000
0000
0101
0000
0000
1000
0000
0000
0010
0000
0000
0100
0000
0000
1010
0000
0100
0000
0010
0000
0101
0000
1000
0000
0100
0000
1010
0000
0001
0000
0100
0000
0001
0000
1000
0000
0001
0000
,
0010
0000
0001
0000
0100
0000
0001
0000
0000
1000
0000
0000
0010
0000
0000
0100
0000
0000
0001
0000
0000
0010
0000
0000
1100
0000
0000
0010
0000
0000
0100
0000
0000
0001
0000
0000
0010
0000
0000
0100
0000
0000
1000
0000
0000
0010
0000
0000
,
0101
0010
1000
0100
0010
0001
0010
0001
1010
0100
1010
0100
1011
0000
1000
0110
,
0000
0001
0110
0000
0000
0001
0010
0100
1000
0100
0010
0001
1110
0000
0010
1100
,
0000
0001
0110
0000
0000
0001
1000
0010
0100
0001
0010
0100
1011
0000
0001
0110
,
0000
1000
0011
0000
0000
0001
1000
0100
0010
0001
0100
0010
1101
0000
0001
1010
,
0000
0100
0011
0000
1001
0100
0010
1100
0000
0010
0101
0001
1110
0000
0010
1100
,
0000
0001
0110
0000
0000
1100
0001
0100
0010
1000
0100
0010
1101
0000
0001
0110
,
0000
0010
1100
0000
0000
0110
0001
0100
0010
1000
0001
0100
1011
0000
1000
0110
,
0000
0001
1100
0000
0000
0110
0001
0100
0010
0100
0001
1000
0111
0000
1000
0011
,
0000
0100
1010
0000
0011
1000
0010
0101
0000
0010
1100
0000
0012
1003
0010
0100
,
0001
0100
0001
1000
0011
0100
0001
1000
0010
0100
0001
0010
0101
1000
0010
0100
,
0001
0010
0100
1000
0010
0100
0001
0010
0100
1000
0001
0100
0010
1000
0010
0100
,
0001
1000
0010
0100
0001
0010
0100
1000
0001
0100
0010
1000
0100
0010
0100
1000
,
0001
0000
0100
0000
0010
0000
0001
0000
1000
0100
0010
0001
1000
0100
0010
0001
1000
0100
0010
0001
1100
0000
0000
0000
1010
0000
0100
0000
0001
0000
0010
0000
,
0100
0001
0010
1000
0100
0001
0010
0100
1000
0010
0100
0001
0010
0100
0010
0001
,
1000
0010
0100
0001
0010
1000
0100
0010
0001
0100
0010
1000
0011
1000
0010
0100
,
0001
1000
0100
0010
0100
1000
0100
0010
0001
0001
0010
0100
0010
1000
0100
0010
,
0001
0000
0100
0000
0010
0000
1000
0000
0001
0010
0001
0010
0001
0010
0001
0010
0002
0000
0000
0000
0000
0000
0003
0000
1010
0000
0100
0000
0010
0000
0001
0000
,
1010
0100
0010
1000
0011
1000
0100
0010
1100
0001
0010
0100
0011
1000
0010
0100
,
1001
0010
0100
1000
0011
0100
0010
0100
1010
0001
0100
0010
1100
0010
1000
0010
,
1100
0001
0010
0100
1010
0100
0001
0010
1001
0100
0010
0001
1100
0001
0010
0100
,
0011
0000
1000
0000
0010
0000
0100
0000
0001
1000
0001
1000
0001
1000
0001
1000
0002
0000
0000
0000
0000
0000
0003
0000
0000
0000
0000
0000
0110
1000
0001
0000
,
0000
0000
0101
0010
1000
0000
0000
0000
1001
0010
1000
0000
0000
0000
0110
0001
1000
0000
0100
0000
1001
0000
0000
0000
0000
0000
0000
0000
1010
0100
0010
0000
,
0000
0000
0101
0010
1000
0000
0000
0000
0110
0000
0000
0000
1100
0000
0000
0000
0110
0000
0000
0000
0011
0000
0000
0000
0111
0000
1000
0000
0100
0000
0010
0000
,
0001
0010
1000
0100
0010
0001
0100
0010
1000
0001
1000
0010
0100
1000
0001
0010
,
0001
1000
0100
0010
0001
0010
0100
0010
0001
1000
0010
0100
1011
0100
0010
1000
,
0100
0010
0001
1000
0010
0100
0001
0100
0010
1000
0001
0100
0010
1000
0100
0010
,
0001
0100
0010
0100
1001
0010
0100
0011
1000
0100
1010
0001
1010
0100
0010
0001
,
1100
0010
0100
0001
1010
0100
0001
0010
0101
0010
1000
0100
0011
0100
0001
1000
,
0110
0001
1000
0100
0011
0100
0001
1000
0101
0010
1000
0001
1010
0100
0010
0001
,
0110
1000
0100
0010
1001
0100
0010
1000
0011
0010
0100
1000
0101
1000
0100
0010
,
0101
0000
0010
0000
0100
0000
0010
0000
1000
0010
1000
0010
1000
0010
1000
0010
2000
0000
0000
0000
0000
0000
0000
0000
3011
0000
1000
0000
0100
0000
0001
0000
,
1100
0010
0100
0001
1010
0100
0001
0100
0011
1000
0100
0010
0101
1000
0010
0100
,
0011
1000
0010
0100
1010
0100
0001
0010
0101
0010
1000
0100
0011
1000
0001
0100
,
1001
0010
1000
0100
1010
0001
1000
0010
0101
0010
1000
0010
1100
0001
0100
0010
,
1100
0000
0001
0000
0100
0000
0010
0000
0001
1000
0001
1000
0001
1000
0001
1000
0002
0000
0000
0000
0000
0000
0000
0000
1003
0000
1000
0000
0011
0000
0100
0000
,
0100
0011
1000
1000
0011
0100
0011
1000
0011
0100
1001
1001
0000
0000
0011
1000
,
1000
0000
0101
0000
0010
0000
0010
0000
1100
0000
0001
0000
1100
0001
0010
0100
1000
0001
0010
0100
1001
0000
0100
0000
1010
0100
0010
0001
0010
0100
1000
0100
,
0010
0001
0010
0100
1000
0100
0010
0001
0010
0100
1000
0100
0010
0001
0010
0100
1000
0100
0010
0001
0010
0100
1000
0100
0011
0000
0000
0000
0000
0000
0110
0000
,
0000
0000
0000
0000
1010
0000
0000
0000
0000
0000
0110
0000
0000
0000
0000
0000
0101
0000
0000
0000
1010
0001
0010
0100
1001
0100
0010
0001
0010
0100
1000
0100
,
0010
0001
0010
0100
1000
0100
0010
0001
0010
0100
1000
0100
0010
0001
0010
0100
1000
0100
0010
1000
0100
0010
0001
0010
1100
0000
0000
0000
0000
0000
0101
0000
,
0000
0000
0000
0000
1100
0000
0000
0000
0000
0000
1001
0000
0000
0000
0000
0000
0101
0000
0000
0000
1001
0000
0000
0000
0011
1000
0100
0010
0001
1000
0100
0010
,
0001
1000
0100
0010
0001
1000
0100
0010
0101
0000
0010
0000
1000
0000
0101
0000
0010
0000
1000
0000
0110
0000
1000
0000
0011
0000
0100
0000
0010
0000
1100
0000
,
0001
0000
0010
0000
1001
0000
0100
0000
0011
0000
1000
0000
0010
0000
1100
0010
0001
0000
0100
0000
1010
0001
0100
0000
1022
0000
0000
0000
0000
0000
0133
0000
,
0001
0000
0000
0000
0000
0000
0000
0000
1000
0000
0000
0000
0000
0000
0000
0000
0100
0000
0000
0000
0000
0000
0000
0000
0010
0000
0000
0000
0000
0000
0000
0000
0001
0000
0000
0000
0000
0000
0000
0000
1000
0000
0000
0000
0000
0000
0000
0000
0100
0000
0000
0000
0000
0000
0010
0000
0000
0000
0000
0000
0001
0000
0000
0000
0000
0000
0000
0000
0000
0000
0000
0000
1000
0000
0000
0000
0000
0000
0000
0000
0100
0000
0000
0000
0000
0000
0000
0000
0010
0000
0000
0000
0000
0000
0000
0000
0001
0000
0000
0000
0000
0000
0000
0000
0000
0000
0000
0000
1000
0000
0000
0000
0000
0000
0000
0000
0000
0000
0000
0000
0010
0000
0000
0000
0000
0000
1000
0000
0000
0000
0000
0000
0001
0000
0000
0000
0000
0000
0000
0000
0000
0000
0000
0000
0010
0000
0000
0000
0000
0000
0000
0000
0000
0000
0000
0000
0010
0000
0000
0000
0000
0000
1000
0000
0000
0000
0000
0000
0001
0000
0000
0000
0000
0000
0000
0000
0000
0000
0000
0000
0010
0000
0000
0000
0000
0000
0000
0000
0000
0000
0000
0000
,
0010
0000
0000
0000
0000
0000
1000
0000
0000
0000
0000
0000
0001
0000
0000
0000
0000
0000
0000
0000
0000
0000
0000
0000
0001
0000
0000
0000
0000
0000
0010
0000
0000
0000
0000
0000
1000
0000
0000
0000
0000
0000
0000
0000
0000
0000
0000
0000
0001
0000
0000
0000
0000
0000
0010
0000
0000
0000
0000
0000
1000
0000
0000
0000
0000
0000
0000
0000
0000
0000
0000
0000
0001
0000
0000
0000
0000
0000
0010
0000
0000
0000
0000
0000
1000
0000
0000
0000
0000
0000
0000
0000
0000
0000
0000
0000
0001
0000
0000
0000
0000
0000
0010
0000
0000
0000
0000
0000
1000
0000
0000
0000
0000
0000
0000
0000
0000
0000
0000
0000
0001
0000
0000
0000
0000
0000
0010
0000
0000
0000
0000
0000
1000
0000
0000
0000
0000
0000
0000
0000
0000
0000
0000
0000
0010
0000
0000
0000
0000
0000
0000
0000
0100
0000
0000
0000
0000
0000
0000
0000
0010
0000
0000
0000
0000
0000
0000
0000
0001
0000
0000
0000
0000
0000
0000
0000
0010
0000
0000
0000
0000
0000
0000
0000
0100
0000
0000
0000
0000
0000
0000
0000
,
1000
0000
0000
0000
0000
0000
0000
0000
0100
0000
0000
0000
0000
0000
0000
0000
0010
0000
0000
0000
0000
0000
0000
0000
0001
0000
0000
0000
0000
0000
0010
0000
0000
0000
0000
0000
0100
0000
0000
0000
0000
0000
1000
0000
0000
0000
0000
0000
0001
0000
0000
0000
0000
0000
0010
0000
0000
0000
0000
0000
0100
0000
0000
0000
0000
0000
1000
0000
0000
0000
0000
0000
0001
0000
0000
0000
0000
0000
0010
0000
0000
0000
0000
0000
0100
0000
0000
0000
0000
0000
1000
0000
0000
0000
0000
0000
0001
0000
0000
0000
0000
0000
0010
0000
0000
0000
0000
0000
0100
0000
0000
0000
0000
0000
1000
0000
0000
0000
0000
0000
0001
0000
0000
0000
0000
0000
0010
0000
0000
0000
0000
0000
0100
0000
0000
0000
0000
0000
1000
0000
0000
0000
0000
0000
0001
0000
0000
0000
0000
0000
0000
0000
0000
0000
0000
0000
0010
0000
0000
0000
0000
0000
0000
0000
0000
0000
0000
0000
0100
0000
0000
0000
0000
0000
0000
0000
0000
0000
0000
0000
0001
0000
0000
0000
0000
0000
0000
0000
0000
0000
0000
0000
,
1000
0000
0010
0000
0001
0000
0000
0000
0100
0000
0000
0000
0000
1000
0000
0000
0000
0000
0000
2002
0000
0000
0000
0000
0000
0000
0000
0000
0000
0000
0000
0000
,
3003
0000
2121
0000
0000
0000
0000
0000
0000
0000
0000
0000
0000
3030
0000
0000
;
