#TITLE:Cruel Whole;
#SUBTITLE:(Abelcain Remix);
#ARTIST:Venetian Snares;
#TITLETRANSLIT:;
#SUBTITLETRANSLIT:;
#ARTISTTRANSLIT:;
#CREDIT:;
#BANNER:CH-Banner.jpg;
#BACKGROUND:CH-Bg.jpg;
#LYRICSPATH:;
#CDTITLE:cdtitle.jpg;
#MUSIC:Cruel Whole (Abelcain Remix).mp3;
#OFFSET:-5.540;
#SAMPLESTART:28.769;
#SAMPLELENGTH:11.700;
#SELECTABLE:YES;
#BPMS:0.000=165.100;
#STOPS:;
#BGCHANGES:;
// cache tags:
#FIRSTBEAT:0.000;
#LASTBEAT:187.500;
#SONGFILENAME:Songs/Community Keyboard Megapack - Volume 3/(DanTheMan650) Cruel Whole (Abelcain Remix)/Cruel Whole (Abelcain Remix).sm;
#HASMUSIC:1;
#HASBANNER:1;
#MUSICLENGTH:79.386;
// end cache tags

//---------------dance-single - Copied from----------------
#NOTES:
     dance-single:
     Copied from:
     Challenge:
     13:
     1.000,1.000,1.000,0.202,1.000,471.000,131.000,16.000,0.000,0.000:
0001
0001
0001
1010
0000
0000
0110
0000
0010
0100
0020
0030
0000
0000
0000
0000
,
1000
1000
1000
0110
0000
0000
0001
0001
0001
0110
0000
0000
0000
0000
0000
0000
,
1000
1000
1000
0110
0000
0000
0110
0000
0001
1000
0000
0000
0010
0010
0010
0010
,
0001
0001
0001
0101
0000
0000
1000
1000
1000
0101
0000
0000
0000
0000
0000
0000
,
0100
0100
0100
1010
0000
0000
1000
0000
0100
0010
0002
0000
0003
0000
0000
0000
,
0010
0010
0010
0101
0000
0000
0100
0100
0100
1010
0000
0000
0000
0000
0000
0000
,
0100
0100
0100
0011
0000
0000
0010
0000
0010
0100
0000
0000
1000
1000
1000
1000
,
0110
0110
0110
0110
0000
0000
0010
0010
0010
0202
0000
0303
0000
0000
0000
0000
,
1000
1000
1000
0101
0000
0000
0010
0000
0001
2000
3000
0000
0000
0000
0000
0000
,
0001
0001
0001
1010
0000
0000
1000
1000
1000
0110
0000
0000
0000
0000
0000
0000
,
1010
0100
0100
1010
0000
0000
1010
0000
0100
0010
0101
0000
0100
0100
0100
0100
,
0001
0001
0001
1100
0000
0000
0100
0100
0100
1010
0000
0000
0000
0000
0000
0000
,
0100
0100
0100
0011
0000
0000
1000
0000
0100
0010
0002
0003
0000
0000
0000
0000
,
0010
0010
0010
0101
0000
0000
1000
1000
1000
0011
0000
0000
0000
0000
0000
0000
,
0001
0001
0001
0110
0000
0000
1000
0000
0100
0010
0000
0000
0010
0010
0010
0010
,
0100
0100
0100
1010
0000
1010
0100
0100
0100
1010
0000
0000
1000
0001
1000
0001
,
0010
0010
0010
0101
0000
0000
0010
0000
1000
0001
0000
0000
0110
0000
0000
0000
,
1000
1000
1000
0110
0000
0001
0010
0010
0010
0101
0000
0010
1000
0100
0010
0001
,
1010
1010
1010
1010
0000
0000
1010
0000
0100
0010
0000
0000
1000
1000
1000
1000
,
0101
0100
0100
1001
0000
0000
0010
0010
0010
1001
0000
0000
0001
0010
0100
1000
,
0100
0100
0100
0011
0000
0000
1100
0000
0010
0100
0020
0000
0030
0000
0000
0000
,
1000
1000
1000
0110
0000
0000
0001
0001
0001
0110
0000
0000
0010
0010
0010
0010
,
0100
0100
0100
1001
0000
0000
1000
0000
0100
0010
0001
0000
0010
0010
0010
0010
,
0100
0000
1000
0110
0000
0000
0010
0010
0010
0101
0000
0000
0010
0100
1000
0100
,
0010
0010
0010
0101
0000
0000
1010
0000
1000
0100
0010
0000
2000
0000
3010
0001
,
1000
1000
1000
0101
0000
0000
0101
0000
1010
1010
0100
0000
0011
0000
0100
0000
,
0010
0010
0010
0101
0000
0000
1001
0000
1000
0001
0100
0000
1010
0010
0010
0010
,
0010
0000
0010
1001
0000
0000
0010
0000
0010
1001
0000
0000
1000
0010
0100
0001
,
0010
0000
1000
0110
0000
0000
0001
0000
1000
0001
0100
0010
0100
0000
0000
0000
,
1010
0000
0000
0110
0000
0000
0010
0000
0000
0010
0000
0000
0010
0101
0010
0010
,
0010
0010
0010
0101
0000
0000
0001
0000
0001
0010
0100
0000
0001
0001
0001
0001
,
0001
0001
0001
0001
1001
1001
1001
0001
0001
0001
0001
0001
1001
1001
1001
1001
,
0110
0010
0010
0101
0000
0000
0101
0000
0010
0100
0000
0000
0020
0000
0030
0000
,
1000
1000
1000
0110
0000
0000
0010
0010
0010
0101
0000
0000
1000
0100
1000
0010
,
0101
0101
0101
1010
0000
0000
0100
0000
0010
0001
0000
0000
0010
0010
0010
0010
,
1100
0100
0100
1010
0000
0000
0101
0010
0010
0101
0000
0000
1001
0010
0100
1000
,
0110
0010
0010
0101
0000
0000
1001
0000
1000
0100
0012
0000
0000
0003
0000
0000
,
1000
1000
0110
0011
0000
0000
0011
0010
0110
1100
0000
0000
0001
0001
0001
0001
,
1010
0010
0010
0101
0000
0000
1010
0000
0100
0010
0101
0000
1000
1000
1000
1000
,
0100
0100
0100
1010
0000
0000
0001
0001
0001
0110
0000
0000
1000
0001
0100
0010
,
1000
1000
1000
0101
0000
0000
0101
0000
0010
1000
0000
0000
0200
0300
0011
0011
,
0100
0000
0000
1010
0000
0000
1010
0000
1010
1010
0000
0000
2020
0000
0000
3030
,
0001
0001
0001
0110
0000
0000
0101
0000
1010
1010
0200
0300
1000
1000
1000
1000
,
0100
0100
0100
1010
0000
0000
0010
0010
0010
0101
0000
0000
0001
0010
0001
0100
,
0010
0010
0010
0101
0000
0000
1010
0000
1000
0100
0011
0011
0011
0000
0000
0000
,
1010
0000
0000
0100
0000
0000
1001
0000
0000
1001
0000
0000
1001
0100
0010
0010
,
0010
0010
0010
0101
0000
0000
0220
0000
0000
0000
0000
0000
0000
0000
0330
0000
;

//---------------dance-single - Copied from Copied f----------------
#NOTES:
     dance-single:
     Copied from Copied f:
     Hard:
     11:
     1.000,0.945,1.000,0.202,1.000,471.000,104.000,16.000,0.000,0.000:
0001
1000
0001
1010
0000
0000
0110
0000
0010
0100
0020
0030
0000
0000
0000
0000
,
1000
0001
1000
0110
0000
0000
0001
0100
0001
0110
0000
0000
0000
0000
0000
0000
,
1000
0010
1000
0110
0000
0000
0110
0000
0001
1000
0000
0000
1000
0010
1000
0100
,
1000
0010
1000
0101
0000
0000
1000
0010
1000
0101
0000
0000
0000
0000
0000
0000
,
0100
0001
0100
1010
0000
0000
1000
0000
0100
0010
0002
0000
0003
0000
0000
0000
,
0010
1000
0010
0101
0000
0000
0100
0010
0100
1010
0000
0000
0000
0000
0000
0000
,
0100
0001
0100
0011
0000
0000
0010
0000
0010
0100
0000
0000
1000
0010
1000
0010
,
0100
0001
0100
0001
0000
0000
0010
1000
0010
0202
0000
0303
0000
0000
0000
0000
,
1000
0010
1000
0101
0000
0000
0010
0000
0001
2000
3000
0000
0000
0000
0000
0000
,
0001
0100
0001
1010
0000
0000
1000
0100
1000
0110
0000
0000
0000
0000
0000
0000
,
1010
0100
0010
1001
0000
0000
1010
0000
0100
0010
0101
0000
0100
0001
0100
0001
,
1000
0010
1000
0110
0000
0000
0100
0010
0100
1010
0000
0000
0000
0000
0000
0000
,
0100
0001
0100
0011
0000
0000
1000
0000
0100
0010
0002
0003
0000
0000
0000
0000
,
0010
1000
0010
0101
0000
0000
1000
0010
1000
0011
0000
0000
0000
0000
0000
0000
,
0001
0010
0001
0110
0000
0000
1000
0000
0100
0010
0000
0000
0010
1000
0010
1000
,
0001
0100
0001
1010
0000
1010
0100
1000
0100
1010
0000
0000
1000
0001
1000
0001
,
0010
0001
0010
0101
0000
0000
0010
0000
1000
0001
0000
0000
0110
0000
0000
0000
,
1000
0001
1000
0110
0000
0001
0010
0100
0010
0101
0000
0010
1000
0100
0010
0001
,
1000
0010
1000
0010
0000
0000
1010
0000
0100
0010
0000
0000
0010
1000
0010
1000
,
0101
0010
0100
1001
0000
0000
0010
0100
0010
1001
0000
0000
0001
0010
0100
1000
,
0100
0001
0100
0011
0000
0000
1100
0000
0010
0100
0020
0000
0030
0000
0000
0000
,
1000
0001
1000
0110
0000
0000
0001
0100
0001
0110
0000
0000
0010
0100
0010
0100
,
0010
1000
0100
1001
0000
0000
1000
0000
0100
0010
0001
0000
0010
1000
0010
1000
,
0100
0000
1000
0110
0000
0000
0010
0001
0010
0101
0000
0000
0010
0100
0001
0100
,
0010
1000
0010
0101
0000
0000
1010
0000
1000
0100
0010
0000
2000
0000
3010
0001
,
1000
0010
1000
0101
0000
0000
0101
0000
1000
0010
0100
0000
0011
0000
0100
0000
,
0010
0100
0010
0101
0000
0000
1001
0000
1000
0001
0100
0000
1010
0100
1000
0100
,
1000
0000
0010
1001
0000
0000
0010
0000
0010
1001
0000
0000
1000
0010
0100
0001
,
0010
0000
1000
0110
0000
0000
0001
0000
1000
0001
0100
0010
0100
0000
0000
0000
,
1010
0000
0000
0110
0000
0000
0010
0000
0000
0010
0000
0000
0010
0101
0010
0100
,
0010
0100
0010
0101
0000
0000
0001
0000
0001
0010
0100
0000
0001
1000
0001
1000
,
0001
1000
0001
1000
0001
1000
0001
1000
0001
1000
0001
1000
0001
1000
0001
1000
,
0110
1000
0010
0101
0000
0000
0101
0000
0010
0100
0000
0000
0020
0000
0030
0000
,
1000
0010
1000
0110
0000
0000
0010
1000
0010
0101
0000
0000
1000
0100
1000
0010
,
0100
0001
0100
1010
0000
0000
0100
0000
0010
0001
0000
0000
1000
0010
1000
0010
,
1100
0010
0100
1010
0000
0000
0101
0010
1000
0101
0000
0000
1001
0010
0100
1000
,
0110
0001
0010
0101
0000
0000
1001
0000
1000
0100
0012
0000
0000
0003
0000
0000
,
1000
0010
0100
0011
0000
0000
0011
0100
0010
1100
0000
0000
0001
0100
0001
0100
,
1010
0100
0010
0101
0000
0000
1010
0000
0100
0010
0101
0000
1000
0010
1000
0010
,
0100
0001
0100
1010
0000
0000
0001
0100
0001
0110
0000
0000
1000
0001
0100
0010
,
1000
0100
1000
0101
0000
0000
0101
0000
0010
1000
0000
0000
0200
0300
0010
0001
,
0100
0000
0000
1010
0000
0000
1010
0000
1010
1010
0000
0000
2020
0000
0000
3030
,
0001
1000
0001
0110
0000
0000
0101
0000
1010
1010
0200
0300
1000
0010
1000
0010
,
0100
0001
0100
1010
0000
0000
0010
1000
0010
0101
0000
0000
0001
0010
0001
0100
,
0010
1000
0010
0101
0000
0000
1010
0000
1000
0100
0010
0001
0010
0000
0000
0000
,
1010
0000
0000
0100
0000
0000
1001
0000
0000
1001
0000
0000
1001
0100
0010
1000
,
0010
1000
0010
0101
0000
0000
0220
0000
0000
0000
0000
0000
0000
0000
0330
0000
;
