#TITLE:The Battle;
#SUBTITLE:(From Final Fantasy V);
#ARTIST:植松伸夫;
#TITLETRANSLIT:;
#SUBTITLETRANSLIT:;
#ARTISTTRANSLIT:Nobuo Uematsu;
#CREDIT:;
#BANNER:The Battle-bn.bmp;
#BACKGROUND:The Battle-bg.bmp;
#LYRICSPATH:;
#CDTITLE:!2ndMix.png;
#MUSIC:07 - The Battle.mp3;
#OFFSET:-0.061;
#SAMPLESTART:37.147;
#SAMPLELENGTH:24.000;
#SELECTABLE:YES;
#BPMS:0.000=161.460;
#STOPS:;
#BGCHANGES:;
// cache tags:
#FIRSTBEAT:3.500;
#LASTBEAT:180.500;
#SONGFILENAME:Songs/cedric step/The Battle (FFV)/The Battle.sm;
#HASMUSIC:1;
#HASBANNER:1;
#MUSICLENGTH:74.710;
// end cache tags

//---------------dance-single - ----------------
#NOTES:
     dance-single:
     :
     Easy:
     4:
     0.260,0.242,0.000,0.000,0.000,136.000,0.000,0.000,0.000,0.000:
0000
0000
0000
0000
,
0000
0000
0000
0000
,
0000
0000
0000
0000
0000
0000
0000
0001
,
0000
1000
0000
0001
0000
1000
0000
0010
,
0000
0000
0000
1000
0000
0000
0000
0001
,
0000
0000
0000
0100
0000
0000
0000
0010
,
0000
0000
0000
1000
0000
0000
0000
0001
,
0000
0100
0000
0010
0000
1000
0000
0000
,
0000
0100
0000
0000
0000
0010
0000
0001
,
0000
0000
0000
1000
0000
0000
0000
0001
,
0000
0000
0000
0100
0000
0000
0000
0010
,
0000
1000
0000
0100
0000
1000
0000
0100
,
0000
1000
0000
0100
0000
0010
0000
1000
,
0000
0010
0000
1000
0000
0001
0000
1000
,
0000
0100
0000
0010
0000
0001
0000
1000
,
0000
0001
0000
0100
0000
0010
0000
1000
,
0000
0010
0000
0100
0000
0001
0000
0100
,
0000
0001
0000
1000
0000
0010
0000
0100
,
0000
0001
0000
1000
0000
0010
0000
0100
,
0000
0001
0000
1000
0000
0010
0000
0100
,
0000
0001
0000
1000
0000
0010
0000
0100
,
0000
0001
0000
1000
0000
0100
0000
0010
,
0000
0001
0000
1000
0000
0001
0000
0100
,
0000
0010
0000
1000
0000
0001
0000
1000
,
0000
0000
0000
0001
0000
0000
0000
0100
,
0000
0000
0000
0010
0000
0000
0000
1000
,
0000
0000
0000
0001
0000
0000
0000
0100
,
0000
0001
0000
0100
0000
0001
0000
0010
,
0000
0000
0000
1000
0000
0000
0000
0100
,
0000
0000
0000
0001
0000
0000
0000
1000
,
0000
0000
0000
0010
0000
0000
0000
0100
,
0000
0001
0000
1000
0000
0010
0000
0100
,
0000
0001
0000
0100
0000
0001
0000
1000
,
0000
0010
0000
0100
0000
0001
0000
1000
,
0000
0001
0000
1000
0000
0100
0000
1000
,
0000
0100
0000
0010
0000
0001
0000
1000
,
0000
0001
0000
1000
0000
0001
0000
0100
,
0000
0010
0000
1000
0000
0010
0000
0100
,
0000
0001
0000
1000
0000
0100
0000
1000
,
0000
0000
0000
0100
0000
0000
0000
0010
,
0000
0000
0000
0001
0000
0000
0000
1000
,
0000
0000
0000
0001
0000
0000
0000
0100
,
0000
0000
0000
0010
0000
0000
0000
1000
,
0000
0100
0000
0010
0000
1000
0000
0001
,
0000
1000
0000
0000
0000
0001
0000
0000
,
0000
0100
0000
0000
0000
0000
0000
0000
;

//---------------dance-single - Copied from----------------
#NOTES:
     dance-single:
     Copied from:
     Beginner:
     2:
     0.130,0.121,0.000,0.000,0.000,68.000,0.000,0.000,0.000,0.000:
0000
0000
0000
0000
,
0000
0000
0000
0000
,
0000
0000
0000
0000
0000
0000
0000
0001
,
0000
0000
0000
0001
0000
0000
0000
0010
,
0000
0000
0000
0000
0000
0000
0000
0001
,
0000
0000
0000
0000
0000
0000
0000
0010
,
0000
0000
0000
0000
0000
0000
0000
0001
,
0000
0000
0000
0010
0000
0000
0000
0000
,
0000
0100
0000
0000
0000
0000
0000
0001
,
0000
0000
0000
0000
0000
0000
0000
0001
,
0000
0000
0000
0000
0000
0000
0000
0010
,
0000
1000
0000
0000
0000
1000
0000
0000
,
0000
1000
0000
0000
0000
0010
0000
0000
,
0000
0010
0000
0000
0000
0001
0000
0000
,
0000
0100
0000
0000
0000
0001
0000
0000
,
0000
0001
0000
0000
0000
0010
0000
0000
,
0000
0010
0000
0000
0000
0001
0000
0000
,
0000
0001
0000
0000
0000
0010
0000
0000
,
0000
0001
0000
0000
0000
0010
0000
0000
,
0000
0001
0000
0000
0000
0010
0000
0000
,
0000
0001
0000
0000
0000
0010
0000
0000
,
0000
0001
0000
0000
0000
0100
0000
0000
,
0000
0001
0000
0000
0000
0001
0000
0000
,
0000
0010
0000
0000
0000
0001
0000
0000
,
0000
0000
0000
0000
0000
0000
0000
0100
,
0000
0000
0000
0000
0000
0000
0000
1000
,
0000
0000
0000
0000
0000
0000
0000
0100
,
0000
0000
0000
0100
0000
0000
0000
0010
,
0000
0000
0000
0000
0000
0000
0000
0100
,
0000
0000
0000
0000
0000
0000
0000
1000
,
0000
0000
0000
0000
0000
0000
0000
0100
,
0000
0000
0000
1000
0000
0000
0000
0100
,
0000
0000
0000
0100
0000
0000
0000
1000
,
0000
0000
0000
0100
0000
0000
0000
1000
,
0000
0000
0000
1000
0000
0000
0000
1000
,
0000
0000
0000
0010
0000
0000
0000
1000
,
0000
0000
0000
1000
0000
0000
0000
0100
,
0000
0000
0000
1000
0000
0000
0000
0100
,
0000
0000
0000
1000
0000
0000
0000
1000
,
0000
0000
0000
0000
0000
0000
0000
0010
,
0000
0000
0000
0000
0000
0000
0000
1000
,
0000
0000
0000
0000
0000
0000
0000
0100
,
0000
0000
0000
0000
0000
0000
0000
1000
,
0000
0000
0000
0010
0000
0000
0000
0001
,
0000
0000
0000
0000
,
0000
0100
0000
0000
0000
0000
0000
0000
;

//---------------dance-single - Copied from----------------
#NOTES:
     dance-single:
     Copied from:
     Medium:
     5:
     0.386,0.362,0.000,0.000,0.000,202.000,0.000,0.000,0.000,0.000:
0000
0000
0000
0000
,
0000
0000
0000
0000
,
0000
0000
0000
0000
0000
0000
0000
0001
,
0100
0001
0100
0001
0100
0001
0100
0001
,
0000
0010
0000
0001
0000
1000
0000
0001
,
0000
0100
0000
0010
0000
1000
0000
0001
,
0000
0100
0000
0010
0000
1000
0000
0001
,
0100
0001
0000
0001
0010
0001
0000
0001
,
0000
1000
0000
0001
0000
0100
0000
0010
,
0000
1000
0000
0001
0000
0100
0000
0001
,
0000
0100
0000
0010
0000
1000
0000
0010
,
0100
0010
0000
1000
0100
1000
0000
0100
,
0010
0100
0000
0010
0001
0010
0000
1000
,
0100
1000
0000
1000
0000
0001
0000
1000
,
0100
1000
0000
0010
0100
0010
0000
0001
,
1000
0001
0000
0100
0000
0010
0000
1000
,
0100
1000
0000
0100
0000
0001
0000
0100
,
0010
0100
0000
0001
0000
0010
0000
0100
,
1000
0100
0000
1000
0000
0010
0000
0100
,
0001
0100
0000
1000
0000
0010
0000
0100
,
0000
0001
0000
1000
0000
0010
0000
0100
,
0000
0001
0000
1000
0000
0100
0000
0010
,
0000
0001
0000
1000
0000
0001
0000
0100
,
0010
0100
0000
0100
0001
0100
0000
0100
,
0000
0001
0000
1000
0000
0100
0000
0010
,
0000
1000
0000
0010
0000
0100
0000
1000
,
0000
0100
0000
0001
0000
0010
0000
0100
,
0001
0100
0000
0100
0001
0100
0000
0010
,
0000
0100
0000
1000
0000
1000
0000
0100
,
0000
0001
0000
1000
0000
0100
0000
0010
,
0000
0100
0000
0001
0000
0100
0000
0001
,
0100
0001
0000
1000
0100
1000
0000
0100
,
0001
0100
0000
0100
0000
0001
0000
1000
,
0010
1000
0000
0100
0001
0100
0000
1000
,
0100
1000
0000
1000
0000
0100
0000
1000
,
0000
0100
0000
0010
0000
0001
0000
1000
,
0001
1000
0000
1000
0000
0001
0000
0100
,
0010
0100
0000
1000
0000
0010
0000
0100
,
0001
0100
0000
1000
0000
0100
0000
1000
,
0100
1000
0000
0100
0000
0010
0000
0001
,
0000
1000
0000
0001
0000
0100
0000
0001
,
0000
0010
0000
0100
0000
1000
0000
0100
,
0000
1000
0000
0010
0000
1000
0000
0010
,
0000
0100
0000
0010
0000
1000
0000
0001
,
0000
1000
0000
0100
0000
0001
0000
0010
,
0000
0100
0000
0000
0000
0000
0000
0000
;

//---------------dance-single - Copied from Copied f----------------
#NOTES:
     dance-single:
     Copied from Copied f:
     Hard:
     7:
     0.516,0.509,0.000,0.000,0.000,270.000,0.000,0.000,0.000,0.000:
0000
0000
0000
0000
,
0000
0000
0000
0000
,
0000
0000
0000
0000
0000
0000
0000
1000
,
0100
0010
0001
0010
0100
1000
0001
1000
,
0000
0000
1000
0000
0001
0000
0100
0010
,
0100
0010
1000
0010
1000
0010
0100
0001
,
0100
0001
0010
1000
0010
1000
0000
0001
,
0010
0100
1000
0100
0010
0001
1000
0001
,
0000
0000
0001
0000
1000
0000
0000
0100
,
0000
1000
0100
1000
0100
0010
0001
0010
,
0001
1000
0001
1000
0010
1000
0000
1000
,
0100
0010
0001
0010
0100
1000
0010
0001
,
0010
1000
0100
1000
0000
0001
0000
0001
,
0010
0100
1000
0100
0010
0001
0100
1000
,
0100
0001
0010
0001
0000
0010
0000
0001
,
1000
0001
0000
0100
0000
0010
1000
0010
,
1000
0010
0000
0100
0000
0001
0000
0100
,
0010
0100
0001
0100
1000
0100
0010
0100
,
0001
0010
0001
0010
0001
0010
0000
0100
,
0000
0000
1000
0000
0000
0010
0000
0100
,
0000
0000
0001
1000
0000
0010
0000
0100
,
0000
0001
0100
0001
0100
0001
0000
1000
,
0100
0010
0001
0010
0100
1000
0000
0001
,
0010
0100
1000
0100
0010
0001
1000
0001
,
0000
0001
1000
0010
,
0000
0001
0100
0001
0100
0010
0100
0010
,
0100
0001
1000
0001
1000
0100
0001
0100
,
0001
0100
0010
0100
1000
0100
0010
0100
,
0000
0000
0001
0000
1000
0000
0001
0100
,
0000
0001
0100
0001
0000
0100
1000
0100
,
0000
0010
0001
0010
0001
0010
0001
1000
,
0100
0010
0001
0010
0100
1000
0010
0001
,
0010
1000
0100
1000
0000
0001
0000
0001
,
0010
0100
1000
0100
0010
0001
0100
1000
,
0100
0001
0100
0001
0000
1000
0000
1000
,
0100
0010
0001
0010
0100
1000
0001
0010
,
0100
1000
0100
0010
0001
1000
0100
0010
,
0100
1000
0001
0010
0100
0010
0001
1000
,
0100
0010
0001
0010
0100
1000
0001
1000
,
0000
0000
1000
0100
0000
0010
0000
0001
,
0100
1000
0000
0001
0000
0100
0000
0001
,
0000
0010
0000
0100
0000
1000
0000
1000
,
0010
1000
0001
1000
0010
1000
0100
0010
,
0001
0010
0100
1000
0010
0001
0010
1000
,
0000
0001
1000
0001
;

//---------------dance-single - Copied from Copied f----------------
#NOTES:
     dance-single:
     Copied from Copied f:
     Challenge:
     8:
     0.642,0.599,1.000,0.000,0.067,261.000,75.000,0.000,0.000,0.000:
0000
0000
0000
0000
0000
0000
0000
0000
0000
0000
0000
0000
0000
0000
1000
0100
,
1000
0000
0100
0000
0010
0000
0001
1000
0001
0000
0100
0000
0010
0000
1000
0100
,
1000
0000
0100
0000
0010
0000
0001
0100
0001
0000
0010
0000
0001
0000
1000
0000
,
0100
0010
0001
0010
0100
1000
0010
0001
,
0010
1000
0100
0000
0101
0000
1010
0000
,
0000
0000
0000
0000
0001
0100
0001
0000
0000
0000
0101
0000
0000
0000
1010
0000
,
0000
0101
0000
1010
0000
0011
0000
1100
,
1000
0001
1000
0110
0100
0001
0100
0011
,
0000
0000
1010
0000
0101
0000
0010
1000
,
0000
0000
0000
0000
0001
0100
0001
0000
0000
0000
0101
0000
0000
0000
1010
0000
,
0000
0001
0000
0100
0000
0010
0000
1001
,
0100
0010
0100
1001
0010
0100
0010
1001
,
0100
0010
0100
1001
0000
0101
0000
0110
,
1000
0001
1000
0110
0001
1000
0001
0110
,
1000
0001
1000
0110
0000
1100
0000
0001
,
0100
0010
1000
0001
0100
0010
1000
0101
,
0000
1001
0000
0101
0000
1001
0000
0110
,
0100
0010
1000
0101
0001
0100
0010
1010
,
1000
0010
0100
0101
0000
0010
0000
0100
,
0000
1000
1100
0000
0000
0010
0000
0100
,
0000
0001
0101
0000
0000
0010
0000
0100
,
0000
0101
0000
1001
0000
0101
0000
0001
,
0010
0001
0010
0001
0000
0001
0000
0100
,
0010
0100
0001
0100
0010
0100
1000
0110
,
0000
1100
0101
1010
,
0000
0000
0000
0000
0100
0001
0100
0000
0000
0000
0101
0000
0000
0000
1010
0000
,
0000
0101
0000
0110
0000
1001
0000
0001
,
0010
0100
1000
0100
0010
0001
0100
1000
,
0100
0001
1000
0000
0101
0000
0010
1000
,
0000
0000
0000
0000
0001
0100
0001
0000
0000
0000
1010
0000
0000
0000
0101
0000
,
0000
0010
0001
0010
0001
0010
0000
1010
,
1000
0100
0010
0101
0001
0010
0100
1010
,
0100
0010
0100
0101
0000
0101
0000
1001
,
0001
0100
0010
1010
1000
0001
0100
0101
,
0001
1000
0001
0110
0000
1100
0000
0101
,
0000
0000
0001
0000
0000
0000
1000
0000
0000
0000
0001
0100
0001
0000
1010
0000
,
0000
0101
0000
0110
0000
1010
0000
0101
,
0000
0000
0100
0000
0000
0000
1000
0000
0000
0000
0100
0001
0100
0000
0011
0000
,
0000
0110
0000
1100
0000
0110
0000
0101
,
0000
1000
1100
0000
0000
0010
0000
0001
,
0000
1000
1010
0000
0000
0100
0000
0001
,
0000
0010
0000
0100
0000
1000
0100
1000
,
0010
1000
0001
1000
0010
1000
0100
0010
,
0001
0010
0100
1000
0010
0001
0010
1000
,
0000
0101
1001
0110
;
