#TITLE:Shining Collection;
#SUBTITLE:;
#ARTIST:Bad Luck;
#TITLETRANSLIT:;
#SUBTITLETRANSLIT:;
#ARTISTTRANSLIT:;
#CREDIT:;
#BANNER:banner.jpg;
#BACKGROUND:background.jpg;
#LYRICSPATH:;
#CDTITLE:!kilgacdtitle.png;
#MUSIC:04 - Shining Collection.mp3;
#OFFSET:-6.300;
#SAMPLESTART:46.754;
#SAMPLELENGTH:11.000;
#SELECTABLE:YES;
#BPMS:0.000=170.000,504.000=85.000,506.000=170.000;
#STOPS:;
#BGCHANGES:;
// cache tags:
#FIRSTBEAT:0.000;
#LASTBEAT:750.000;
#SONGFILENAME:Songs/Community Keyboard Megapack - Volume 1/(Kilgamayan) Shining Collection/Shining Collection.sm;
#HASMUSIC:1;
#HASBANNER:1;
#MUSICLENGTH:279.964;
// end cache tags

//---------------dance-single - Heavy----------------
#NOTES:
     dance-single:
     Heavy:
     Hard:
     11:
     1.000,1.000,1.000,0.054,1.000,2084.000,630.000,15.000,0.000,0.000:
0001
0010
0100
1000
0101
0000
0010
1000
0100
0010
0100
0001
1010
0000
0001
1000
,
0100
1000
0010
0100
0011
0000
1000
0100
0010
0100
1001
0000
0110
0000
0010
0001
,
0010
0100
1000
0100
1010
0000
0001
1000
0100
1000
0001
0010
1100
0000
0001
0010
,
1100
0001
1000
0001
1000
0001
1000
0001
1000
0001
1000
0001
1000
0001
1000
0001
,
1100
1001
0011
1010
0101
1100
1001
0110
,
1010
0000
0110
0000
1100
0000
0011
0000
1001
0000
0010
0100
1000
0000
0010
0000
,
1100
1010
0011
1010
0101
0110
1001
0011
,
1100
0000
1010
0000
1001
0000
0101
0000
0011
0000
1000
0001
1000
0001
1000
0000
,
0110
0011
1010
0110
1100
0110
0101
1001
,
1001
0000
0011
0000
1001
0000
1100
0000
1001
0000
0100
0010
0001
0000
0100
0000
,
1010
0101
0011
1100
1001
0101
1010
0110
,
0110
0000
0101
0000
1010
0000
0101
0000
0110
0000
0001
0010
0100
1000
0100
0010
,
1001
0010
0100
1000
0010
0100
0001
1000
0010
0001
0100
0010
0100
1000
0001
0100
,
1010
0001
0010
0100
0010
0001
1000
0010
1000
0001
0100
0001
0010
0100
1000
0001
,
1100
0010
0100
0010
0001
0100
0001
1000
0100
0010
0100
0001
0010
0100
1000
0100
,
1001
0000
0000
0000
0000
0000
0000
0000
0110
0000
0000
0000
0000
0000
0000
0000
1001
0000
0000
0000
0000
0000
0000
0000
0110
0000
0000
0000
0000
0000
0001
0000
0000
1000
0000
0000
0100
0000
0000
0010
0000
0000
0001
0000
0000
1000
0000
0000
,
0101
0010
0100
1000
0100
0010
0100
0001
1000
0001
0010
1000
0100
1000
0010
0100
,
1001
0010
0100
1000
0100
0001
0100
0010
0001
0100
1000
0001
0010
0001
1000
0010
,
1100
0001
0010
0100
1000
0010
0001
0100
0010
1000
0100
0001
1000
0010
0001
0100
,
0011
0000
0000
0000
0000
0000
0000
0000
1100
0000
0000
0000
0000
0000
0000
0000
0101
0000
0000
0000
0000
0000
0000
0000
1010
0000
0000
0000
0000
0000
0010
0000
0000
0100
0000
0000
0010
0000
0000
0100
0000
0000
0010
0000
0000
0100
0000
0000
,
0011
0000
1000
0001
0110
0000
0001
0010
1100
0000
0100
1000
0011
0000
0100
0001
,
1100
0000
0101
0000
1100
0000
0011
0000
1010
0000
1000
0100
0010
0001
0110
0000
,
1100
0000
0100
1000
0110
0000
1000
0100
0011
0000
0010
0100
1001
0000
0110
0000
,
1010
0000
0101
0000
1010
0000
0011
0000
1100
0000
0010
0010
0010
0010
0010
0010
,
1010
0000
0010
1000
0101
0000
0001
0010
1100
0000
1000
0100
0011
0000
0100
0010
,
1001
0000
0110
0000
1100
0000
0011
0000
1001
0000
0010
1000
0010
1000
0101
0101
,
0101
0000
0001
0100
1010
0000
1000
0001
0110
0000
0010
0100
1001
0000
0101
0000
,
1100
0000
0000
0000
0000
0000
0000
0000
0011
0000
0000
0000
0000
0000
0000
0000
1001
0000
0000
0000
0000
0000
0000
0000
0210
0000
0000
0000
0000
0000
0010
0000
0000
0010
0000
0000
0010
0000
0000
0010
0000
0000
0010
0000
0000
0010
0000
0000
,
0301
1000
0001
1000
0001
1000
0001
1000
0011
0000
0000
0000
0110
0000
0000
0000
,
1001
0100
0010
0001
0010
0100
0001
1000
0110
0001
0010
0001
0100
1000
0100
0001
,
1100
0010
0101
1000
0011
0100
1010
0100
,
1001
1000
0110
0001
1100
0001
0110
0100
,
1001
0010
0100
1000
0100
0010
0001
0010
1100
0000
0001
0000
1010
0000
0100
0000
,
0011
0100
1000
0100
0010
0001
0010
1000
0101
1000
0001
0100
1000
0001
0110
0000
,
1001
0100
1010
0001
1100
0010
0101
0010
,
1100
0001
1010
0100
1001
0010
0101
1000
,
0011
1000
0100
1000
0001
0010
0001
0100
1001
1000
1000
1000
1010
1000
1000
1000
,
1100
0010
0001
0010
1000
0100
0010
0100
1001
0010
1000
0010
0001
0100
0001
1000
,
0101
1000
0110
0001
1010
0001
0110
0100
,
1001
0000
0101
0000
1010
0000
0110
0000
1100
0000
0011
0000
,
1001
0010
0100
0010
1000
0100
0010
0001
1100
0000
0001
0000
1010
0000
0100
0000
,
1001
0010
0001
0010
0100
1000
0100
0010
1100
0010
0001
0010
0100
1000
0011
0000
,
0101
1000
0011
0100
1001
0100
0011
0100
,
1001
0100
0010
0100
0001
1000
0110
0000
0110
0001
0010
0100
1000
0100
0010
0001
,
1000
0000
0001
0000
1000
0000
0010
0000
1000
0000
0100
0000
1000
0000
0100
0000
0010
0000
0001
0000
0010
0000
1000
0000
0001
0010
0100
1000
0001
0010
0100
1000
,
0001
0110
0101
1001
1010
1100
0110
1010
,
1001
0000
1100
0000
0011
0000
1100
0000
0110
0000
0001
0010
0100
0000
0001
0000
,
1010
0011
1010
1100
1010
0101
1010
0110
,
0011
0000
0101
0000
1001
0000
1010
0000
1100
0000
0010
0100
0001
1000
0010
0000
,
1100
0110
0101
1100
1001
0011
1010
0101
,
1100
0000
0011
0000
1010
0000
0101
0000
0110
0000
1000
0001
1000
0000
0010
0000
,
1001
0110
1010
0101
1001
0110
1100
0011
,
1100
0000
0110
0000
0011
0000
0110
0000
1001
0000
1000
0001
1000
0001
0010
0100
,
1001
0010
0001
0010
1000
0100
0010
0001
0010
0100
0001
1000
0001
0010
1000
0001
,
1100
0010
0100
0001
1000
0001
1000
0100
0010
0100
1000
0001
0100
0001
1000
0010
,
1100
0001
1000
0010
1000
0100
1000
0001
0010
0100
1000
0100
0010
0001
0010
0100
,
1001
0100
0001
0100
1000
0010
0100
0001
0010
1000
0001
0100
1000
0100
0010
0001
,
1100
0001
0010
0100
1000
0001
0010
0100
0010
0001
1000
0001
0100
1000
0010
0001
,
1010
0100
1000
0100
0010
0100
0001
1000
0100
1000
0001
0010
0100
1000
0010
0100
,
1001
0010
1000
0010
1000
0100
0001
0100
1000
0001
1000
0010
0100
0010
0001
1000
,
0110
0000
0000
0000
0000
0000
0000
0000
1001
0000
0000
0000
0000
0000
0000
0000
0110
0000
0000
0000
0000
0000
0000
0000
1001
0000
0000
0000
0000
0000
0001
0000
0000
1000
0000
0000
0001
0000
0000
1000
0000
0000
0001
0000
0000
1000
0000
0000
,
0110
0000
0100
1000
0011
0000
1000
0001
1100
0000
0010
0100
1001
0000
1000
0010
,
1100
0000
1001
0000
0011
0000
1001
0000
0110
0000
0001
1000
0001
0000
0011
0000
,
1010
0000
1000
0010
0101
0000
0100
0001
1100
0000
0100
1000
0011
0000
0100
0001
,
0110
0000
1010
0000
0011
0000
1100
0000
0101
0000
0010
0100
0010
0100
0010
0100
,
1001
0000
0001
0100
1010
0000
0001
0010
1100
0000
1000
0010
0101
0000
0001
0010
,
1100
0000
0011
0000
0110
0000
1100
0000
0011
0000
0100
0010
0100
0000
0110
0110
,
1001
0000
0100
0100
0101
0000
0100
0100
1100
0000
0100
0100
0101
0000
0011
0000
,
1001
0000
0000
0000
0110
0000
0000
0000
0110
0000
0000
0000
1002
0000
0000
0100
0000
0000
0010
0000
0000
0100
0000
0000
,
0010
0010
0010
0010
0010
0010
0010
0010
1003
0000
0000
0000
0110
0000
0000
0000
,
1100
0001
1000
0001
0010
0100
1000
0100
0011
0100
0001
0100
0010
0001
1000
0100
,
1010
0001
0101
0010
1001
0100
0110
1000
,
1100
0001
1010
0100
1001
1000
1010
0010
,
1100
0001
0010
0100
1000
0100
0010
0100
0011
0000
1000
0000
0101
0000
0010
0000
,
1001
0010
1000
0100
0010
0001
1000
0100
0011
0100
1000
0010
1000
0001
0110
0000
,
1010
0100
1001
0010
0101
1000
0110
0001
,
1100
1000
0011
0100
1010
0001
0101
0010
,
1001
0100
0001
1000
0001
0100
1000
0100
0011
0000
1000
0000
0110
0000
1000
0000
,
0101
0010
0100
1000
0100
0010
0001
0100
1010
0001
0010
0100
1000
0100
0010
0001
,
1100
0001
0110
1000
0011
1000
0110
0001
,
1001
0000
1010
0000
1100
0000
0110
0000
0011
0000
0101
0000
,
1001
0010
0100
1000
0001
0010
0100
1000
0110
0000
0001
0000
1010
0000
0001
0000
,
1100
0010
0001
0010
1000
0100
1000
0001
0110
1000
0001
1000
0001
1000
0110
0000
,
0101
0100
1010
0001
1100
0100
1010
0001
,
1100
0010
0001
0010
0100
1000
0110
0000
1001
0010
1000
0100
1000
0001
0010
0100
,
1000
0010
0100
0001
0010
0100
0010
0001
1000
0100
0010
0100
0001
0100
0010
0100
,
1001
0010
0100
1000
0001
0010
0100
1000
0001
0010
0100
1000
0001
0010
0100
1000
,
0001
0010
0100
1000
0100
0010
0001
0010
0100
1000
0100
0010
0001
0010
0100
1000
,
0011
0000
0010
1000
0101
0000
0010
0100
1001
0000
0100
0001
1010
0000
0001
0010
,
1100
0000
0001
0100
1010
0000
0100
0010
1001
0000
1000
0010
0101
0000
0010
0100
,
1001
0100
0010
0001
1000
0100
0010
0001
1000
0100
0010
0001
1000
0100
0010
0001
,
1000
0100
0010
0001
0010
0100
1000
0100
0010
0001
0010
0100
1000
0100
0010
0001
,
1100
0000
0010
1000
0101
0000
1000
0100
0011
0000
0100
0001
1010
0000
0001
1000
,
0110
0000
0001
0100
1010
0000
0100
1000
0011
0000
1000
0010
0101
0000
0001
0010
,
1100
0000
0000
0010
,
1000
0100
0010
0001
,
0110
0001
0010
0100
1000
0100
0010
0001
1000
0001
1000
0010
1000
0100
1000
0010
,
1000
0100
0010
0001
0010
0100
1000
0100
0011
0000
0000
0000
0100
0000
0000
0000
,
1000
0000
0000
0001
,
0010
0100
1000
0001
,
0100
0000
0000
0000
0000
0000
1000
0000
1001
0010
0100
0010
0001
0010
0100
1000
,
0010
1000
0001
0100
0001
1000
0010
0001
0100
0010
1000
0100
0011
0000
0000
0000
,
1000
0000
0000
0001
0000
0000
1000
0000
,
1001
0010
0100
0010
0001
1000
0100
0010
1000
0001
0010
0100
1001
0000
1000
0000
,
0010
0000
0000
0100
0000
0000
0010
0000
,
0110
0001
1000
0001
0100
1000
0001
0010
0100
1000
0010
0100
0011
0000
0000
0000
,
0010
0000
1000
0000
,
0001
0000
0100
0000
,
1001
0010
0100
0010
0100
1000
0001
1000
0001
0010
0100
1000
0101
0000
1000
0000
,
0002
0010
0100
1000
0100
0010
0100
1003
0110
0000
0000
0000
0110
0000
0000
0000
,
0220
0000
0000
0000
0000
0330
1001
0000
2002
0000
0000
0000
0000
0000
0000
3003
,
0002
1000
0103
0020
0001
1030
0200
0010
0301
2000
0010
3001
0110
0000
0000
0000
,
1000
0000
0000
0010
1100
0000
0001
0110
0000
1000
0011
0000
0100
1001
0000
0001
,
1010
0000
0001
0110
0000
1000
0101
0000
0001
0110
0000
0100
1001
0000
0000
0000
,
1001
0010
0100
1000
0001
0010
0001
1000
0100
1000
0010
1000
0001
0100
0001
0010
,
0100
1000
0010
0100
0001
1000
0001
0100
0010
0001
1000
0100
0011
0000
0110
0000
,
1100
0010
0001
0010
0100
0010
1000
0100
0010
0100
0010
0001
1000
0010
0100
1000
,
0011
1000
0001
1000
0001
1000
0001
1000
0001
1000
0001
1000
0001
1000
0001
1000
,
0011
1001
0101
0011
1010
1100
0011
0110
,
1001
0000
0110
0000
1100
0000
0011
0000
0110
0000
0010
0010
0010
0000
0010
0000
,
1100
1010
0110
0101
0011
1001
0110
1001
,
0011
0000
1010
0000
1001
0000
0101
0000
1100
0000
0001
0001
0001
0001
0001
0000
,
1010
0101
0110
1010
1100
1010
0110
0011
,
1001
0000
0101
0000
1010
0000
0101
0000
1100
0000
1000
1000
1000
0000
1000
0000
,
0101
1010
1001
1100
0101
0110
1001
1100
,
0011
0000
1100
0000
0101
0000
1010
0000
0110
0001
1000
0001
1000
0001
1000
0001
,
0000
2200
0000
0000
0000
3300
0011
0000
1100
0001
0010
0001
0010
0100
1000
0100
,
0011
1000
0001
1000
0100
0010
0001
0010
1001
0000
1000
0000
0110
0000
0001
0000
,
1010
0100
0101
0010
1100
0001
0110
1000
,
0011
0000
0100
0000
0110
0000
0010
0000
1001
0010
0100
1000
0100
0010
0100
1000
,
0011
0000
1000
0000
0101
0000
0010
0000
1001
0100
1000
0010
0100
0001
0010
1000
,
0011
0100
0001
0010
0100
1000
0011
0000
0110
0000
0001
0000
1010
0000
0100
0000
,
0110
1000
0101
0010
1100
0010
1100
0001
,
1100
0000
0010
0000
1001
0000
0100
0000
1010
0001
0010
0100
0001
0010
0100
1000
,
0011
0000
1000
0000
0101
0000
0010
0000
1001
0100
1000
0100
0001
0010
0001
1000
,
0011
1000
0100
0010
1000
0010
0001
0100
1010
0000
0010
0000
0101
0000
1000
0000
,
0110
0000
0000
0000
0000
0000
0010
0000
0000
0000
0000
0000
1001
0000
0000
0000
0000
0000
0010
0000
0000
0001
0000
0000
1100
0000
0000
0000
0000
0000
0000
0000
0110
0000
0000
0000
0000
0000
0000
0000
0011
0000
0000
0000
0000
0000
0000
0000
,
1001
0000
0000
0000
0000
0000
0000
0000
0101
0000
0000
0000
0000
0000
0000
0000
1010
0000
0000
0000
0000
0000
0000
0000
0110
0000
0000
0001
0000
0000
1000
0000
0000
0001
0000
0000
1000
0000
0000
0100
0000
0000
0010
0000
0000
0001
0000
0000
,
0110
0000
0100
0000
1010
0000
0001
0000
1100
0001
0010
0001
1000
0100
0010
1000
,
0110
0001
1000
0010
0001
1000
0110
0000
1001
0000
0010
1000
0101
0000
0100
1000
,
0011
0000
0010
1000
0101
0000
1000
0100
0011
1000
0100
0010
0001
1000
0110
0000
,
0110
0001
1000
0001
1000
0010
1000
0100
1000
0010
1000
0001
0010
0100
1000
0001
,
1100
0000
0001
0000
1010
0000
0100
0000
1001
0010
0001
0010
0100
1000
0100
0010
,
1100
0001
0010
0100
1000
0100
0001
1000
0011
0000
0100
0000
1010
0000
0010
0000
,
0101
0001
1010
0001
0110
0001
1100
1000
,
0011
0000
0100
0000
1001
0000
0001
0000
0110
1000
0100
0010
0001
0010
0100
1000
,
0011
0000
1000
0010
0101
0000
0010
0100
1001
0010
0100
0010
0100
1000
0010
0001
,
1100
0001
0010
0100
0010
0001
1100
0000
0101
0000
1000
0100
0011
0000
0010
0100
,
1001
0000
0100
1000
0011
0000
0010
0001
1100
0000
0001
0100
1010
0000
0010
0100
,
1001
0000
0100
0001
1010
0000
0001
0010
1100
0001
1000
0001
0010
0100
1000
0010
,
0101
0000
0001
1000
0110
0000
0100
0001
1010
0100
1000
0100
0010
0001
0010
1000
,
0101
0010
1000
0010
0100
0001
0100
0010
1100
0000
0001
1000
0110
0000
1000
0100
,
0011
0000
0000
0000
0000
0000
0010
0000
0000
0100
0000
0000
1001
0000
0000
0000
0000
0000
0100
0000
0000
0010
0000
0000
1001
0000
0000
0000
0000
0000
0000
0000
0011
0000
0000
0000
0000
0000
0000
0000
0101
0000
0000
0000
0000
0000
0000
0000
,
0110
0000
0000
0000
0000
0000
0000
0000
1100
0000
0000
0000
0000
0000
0000
0000
1010
0000
0000
0000
0000
0000
0000
0000
1001
0000
0000
0010
0000
0000
0100
0000
0000
1000
0000
0000
0001
0000
0000
0010
0000
0000
0100
0000
0000
1000
0000
0000
,
0101
0000
0100
0001
1010
0000
0001
0010
1100
0010
1000
0100
0010
0001
0100
0010
,
0101
0010
1000
0001
0010
1000
0101
0000
0011
0000
0100
0001
1010
0000
0010
1000
,
0101
0000
0001
0100
1010
0000
1000
0010
0101
1000
0001
1000
0001
1000
0110
0000
,
0110
0001
0010
0100
1000
0100
0010
0100
0001
1000
0001
1000
0001
1000
0001
1000
,
0001
0000
1000
0000
0001
0000
1000
0000
0001
0010
0100
1000
0001
0010
0100
1000
0011
0000
1000
0000
0100
0000
0010
0000
1000
0000
0010
0000
0100
0000
0001
0000
,
1100
0001
1000
0001
0010
0100
1000
0010
0101
0000
1000
0001
0110
0000
0001
0010
,
1100
0000
0010
0100
1001
0000
0001
1000
0110
1000
0100
0010
0001
0010
0100
1000
,
0011
0000
0010
0001
0110
0000
0010
0100
1001
0100
0001
0100
0010
1000
0010
0001
,
1100
0000
0010
0001
1010
0000
0100
0010
1001
0100
0010
0100
1000
0001
0010
0001
,
1100
0001
0010
1000
0001
0100
1000
0010
0101
0000
1000
0100
0011
0000
0001
1000
,
0110
0000
0010
1000
0101
0000
0100
0001
1010
0000
0001
0010
1100
0000
0001
0100
,
1010
0000
1000
0010
0101
0000
1000
0001
0110
1000
0100
0010
0001
0010
0100
1000
,
0011
0000
0100
1000
0101
0000
0010
0100
1001
0010
0100
0001
0010
1000
0001
0100
,
0011
1000
0001
0010
0100
1000
0010
0001
1010
0000
0100
0001
1100
0000
0010
1000
,
0011
0000
0000
0000
0000
0000
0010
0000
0000
1000
0000
0000
0101
0000
0000
0000
0000
0000
0010
0000
0000
0100
0000
0000
1001
0000
0000
0000
0000
0000
0000
0000
0101
0000
0000
0000
0000
0000
0000
0000
1100
0000
0000
0000
0000
0000
0000
0000
,
0110
0000
0000
0000
0000
0000
0000
0000
0011
0000
0000
0000
0000
0000
0000
0000
1010
0000
0000
0000
0000
0000
0000
0000
1001
0000
0000
0010
0000
0000
0100
0000
0000
1000
0000
0000
0100
0000
0000
0010
0000
0000
0001
0000
0000
0010
0000
0000
,
0101
0000
0100
0000
1010
0000
0100
0000
1001
0010
0100
1000
0100
0010
0001
1000
,
0110
0001
1000
0001
1000
0001
0010
0100
1001
0000
0010
1000
0011
0000
0100
0001
,
1100
0001
0010
0100
0011
1000
0100
0010
1001
0000
0011
0000
0101
0000
1001
0000
,
1010
0101
1100
0011
0110
1010
0101
1010
,
1001
0000
0010
0010
0010
0000
0100
0000
1100
0000
0101
0000
1100
0000
0011
0000
,
0101
1010
0110
1001
0011
0101
1001
0101
,
0011
0000
1000
1000
1000
1000
1000
0000
1100
0000
1001
0000
1010
0000
1100
0000
,
0011
0101
0110
0011
1100
1010
1001
1100
,
0101
0000
0100
0100
0100
0000
0100
0000
1001
0000
0110
0000
0011
0000
0110
0000
,
1100
1001
0101
1001
0011
0101
1001
0011
,
0110
0001
0010
0100
1000
0100
0010
0001
1000
0001
1000
0001
1000
0001
1000
0100
,
0001
0010
0100
1000
0001
0010
0100
1000
0001
0010
0100
1000
0001
0010
0100
1000
0022
0000
0000
0000
0000
0000
0000
0000
0000
0000
0000
0000
0000
0000
0000
0000
,
0000
0000
0000
0000
,
0000
0000
0000
0000
,
0000
0000
0000
0000
,
0000
0000
0000
0000
,
0000
0000
0000
0000
,
0000
0000
0033
0000
;
