#TITLE:Aztec Templing;
#SUBTITLE:(Techno-titlan Mix);
#ARTIST:Hi-G remixed by DM Ashura;
#TITLETRANSLIT:;
#SUBTITLETRANSLIT:;
#ARTISTTRANSLIT:;
#CREDIT:;
#BANNER:aztectempling-bn.png;
#BACKGROUND:aztectempling-bg.png;
#LYRICSPATH:;
#CDTITLE:!ExigeTitle.png;
#MUSIC:Aztec Templing (Techno-titlan Mix).mp3;
#OFFSET:-9.432;
#SAMPLESTART:84.247;
#SAMPLELENGTH:13.100;
#SELECTABLE:YES;
#BPMS:0.000=205.000;
#STOPS:;
#BGCHANGES:;
// cache tags:
#FIRSTBEAT:0.000;
#LASTBEAT:360.000;
#SONGFILENAME:Songs/Fabulously Fresh Flock of Fantastic Files F5/(exige) Aztec Templing (Techno-titlan Mix)/aztectempling.sm;
#HASMUSIC:1;
#HASBANNER:1;
#MUSICLENGTH:117.138;
// end cache tags

//---------------dance-single - ----------------
#NOTES:
     dance-single:
     :
     Hard:
     11:
     1.000,1.000,1.000,0.017,0.508,691.000,294.000,2.000,0.000,0.000:  // measure 1
0011
0100
0011
1000
0011
0100
0011
1000
,  // measure 2
0110
0001
0110
1000
0110
0001
0110
1000
,  // measure 3
1100
0001
1100
0010
1100
0001
1100
0010
,  // measure 4
1001
0100
1001
0010
1001
0100
1001
0110
,  // measure 5
0101
1000
0101
0010
0101
1000
0101
0010
,  // measure 6
1010
0100
1010
0110
1010
0100
1010
0001
,  // measure 7
1000
0001
1000
0001
0010
0100
0010
0100
1000
0001
1000
0001
0010
0100
0010
0100
,  // measure 8
1000
0010
1000
0010
0100
0001
0100
0001
0010
1000
0010
1000
0100
0001
0100
0001
,  // measure 9
1010
0001
1100
0100
0011
0000
1100
0010
,  // measure 10
0110
0010
1001
0100
0110
0000
1001
0100
,  // measure 11
0011
1000
0110
0001
1100
0000
0110
1000
,  // measure 12
1001
0000
0100
0010
0100
0000
0010
0000
1001
0000
1000
0000
0110
0000
0110
0000
,  // measure 13
1001
0100
0011
0100
1001
0000
1100
0010
,  // measure 14
0101
0010
1100
0001
1010
0000
1100
0010
,  // measure 15
0001
0010
0001
0010
0100
0010
0100
0010
0001
0010
0001
0010
0100
0010
0100
0010
,  // measure 16
0001
1000
0001
1000
0100
0010
0100
0010
0001
1000
0001
1000
0100
0010
0100
0010
,  // measure 17
1001
0000
1001
0010
1001
0100
1001
0001
,  // measure 18
0110
0000
0110
0001
0110
1000
0110
0100
,  // measure 19
0101
0000
0101
1000
0101
0010
0101
1000
,  // measure 20
1010
0001
1010
0100
1010
0001
1010
0101
,  // measure 21
1010
0000
0011
1000
0101
0010
1100
0001
,  // measure 22
1001
0000
0011
1000
0110
0001
1010
1000
,  // measure 23
1100
0000
0011
1000
0101
0010
1001
0100
,  // measure 24
1010
0000
0001
0000
0110
0000
1000
0000
0101
0000
1000
0000
1001
0000
0010
0100
,  // measure 25
1001
0000
1001
0010
1001
0100
1001
0010
,  // measure 26
0110
0000
0110
0001
0110
1000
0110
0001
,  // measure 27
0101
0000
0101
0010
0101
0010
0101
1000
,  // measure 28
1010
0100
1010
0100
1010
0001
1100
0011
,  // measure 29
1100
0000
0110
1000
0011
1000
0110
0001
,  // measure 30
1100
0000
1100
0001
0110
1000
0011
1000
,  // measure 31
1100
0000
0110
1000
0011
1000
0110
0001
,  // measure 32
0001
0010
0100
1000
0001
0010
0001
1000
0100
0010
0001
1000
0100
1000
0001
0010
,  // measure 33
1100
0000
0000
0110
0000
0000
0011
0000
0000
0000
0011
0000
0110
0000
1100
0000
,  // measure 34
0110
0000
0000
0101
0000
0000
0011
0000
0000
0000
0001
1000
0001
0000
0001
1000
,  // measure 35
0101
0000
0000
0110
0000
0000
1010
0000
0000
0000
1100
0000
0110
0000
0101
0000
,  // measure 36
0011
0000
0000
1010
0000
0000
1100
0000
0000
0000
0001
1000
0001
0000
1000
0001
,  // measure 37
1010
0000
0000
0011
0000
0000
0110
0000
0000
0000
0011
0000
0110
0000
1010
0000
,  // measure 38
0101
0000
0000
0011
0000
0000
0101
0000
0000
0000
1000
0100
1000
0000
0001
0010
,  // measure 39
1100
0000
0000
0110
0000
0000
0011
0000
0000
0000
0101
0000
1010
0000
0110
0000
,  // measure 40
0101
0000
0000
0011
0000
0000
0011
0000
1010
0000
1100
0000
0001
1000
0001
1000
,  // measure 41
0110
0000
0000
0110
0000
0000
0110
0000
0000
0000
0110
0000
1001
0000
0110
0000
,  // measure 42
1001
0000
0000
1001
0000
0000
1001
0000
0000
0000
0010
0100
0010
0000
0100
0010
,  // measure 43
1001
0000
0000
1001
0000
0000
1001
0000
0000
0000
1001
0000
0110
0000
1001
0000
,  // measure 44
0110
0000
0000
0110
0000
0000
0110
0000
0000
0000
0100
0010
0001
0000
0100
0010
,  // measure 45
0101
0000
0000
0101
0000
0000
0101
0000
0000
0000
0101
0000
1010
0000
0101
0000
,  // measure 46
1010
0000
0000
1010
0000
0000
1010
0000
0000
0000
0010
0100
0010
0000
0100
0010
,  // measure 47
0100
1000
0001
1000
0001
0010
0100
0010
0100
1000
0001
1000
0001
0010
0100
0010
,  // measure 48
0100
1000
0001
1000
0001
1000
0001
0010
0100
0010
0100
0010
0100
0010
0100
0010
,  // measure 49
1001
0000
0000
0000
,  // measure 50
0000
0000
0000
0000
,  // measure 51
0000
0000
0000
0000
,  // measure 52
0000
0000
0000
0000
,  // measure 53
0000
0000
0000
0000
,  // measure 54
0000
0000
0000
0000
,  // measure 55
0000
0000
0000
0000
,  // measure 56
0000
0000
0000
0000
,  // measure 57
1001
0001
0011
0010
0110
0100
1100
1000
,  // measure 58
1010
0010
1010
1000
1001
0001
0101
0100
,  // measure 59
0101
0001
0011
0010
1010
1000
1001
0001
,  // measure 60
1001
1000
1001
0001
0101
0100
0110
0010
,  // measure 61
0110
0100
0110
0010
1010
1000
1010
0010
,  // measure 62
1010
1000
1100
0110
1100
1000
1010
0010
,  // measure 63
1000
0010
1000
0010
0100
1000
0010
1000
0010
0100
0001
0100
0001
0010
0100
0001
,  // measure 64
0100
0001
0010
0100
1000
0010
1000
0010
0100
1000
0001
1000
0001
0010
0100
1000
,  // measure 65
0011
0000
0011
1000
0110
0001
0110
1000
,  // measure 66
1100
0000
1100
0001
1010
0100
1010
0001
,  // measure 67
1001
0000
1001
0010
0101
1000
0101
0010
,  // measure 68
0110
1000
0110
0001
1010
0100
1010
0101
,  // measure 69
1100
0000
1100
0010
1001
0100
1001
0010
,  // measure 70
0110
0000
0110
0001
0101
1000
0101
0010
,  // measure 71
0011
0000
0011
1000
0110
0001
0110
1000
,  // measure 72
1100
0000
0001
0000
1100
0000
0001
0000
0011
0000
1000
0000
0011
0000
0100
0010
,  // measure 73
1001
0000
1001
0010
1001
0100
1001
0010
,  // measure 74
1010
0000
1010
0100
1010
0001
1010
0100
,  // measure 75
1100
0000
1100
0010
1100
0001
1100
0010
,  // measure 76
0101
1000
0101
0010
0101
1000
0101
1001
,  // measure 77
0110
0000
0101
1000
0110
0001
0110
1000
,  // measure 78
1100
0000
1001
0100
0011
1000
0110
1000
,  // measure 79
1010
0000
1100
0010
1001
0100
0011
0100
,  // measure 80
0001
1000
0001
1000
0100
0001
0100
0001
0010
0100
0010
0100
1000
0010
1000
0010
,  // measure 81
1001
0010
1001
0100
1001
0010
1001
0100
,  // measure 82
0110
0001
0110
1000
0110
0001
0110
1000
,  // measure 83
1010
0001
1010
0100
1010
0001
1010
0100
,  // measure 84
0101
1000
0101
0010
0101
1000
0101
0010
,  // measure 85
1100
1000
1100
0100
1100
1000
1100
0100
,  // measure 86
0110
0010
0110
0100
0110
0010
0110
0100
,  // measure 87
0101
0001
1001
1000
1001
0001
1001
1000
,  // measure 88
1000
0100
1000
0100
0010
0001
0010
0001
0010
0100
1000
0001
1000
0001
0010
0100
,  // measure 89
2002
0000
0000
0000
,  // measure 90
0000
0000
0000
0000
,  // measure 91
3003
0000
0000
0000
;

//---------------dance-single - ----------------
#NOTES:
     dance-single:
     :
     Challenge:
     14:
     1.000,1.000,1.000,0.017,0.747,747.000,356.000,2.000,0.000,0.000:  // measure 1
0011
0100
0011
1000
0011
0100
0011
1000
,  // measure 2
0110
0001
0110
1000
0110
0001
0110
1000
,  // measure 3
1100
0001
1100
0010
1100
0001
1100
0010
,  // measure 4
1001
0100
1001
0010
1001
0100
1001
0110
,  // measure 5
0101
1000
0101
0010
0101
1000
0101
0010
,  // measure 6
1010
0100
1010
0110
1010
0100
1010
0001
,  // measure 7
1010
0100
0010
0001
1000
0001
0010
0100
1010
0001
1000
0100
0010
0001
0100
1000
,  // measure 8
0101
0000
0010
0000
0100
0000
1000
0000
0101
0000
0010
0000
0100
0000
1000
0000
0001
0010
0100
1000
0001
0010
0100
1000
0001
0010
0100
1000
0001
0010
0100
1000
,  // measure 9
0011
0001
1100
0100
0011
0000
1100
0010
,  // measure 10
0110
0010
1001
0100
0110
0000
1001
0100
,  // measure 11
0011
1000
0110
0001
1100
0000
0110
1000
,  // measure 12
1001
0000
0100
0010
0100
0000
0010
0000
1001
0000
1000
0000
0110
0000
0110
0000
,  // measure 13
1001
0100
0011
0100
1001
0000
1100
0010
,  // measure 14
0101
0010
1100
0001
1010
0000
1100
0010
,  // measure 15
1001
0010
0001
0010
1001
0100
1000
0100
1001
0010
0001
0010
1001
0100
1000
0100
,  // measure 16
0011
0000
1000
0000
0001
0000
1000
0000
0101
0000
0010
0000
0100
0000
0010
0000
0001
1000
0001
1000
0100
0010
0100
0010
0001
1000
0001
1000
0100
0010
0100
0010
,  // measure 17
1001
0000
1001
0010
1001
0100
1001
0001
,  // measure 18
0110
0000
0110
0001
0110
1000
0110
0100
,  // measure 19
0101
0000
0101
1000
0101
0010
0101
1000
,  // measure 20
1010
0001
1010
0100
1010
0001
1010
0101
,  // measure 21
1010
0000
0011
1000
0101
0010
1100
0001
,  // measure 22
1001
0000
0011
1000
0110
0001
1010
1000
,  // measure 23
1100
0000
0011
1000
0101
0010
1001
0100
,  // measure 24
1010
0000
0001
0000
0110
0000
1000
0000
0101
0000
1000
0000
1001
0000
1001
0110
,  // measure 25
1001
0000
1001
0010
1001
0100
1001
0010
,  // measure 26
0110
0000
0110
0001
0110
1000
0110
0001
,  // measure 27
0101
0000
0101
0010
0101
0010
0101
1000
,  // measure 28
1010
0100
1010
0100
1010
0001
1100
0011
,  // measure 29
1100
0000
0110
1000
0011
1000
0110
0001
,  // measure 30
1100
0000
1100
0001
0110
1000
0011
1000
,  // measure 31
1100
0000
0110
1000
0011
1000
0110
0001
,  // measure 32
1001
0000
0010
0000
0100
0000
1000
0000
0101
0000
0010
0000
0001
0000
1000
0000
0100
0010
0001
1000
0100
1000
0001
0010
0100
1000
0001
0010
0001
1000
0100
0010
,  // measure 33
1001
0000
0000
0110
0000
0000
0011
0000
0000
0000
0011
0000
0110
0000
1100
0000
,  // measure 34
0110
0000
0000
0101
0000
0000
0011
0000
0000
0000
0011
1100
0011
0000
0101
1010
,  // measure 35
0101
0000
0000
0110
0000
0000
1010
0000
0000
0000
1100
0000
0110
0000
0101
0000
,  // measure 36
0011
0000
0000
0000
0000
0000
1010
0000
0000
0000
0000
0000
1100
0000
0000
0000
0000
0000
0000
0000
0001
0010
0100
1000
0100
0000
0000
0000
0001
0010
0100
1000
,  // measure 37
0011
0000
0000
0011
0000
0000
0110
0000
0000
0000
0011
0000
0110
0000
1010
0000
,  // measure 38
0101
0000
0000
0011
0000
0000
0101
0000
0000
0000
1100
0110
0011
0000
0011
0110
,  // measure 39
1100
0000
0000
0110
0000
0000
0011
0000
0000
0000
0101
0000
1010
0000
0110
0000
,  // measure 40
0101
0000
0000
0011
0000
0000
0011
0000
1010
0000
1100
0000
0110
1001
0110
1001
,  // measure 41
0110
0000
0000
0110
0000
0000
0110
0000
0000
0000
0110
0000
1001
0000
0110
0000
,  // measure 42
1001
0000
0000
1001
0000
0000
1001
0000
0000
0000
0110
1001
0110
0000
1001
0110
,  // measure 43
1001
0000
0000
1001
0000
0000
1001
0000
0000
0000
1001
0000
0110
0000
1001
0000
,  // measure 44
0110
0000
0000
0000
0000
0000
0110
0000
0000
0000
0000
0000
0110
0000
0000
0000
0000
0000
0000
0000
1000
0100
0010
0001
1000
0000
0000
0000
1000
0100
0010
0001
,  // measure 45
1100
0000
0000
0101
0000
0000
0101
0000
0000
0000
0101
0000
1010
0000
0101
0000
,  // measure 46
1010
0000
0000
1010
0000
0000
1010
0000
0000
0000
1010
0101
1010
0000
0101
1010
,  // measure 47
0101
1000
0100
1001
0010
0100
1000
0010
0101
0010
1000
0100
0011
1000
0101
1000
,  // measure 48
0011
0100
1000
0011
1000
0001
1010
0001
1100
0011
1100
0011
1100
0011
1100
0011
,  // measure 49
1100
0000
0000
0000
,  // measure 50
0000
0000
0000
0000
,  // measure 51
0000
0000
0000
0000
,  // measure 52
0000
0000
0000
0000
,  // measure 53
0000
0000
0000
0000
,  // measure 54
0000
0000
0000
0000
,  // measure 55
0000
0000
0000
0000
,  // measure 56
0000
0000
0000
0000
,  // measure 57
1001
0001
0011
0010
0110
0100
1100
1000
,  // measure 58
1010
0010
1010
1000
1001
0001
0101
0100
,  // measure 59
0101
0001
0011
0010
1010
1000
1001
0001
,  // measure 60
1001
1000
1001
0001
0101
0100
0110
0010
,  // measure 61
0110
0100
0110
0010
1010
1000
1010
0010
,  // measure 62
1010
1000
1100
0110
1100
1000
1010
0010
,  // measure 63
0010
0100
1000
0001
0010
0001
1000
0100
0010
0001
1000
0100
1000
0001
0010
0100
,  // measure 64
1000
0000
0001
0000
0010
0000
0001
0000
1000
0000
0100
0000
0010
0000
0001
0000
1000
0100
1000
0001
0010
0100
1000
0001
0010
0001
1000
0100
0010
0001
1000
0100
,  // measure 65
0011
0000
0011
1000
0110
0001
0110
1000
,  // measure 66
1100
0000
1100
0001
1010
0100
1010
0001
,  // measure 67
1001
0000
1001
0010
0101
1000
0101
0010
,  // measure 68
0110
1000
0110
0001
1010
0100
1010
0101
,  // measure 69
1100
0000
1100
0010
1001
0100
1001
0010
,  // measure 70
0110
0000
0110
0001
0101
1000
0101
0010
,  // measure 71
0011
0000
0011
1000
0110
0001
0110
1000
,  // measure 72
1100
0000
0001
0000
1100
0000
0001
0000
0011
0000
1000
0000
0011
0000
0110
1001
,  // measure 73
0110
0000
1001
0010
1001
0100
1001
0010
,  // measure 74
1010
0000
1010
0100
1010
0001
1010
0100
,  // measure 75
1100
0000
1100
0010
1100
0001
1100
0010
,  // measure 76
0101
1000
0101
0010
0101
1000
0101
1001
,  // measure 77
0110
0000
0101
1000
0110
0001
0110
1000
,  // measure 78
1100
0000
1001
0100
0011
1000
0110
1000
,  // measure 79
1010
0000
1100
0010
1001
0100
0011
1000
,  // measure 80
0011
0000
0100
0000
0010
0000
0100
0000
1001
0000
0010
0000
0001
0000
0100
0000
0010
1000
0010
0100
0001
0010
0001
0100
1000
0010
1000
0100
0001
0010
0001
0100
,  // measure 81
1001
0010
1001
0100
1001
0010
1001
0100
,  // measure 82
0110
0001
0110
1000
0110
0001
0110
1000
,  // measure 83
1010
0001
1010
0100
1010
0001
1010
0100
,  // measure 84
0101
1000
0101
0010
0101
1000
0101
0010
,  // measure 85
1100
1000
1100
0100
1100
1000
1100
0100
,  // measure 86
0110
0010
0110
0100
0110
0010
0110
0100
,  // measure 87
0101
0001
0011
0010
0011
0001
0011
0010
,  // measure 88
1001
0000
0010
0000
0100
0000
0010
0000
1001
0000
0100
0000
0010
0000
0100
0000
1001
0010
0100
0010
0100
1000
0100
0010
1001
0100
0010
0001
0010
0100
0010
0100
,  // measure 89
2002
0000
0000
0000
,  // measure 90
0000
0000
0000
0000
,  // measure 91
3003
0000
0000
0000
;
