#TITLE:Magma Burning (Magma Man Stage);
#SUBTITLE:Megaman 9 OST;
#ARTIST:III;
#TITLETRANSLIT:;
#SUBTITLETRANSLIT:;
#ARTISTTRANSLIT:;
#CREDIT:;
#BANNER:;
#BACKGROUND:medium_2760983547_7a00254b25_o.jpg;
#LYRICSPATH:;
#CDTITLE:Kaburicho-tittle.png;
#MUSIC:14 MAGMA BURNING (MAGMA MAN STAGE).mp3;
#OFFSET:0.000;
#SAMPLESTART:39.735;
#SAMPLELENGTH:12.000;
#SELECTABLE:YES;
#BPMS:0.000=151.000;
#STOPS:;
#BGCHANGES:;
// cache tags:
#FIRSTBEAT:1.000;
#LASTBEAT:226.000;
#SONGFILENAME:Songs/new cedric/magma burning/14 MAGMA BURNING (MAGMA MAN STAGE).sm;
#HASMUSIC:1;
#HASBANNER:0;
#MUSICLENGTH:97.410;
// end cache tags

//---------------dance-single - ----------------
#NOTES:
     dance-single:
     :
     Challenge:
     10:
     0.669,0.638,0.246,0.175,0.580,415.000,24.000,17.000,0.000,0.000:
0000
0000
0000
0000
1000
0100
1000
0001
0010
0001
0010
0000
0000
0000
0010
0000
,
0000
0000
1000
0001
1000
0001
1000
0001
1000
0001
1000
0000
0000
0000
0100
0000
,
0000
0000
0100
0001
0100
0000
0000
0100
0000
0000
0100
0000
1000
0000
0000
0100
,
0000
0000
0010
0000
0001
0001
0000
0011
0000
0011
0000
0100
0010
0000
0000
0000
,
1000
0100
0010
0001
0100
0000
0010
0000
0100
0000
0010
0000
0001
0000
1000
0000
,
0100
0001
0000
0100
0000
0000
0010
0000
1000
0000
0100
0000
0010
0000
0001
0000
,
0100
0001
0000
1000
0000
0000
0100
0000
0010
0000
0001
0000
0100
0000
0000
0010
,
0000
1000
0000
1000
0100
0010
0001
1000
,
0100
0001
0100
0001
0100
0000
1000
0000
0100
0000
0010
0000
0001
0000
0100
0000
,
0001
0100
0000
0001
0000
0000
1000
0000
0100
0000
0010
0000
0001
0000
1000
0000
,
0100
1000
0000
0100
0000
0000
0001
0000
0100
0000
0010
0000
0001
0000
0000
0100
,
0000
0010
0001
0000
1100
0000
1100
0000
,
1100
0000
0000
0000
0100
0000
0100
0000
0100
1000
0000
0100
0000
0000
0001
0000
,
1000
0100
0000
1000
0000
0000
0001
0000
0100
1000
0000
0001
0000
0000
0100
0000
,
0010
0001
0000
0100
0000
0000
1000
0000
0100
0001
0000
0100
0000
0000
1000
0000
,
0100
0001
0000
0100
0000
0000
1000
0000
0100
0001
0000
0100
0000
0000
0010
0000
,
0001
0000
1000
0100
0001
0000
0000
0010
0000
0000
0002
0000
0000
0003
1000
0000
,
0100
0010
0000
0000
0001
0000
0000
0100
0000
0000
0010
0000
0000
0000
1000
0000
,
0100
0001
0000
0000
0200
0000
0000
0000
0000
0000
0000
0000
0300
0000
1000
0100
,
0010
0001
0200
0000
0000
0000
0300
0001
,
1000
0001
0000
0000
0100
0000
0010
0000
0001
0000
0100
0000
0010
0000
0000
0001
,
0000
0000
0200
0000
0000
0300
0001
0100
0001
0000
0100
0001
0100
0000
0001
0000
,
0100
0000
0010
0000
0001
0000
0100
0000
0010
0000
0001
0000
0100
0000
0000
0010
,
0000
0000
2000
0000
0000
0000
3001
0100
0001
0000
0100
0001
0100
0000
0001
0000
,
0100
0000
0010
0000
0001
0000
0001
0000
1000
0000
1000
0000
0100
0000
0000
0100
,
0000
0000
0020
0000
0000
0030
1000
0000
0100
0000
0010
0000
0001
0000
0000
0001
,
0000
0000
0001
0000
2000
0000
0000
0000
0000
0000
3100
0001
0100
0000
0100
0000
,
0010
0000
0001
0000
1100
0000
0000
1100
0000
0000
1100
0000
1100
0000
0000
0000
,
0001
0100
0001
0100
0001
0000
1000
0000
0100
0000
0010
0000
0001
0000
1000
0000
,
0100
0010
0000
0001
0000
0000
1000
0000
0100
0000
0010
0000
0001
0000
1000
0000
,
0100
0010
0000
0002
0000
0000
1000
0000
0100
0000
0010
0000
0100
0000
0000
0010
,
0000
0010
0003
1000
0100
0010
0001
1000
,
0100
0010
0001
0100
0010
0000
1000
0000
0100
0000
0010
0000
0001
0000
0100
0000
,
1000
0100
0000
0001
0000
0000
0100
0000
0010
0000
0001
0000
0100
0000
1000
0000
,
0100
0001
0000
0200
0000
0000
0001
0000
0001
0000
0001
0000
0001
0000
0000
0001
,
0000
0000
0001
0300
1000
0000
0000
0000
0011
0000
0000
0000
0011
0000
0000
0000
,
0011
0000
0000
0000
0100
0000
0010
0000
1000
0100
0000
1000
0000
0000
0001
0000
,
0100
0001
0000
0100
0000
0000
1000
0000
0100
0001
0000
0100
0000
0000
1000
0000
,
0100
0001
0000
0100
0000
0000
0010
0000
0001
0100
0000
0001
0000
0000
0001
0000
,
0010
0100
0000
0001
0000
0000
1000
0000
0001
0100
0000
0001
0000
0000
0100
0000
,
0010
0000
0100
0001
0010
0000
0000
0100
0000
0000
0001
0000
0000
0000
0001
0000
,
1000
0100
0000
0000
0001
0000
0000
0100
0000
0000
0010
0000
0000
0000
1000
0000
,
1000
0100
0000
0000
0002
0000
0000
0000
0000
0000
0000
0000
0000
0003
1000
0100
,
0010
0001
0200
0000
0000
0000
0300
1000
,
1000
0100
0000
0000
0010
0000
0001
0000
0100
0000
0010
0000
0001
0000
0000
0100
,
0000
0000
2000
0000
0000
0000
0010
0001
0010
0000
0001
0010
0001
0000
0010
0000
,
0001
0000
0100
3000
0010
0000
0001
0000
0100
0000
0010
0000
0001
0000
0000
0100
,
0000
0000
0200
0000
0000
0000
0001
1000
0001
0000
1000
0001
1000
0000
0001
0000
,
0010
0000
0001
0300
0001
0000
1000
0000
0100
0000
0010
0000
0001
0000
0000
0001
,
0000
0000
2000
0000
0000
0000
3100
0000
0010
0000
0001
0000
0100
0000
0000
1100
,
0000
0000
1100
0000
2200
0000
0000
0000
3300
0000
0001
0100
0001
0000
0100
0000
,
0010
0000
0100
0000
1100
0000
0000
1100
0000
0000
1100
0000
1100
0000
0000
0000
,
0011
0100
0011
0100
0011
0000
0100
0000
0010
0000
0001
0000
0100
0000
0010
0000
,
1000
0100
0000
0010
0000
0000
0001
0000
0100
0000
0010
0000
0001
0000
1000
0000
,
0100
0001
0000
0100
0000
0000
0010
0000
0001
0000
0100
0000
0010
0000
0000
0001
,
0000
0101
0000
1000
0100
0010
0001
0100
,
1000
0001
1000
0001
2001
0000
0000
0000
3000
0000
0000
0000
0000
0000
0000
0000
;

//---------------dance-single - ----------------
#NOTES:
     dance-single:
     :
     Hard:
     8:
     0.526,0.481,0.103,0.359,0.416,314.000,10.000,35.000,0.000,0.000:
0000
0000
0000
0000
1000
0000
0000
0100
0000
0000
0020
0000
0000
0000
0000
0000
,
0030
0000
1000
0100
0001
0000
0000
0100
0000
0000
0020
0000
0000
0000
0000
0000
,
0030
0000
0001
0010
0001
0000
0000
0100
0000
0000
0010
0000
0001
0000
0000
0100
,
0000
0000
0010
0000
1000
0100
0000
0001
0000
0100
0000
0010
0001
0000
0000
0000
,
1000
0100
0001
0010
0002
0000
0000
0000
0000
0000
0000
0000
0000
0003
1000
0000
,
0100
0010
0000
0001
0000
0000
1000
0000
0100
0000
0010
0000
0001
0000
0100
0000
,
0100
1000
0000
1000
0000
0000
0100
0000
0010
0000
0001
0000
0100
0000
0000
0100
,
0000
0100
0000
1000
0100
0010
0001
0100
,
1000
0100
0000
0000
0000
0000
0001
0000
0100
0000
0010
0000
0001
0000
0000
0001
,
0000
0000
1000
0000
0000
0000
0100
0000
0010
0000
0001
0000
0100
0000
0010
0100
,
0000
0000
0001
0000
0000
0000
1000
0000
0100
0000
0010
0000
0001
0000
0000
0100
,
0000
0010
0001
0000
0100
0000
0100
0000
,
0100
0000
0000
0000
2000
0000
0001
0000
0100
0001
0000
0100
3000
0000
0010
0000
,
0001
0100
0000
0002
0000
0000
0000
0000
0000
0000
0000
0000
0003
0000
1000
0000
,
0100
0001
0000
0200
0000
0000
0000
0000
0000
0000
0000
0000
0300
0000
1000
0000
,
0001
1000
0000
2000
0000
0000
0000
0000
0001
0001
0000
0002
0000
0000
0000
0000
,
3003
0000
0100
0010
0001
0000
0000
0100
0000
0000
0020
0000
0000
0000
0030
0000
,
1000
0100
0000
0000
0001
0000
0000
0100
0000
0000
0020
0000
0000
0000
0030
0000
,
1000
0100
0000
0000
0002
0000
0000
0000
0000
0000
0000
0000
0003
0000
0010
0001
,
0010
0010
0020
0000
0000
0000
0030
0100
,
0100
0000
0000
0000
0001
0000
0100
0000
0010
0000
0001
0000
0100
0000
0000
0010
,
0000
2000
0000
0000
0001
0000
0001
0001
,
0100
0000
3010
0000
0001
0000
0100
0000
0010
0000
0001
0000
0100
0000
0000
0010
,
0000
0200
0000
0000
0001
0010
0001
0010
,
0001
0000
0010
0300
0001
0000
0100
0000
0010
0000
0001
0000
0100
0000
0000
0010
,
0000
0000
2000
0000
0000
0000
3001
0000
0100
0000
0010
0000
0001
0000
0000
0100
,
0000
0000
0010
0000
2000
0000
0000
0000
0000
0000
0001
0100
0001
0000
0100
0000
,
3010
0000
0001
0000
0100
0000
0000
1000
0000
0000
0001
0000
0010
0000
0000
0000
,
1000
0100
0010
0001
0020
0000
0000
0000
0000
0000
0000
0000
0000
0030
1000
0000
,
0100
0001
0000
0100
0000
0000
1000
0000
0100
0000
0010
0000
0001
0000
0000
0001
,
0000
0000
1000
0000
0000
0000
0100
0000
0010
0000
0001
0000
0100
0000
0000
0010
,
0000
0010
0000
1000
0100
0001
0100
1000
,
0100
2000
0000
0000
0000
0000
3001
0000
0100
0000
0010
0000
0001
0000
0000
0001
,
0000
0000
0100
0000
0000
0000
0010
0000
0001
0000
0100
0000
0010
0000
1000
0100
,
0000
0000
0001
0000
0000
0000
0100
0000
0010
0000
0001
0000
0100
0000
0000
0010
,
0000
0010
0001
0000
1100
0000
1100
0000
,
1100
0000
0000
0000
0202
0000
0000
0000
0000
0000
0000
0303
0000
0000
0100
0010
,
0100
0010
0000
2200
0000
0000
0000
0000
0000
0000
0000
3300
0000
0000
0001
0000
,
0100
0001
0000
0202
0000
0000
0000
0000
0000
0000
0000
0000
0300
0003
1000
0000
,
0100
0010
0000
0002
0000
0000
0000
0000
0000
0000
0000
0000
0000
0000
0000
0000
,
0003
0000
1000
0100
0010
0000
0000
0001
0000
0000
0200
0000
0000
0000
0300
0000
,
0001
0100
0000
0000
0010
0000
0000
0001
0000
0000
0100
0000
0000
0000
0010
0000
,
0001
0100
0000
0000
0020
0000
0000
0000
0000
0000
0000
0030
0000
0000
0100
0010
,
0100
0010
0002
0000
0000
0000
0003
0100
,
0100
0000
0000
0000
0010
0000
0100
0000
0010
0000
0100
0000
0010
0000
0000
1000
,
0000
0000
0002
0000
0000
0000
0000
0010
0010
0000
0000
0100
0100
0000
0010
0000
,
1000
0000
0103
0000
0010
0000
0001
0000
0100
0000
0010
0000
0001
0000
0000
0100
,
0000
0000
2000
0000
0000
0000
0000
0010
0010
0000
0000
0100
0100
0000
0001
0000
,
0100
3000
0010
0000
0001
0000
0100
0000
0010
0000
0001
0000
0100
0000
0000
0010
,
0000
0000
0020
0000
0000
0030
1000
0000
0100
0000
0001
0000
0100
0000
0000
0010
,
0000
0100
0002
0000
0000
0010
0010
1000
,
0100
0003
0010
0000
1100
0000
0000
1100
0000
0000
1100
0000
1100
0000
0000
0000
,
0001
0100
0001
0100
0002
0000
0000
0000
0000
0000
0000
0000
0000
0003
1000
0000
,
0100
0010
0000
0002
0000
0000
0000
0000
0000
0000
0000
0000
0000
0003
1000
0000
,
0100
0010
0000
2000
0000
0000
0000
0000
0000
0000
0000
0000
0000
0000
0000
0000
,
0000
3000
0000
0000
0000
0000
0000
0000
;

//---------------dance-single - ----------------
#NOTES:
     dance-single:
     :
     Medium:
     6:
     0.349,0.368,0.010,0.441,0.231,194.000,1.000,43.000,0.000,0.000:
0000
0000
2000
0000
3000
0200
0000
0000
,
0000
0300
0000
0000
0020
0000
0000
0000
0000
0000
2030
0000
0000
0000
0000
0000
,
0000
3000
0000
0000
0100
0000
0000
0000
0001
0000
0000
0000
0100
0000
0000
0000
,
0010
0000
0000
0000
1000
0100
0000
0001
0000
0100
0000
0010
2000
0000
0000
3000
,
0001
0000
0002
0000
0000
0000
0003
0100
,
0010
0000
0000
2000
0000
0000
0000
0000
0000
0000
0000
0000
3000
0000
0001
0000
,
0100
0000
0000
0002
0000
0000
0000
0000
0000
0000
0000
0000
0000
0000
0000
0000
,
0000
0000
0000
0003
0000
0000
0100
0000
0010
0000
0100
0000
0010
0000
1000
0000
,
0100
0000
0010
0000
0002
0000
0000
0000
0000
0000
0000
0000
0000
0003
1000
0000
,
0100
0000
0000
2000
0000
0000
0000
0000
0000
0000
0000
0000
3000
0000
0001
0000
,
0010
0000
0000
2000
0000
0000
0000
0000
0000
0000
0000
0000
0000
0000
0000
0000
,
0000
0000
0000
0000
0000
3000
0000
0000
0100
0000
0000
0000
0100
0000
0000
0000
,
0100
0000
0020
0000
0000
0000
0000
0030
,
0001
0000
0000
0002
0000
0000
0000
0000
0000
0000
0000
0000
0000
0000
0003
0000
,
0100
0000
0000
0200
0000
0000
0000
0000
0000
0000
0000
0000
0000
0000
0300
0000
,
1000
0000
0000
2000
0000
0000
0000
0000
0000
0000
0000
0000
0000
0000
0000
0000
,
3000
0000
0100
0000
0010
0000
0000
0001
0000
0000
0002
0000
0000
0000
0003
0000
,
1000
0100
0000
0000
0001
0000
0000
0100
0000
0000
0020
0000
0000
0030
0000
0000
,
0001
0100
0000
0000
0020
0000
0000
0000
0000
0000
0000
0000
0000
0000
0030
0000
,
0001
0001
0002
0000
0000
0000
0003
0100
,
0100
0000
0000
0000
0010
0000
1000
0000
0100
0000
0001
0000
0010
0000
0000
0001
,
0000
2000
0000
0000
0000
0000
0000
0000
,
0000
0000
3000
0000
0001
0000
0100
0000
0010
0000
0001
0000
0100
0000
0000
0010
,
0000
0200
0000
0000
0000
0000
0000
0000
,
0000
0300
0000
0000
0001
0000
0001
0000
1000
0000
1000
0000
0100
0000
0000
0100
,
0000
0000
0020
0000
0000
0000
0031
0000
0100
0000
0010
0000
0001
0000
0000
0001
,
0000
1000
0200
0000
0000
0000
0000
0000
,
0000
0000
0300
0000
1000
0000
0000
0001
0000
0000
1000
0000
0001
0000
0000
0000
,
0100
0001
0200
0000
0000
0000
0300
1000
,
0100
0001
0000
0200
0000
0000
0000
0000
0000
0000
0000
0000
0000
0000
0300
0000
,
1000
0001
0000
0002
0000
0000
0000
0000
0000
0000
0000
0000
0000
0000
0000
0000
,
0000
0000
0000
0003
0000
0000
0100
0000
0010
0000
0001
0000
0100
0000
0010
0000
,
1000
0000
0100
0000
0002
0000
0000
0000
0000
0000
0000
0000
0000
0000
0000
0003
,
1000
0001
0000
0002
0000
0000
0000
0000
0000
0000
0000
0000
0000
0000
0003
0000
,
0100
1000
0000
2000
0000
0000
0000
0000
0000
0000
0000
0000
0000
0000
0000
0000
,
0000
3000
0010
0010
,
0100
0000
0200
0000
0000
0000
0000
0300
,
1000
0001
0000
0002
0000
0000
0000
0000
0000
0000
0000
0000
0000
0000
0003
0000
,
0001
1000
0000
2000
0000
0000
0000
0000
0000
0000
0000
0000
0000
0000
3000
0000
,
1000
0001
0000
0002
0000
0000
0000
0000
0000
0000
0000
0000
0000
0000
0000
0000
,
0000
0000
0003
0000
0100
0000
0000
0100
0000
0000
0020
0000
0000
0000
0030
0000
,
1000
0000
0000
0000
0001
0000
0000
0001
0000
0000
0200
0000
0000
0000
0300
0000
,
0001
0000
0002
0000
0000
0000
0000
0003
,
0100
0010
0200
0000
0000
0000
0300
1000
,
1000
0000
0000
0000
0001
0000
0100
0000
0010
0000
0100
0000
0010
0000
0000
1000
,
0000
0200
0000
0000
0001
0000
0001
0000
,
0001
0300
0000
0000
0001
0000
0100
0000
0010
0000
0001
0000
0100
0000
0000
0010
,
0000
2000
0000
0000
0100
0000
0010
0000
,
0100
3000
0000
0000
0001
0000
0100
0000
0010
0000
0001
0000
0100
0000
0000
0100
,
0000
0000
1000
0000
0000
0000
0001
0000
0100
0000
0010
0000
0001
0000
0000
0100
,
0000
0010
2000
0000
0000
0000
0000
0000
,
0000
3000
0000
0000
0001
0000
0000
1000
0000
0000
0001
0000
1001
0000
0000
0000
,
0100
0000
0010
0000
0002
0000
0000
0000
0000
0000
0000
0000
0000
0003
1000
0000
,
0100
0001
0000
0200
0000
0000
0000
0000
0000
0000
0000
0000
0000
0000
0000
0300
,
1000
0100
0000
0002
0000
0000
0000
0000
0000
0000
0000
0000
0000
0000
0000
0000
,
0000
0003
0000
0000
0000
0000
0000
0000
;

//---------------dance-single - ----------------
#NOTES:
     dance-single:
     :
     Easy:
     4:
     0.271,0.345,0.082,0.411,0.128,137.000,8.000,40.000,0.000,0.000:
0000
0000
0000
0000
2000
0000
0000
0000
0000
0000
0000
3000
0000
0000
0000
0000
,
0000
0000
0002
0000
0000
0003
0000
0000
,
0000
0100
0100
0010
,
0010
0000
0000
0000
1000
0000
0000
0001
0000
0001
0000
0000
1000
0000
0000
0000
,
0100
0000
0000
0000
0020
0000
0000
0000
0000
0000
0000
0000
0000
0030
0000
0000
,
0001
0000
0000
0002
0000
0000
0000
0000
0000
0000
0000
0000
0000
0000
0003
0000
,
0100
0000
0000
2000
0000
0000
0000
0000
0000
0000
0000
0000
0000
0000
0000
0000
,
0000
3000
0001
0001
,
0100
0000
0000
0000
0020
0000
0000
0000
0000
0000
0000
0000
0000
0000
0000
0030
,
1000
0000
0000
2000
0000
0000
0000
0000
0000
0000
0000
0000
0000
0000
3000
0000
,
0001
0000
0000
0002
0000
0000
0000
0000
0000
0000
0000
0000
0000
0000
0000
0000
,
0000
0003
0100
0100
,
0100
0000
0020
0000
0000
0000
0000
0030
,
0001
0000
0000
0002
0000
0000
0000
0000
0000
0000
0000
0000
0000
0000
0003
0000
,
0100
0000
0000
0200
0000
0000
0000
0000
0000
0000
0000
0000
0000
0000
0300
0000
,
1000
0000
0000
2000
0000
0000
0000
0000
0000
0000
0000
0000
0000
0000
0000
0000
,
0000
3000
0000
0000
0010
0000
0000
0000
0001
0000
0000
0000
0100
0000
0000
0000
,
0010
1100
0001
0100
,
0010
0000
0000
0000
2000
0000
0000
0000
0000
0000
0000
0000
0000
0000
0000
3000
,
0001
0000
0000
0000
0002
0000
0000
0000
0000
0000
0000
0000
0000
0000
0010
0003
,
0010
0000
0000
0000
0100
0000
0000
0000
0010
0000
0000
0000
0001
0000
0000
0010
,
0000
0200
0000
0000
0000
0000
0000
0000
,
0000
0000
0300
0000
0010
0000
0000
0000
0001
0000
0000
0000
0100
0000
0000
0100
,
0000
2000
0000
0000
0000
0000
0000
0000
,
0000
0000
3000
0000
0001
0000
0000
0000
0001
0000
0000
0000
0001
0000
0000
1000
,
0000
0000
2000
0000
0000
0000
0000
3000
0100
0000
0000
0000
0010
0000
0000
0000
,
0001
0002
0000
0000
,
0000
0003
1000
0000
1000
1000
1000
0000
,
0100
0000
0000
0000
0020
0000
0000
0000
0000
0000
0000
0000
0000
0030
0000
0000
,
0001
0000
0000
0002
0000
0000
0000
0000
0000
0000
0000
0000
0000
0000
0003
0000
,
1000
0000
0000
0002
0000
0000
0000
0000
0000
0000
0000
0000
0000
0000
0000
0000
,
0000
0000
0000
0003
0000
0000
0000
0000
,
0100
0010
0200
0000
0000
0000
0000
0300
,
1000
0000
0000
2000
0000
0000
0000
0000
0000
0000
0000
0000
0000
0000
3000
0000
,
1000
0000
0000
2000
0000
0000
0000
0000
0000
0000
0000
0000
0000
0000
0000
0000
,
0000
0000
0000
3000
0000
0000
0000
0000
0001
0000
0000
0000
0001
0000
0000
0000
,
0001
0000
2000
0000
0000
0000
0000
3000
,
0100
0000
0000
0020
0000
0000
0000
0000
0000
0000
0000
0000
0000
0000
0030
0000
,
0001
0000
0000
0020
0000
0000
0000
0000
0000
0000
0000
0000
0000
0000
0030
0000
,
0100
0000
0000
2000
0000
0000
0000
0000
0000
0000
0000
0000
0000
0000
0000
0000
,
0000
3000
0001
0000
0001
0000
0100
0000
,
0010
0011
0011
1100
,
1100
0000
0202
0000
0000
0000
0000
0303
,
0100
0100
0200
0000
0000
0000
0300
0001
,
0001
0100
0010
0100
,
0100
2200
0000
0000
0000
0000
0000
0000
,
0000
0300
3000
0000
0001
0000
0000
0000
0100
0000
0000
0000
0010
0000
0000
1000
,
0000
0202
0000
0000
0000
0000
0000
0000
,
0000
0303
0000
0000
1000
0000
0000
0000
1000
0000
0000
0000
0100
0000
0000
0100
,
0000
0000
0020
0000
0000
0000
0000
0030
1000
0000
0000
0000
1000
0000
0000
0100
,
0000
0001
0002
0000
0000
0000
0000
0000
,
0000
0000
0003
0000
1000
0000
0000
0001
0000
0000
1000
0000
0001
0000
0000
0000
,
0100
0000
0020
0000
0000
0000
0000
0030
,
0100
0000
0000
0200
0000
0000
0000
0000
0000
0000
0000
0000
0000
0000
0300
0000
,
0001
0000
0000
0002
0000
0000
0000
0000
0000
0000
0000
0000
0000
0000
0000
0000
,
0000
0000
0000
0000
,
0003
0000
0000
0000
;
