#TITLE:Big Fat;
#SUBTITLE:(Original Mix);
#ARTIST:Tonic feat. Tarantula Man;
#TITLETRANSLIT:;
#SUBTITLETRANSLIT:;
#ARTISTTRANSLIT:;
#CREDIT:owenviau1;
#BANNER:BN.PNG;
#BACKGROUND:BG.PNG;
#LYRICSPATH:;
#CDTITLE:../ov1_title.png;
#MUSIC:Big Fat (Original Mix) - Tonic Feat. Tarantula Man.mp3;
#OFFSET:-0.183;
#SAMPLESTART:88.026;
#SAMPLELENGTH:29.999;
#SELECTABLE:YES;
#DISPLAYBPM:128.000;
#BPMS:0.000=122.614,1.000=127.999,8.000=128.005,9.000=127.999,16.000=128.005,17.000=127.999,24.000=128.005,25.000=127.999,32.000=128.005,33.000=127.999,40.000=128.005,41.000=127.999,48.000=128.005,49.000=127.999,56.000=128.005,57.000=127.999,64.000=128.005,65.000=127.999,72.000=128.005,73.000=127.999,80.000=128.005,81.000=127.999,88.000=128.005,89.000=127.999,96.000=128.005,97.000=127.999,105.000=128.005,106.000=127.999,113.000=128.005,114.000=127.999,121.000=128.005,122.000=127.999,129.000=128.005,130.000=127.999,137.000=128.005,138.000=127.999,145.000=128.005,146.000=127.999,153.000=128.005,154.000=127.999,161.000=128.005,162.000=127.999,169.000=128.005,170.000=127.999,177.000=128.005,178.000=127.999,185.000=128.005,186.000=127.999,193.000=128.005,194.000=127.999,201.000=128.005,202.000=127.999,210.000=128.005,211.000=127.999,218.000=128.005,219.000=127.999,226.000=128.005,227.000=127.999,234.000=128.005,235.000=127.999,242.000=128.005,243.000=127.999,250.000=128.005,251.000=127.999,258.000=128.005,259.000=127.999,266.000=128.005,267.000=127.999,274.000=128.005,275.000=127.999,282.000=128.005,283.000=127.999,290.000=128.005,291.000=127.999,298.000=128.005,299.000=127.999,306.000=128.005,307.000=127.999,314.000=128.005,315.000=127.999,322.000=128.005,323.000=127.999,330.000=128.005,331.000=127.999,338.000=128.005,339.000=127.999,346.000=128.005,347.000=127.999,354.000=128.005,355.000=127.999,362.000=128.005,363.000=127.999,370.000=128.005,371.000=127.999,378.000=128.005,379.000=127.999,386.000=128.005,387.000=127.999,394.000=128.005,395.000=127.999,402.000=128.005,403.000=127.999,411.000=128.005,412.000=127.999,420.000=128.005,421.000=127.999,427.000=128.005,428.000=127.999,436.000=128.005,437.000=127.999,443.000=128.005,444.000=127.999,452.000=128.005,453.000=127.999,459.000=128.005,460.000=127.999,468.000=128.005,469.000=127.999,475.000=128.005,476.000=127.999,484.000=128.005,485.000=127.999,491.000=128.005,492.000=127.999,500.000=128.005,501.000=127.999,507.000=128.005,508.000=127.999,516.000=128.005,517.000=127.999,523.000=128.005,524.000=127.999,532.000=128.005,533.000=127.999,539.000=128.005,540.000=127.999,548.000=128.005,549.000=127.999,555.000=128.005,556.000=127.999,564.000=128.005,565.000=127.999,571.000=128.005,572.000=127.999;
#STOPS:;
#BGCHANGES:;
// cache tags:
#FIRSTBEAT:0.000;
#LASTBEAT:575.875;
#SONGFILENAME:Songs/owenviau1 Simfiles 5/Big Fat (Original Mix) - [owenviau1] v1.2/Big Fat.sm;
#HASMUSIC:1;
#HASBANNER:1;
#MUSICLENGTH:270.471;
// end cache tags

//---------------dance-single - Index----------------
#NOTES:
     dance-single:
     Index:
     Challenge:
     10:
     1.000,1.000,1.000,0.932,0.174,1141.000,523.000,252.000,54.000,85.000:

0110
1000
1001
0010
1100
0001
0110
0100
,
1001
0000
0000
0000
0010
0000
0000
0000
0101
0000
0000
0000
1000
0000
0000
0000
1010
0000
0000
0000
0001
0000
0000
0000
0101
0000
0000
0000
0010
0000
0000
0100
,
1001
0010
1100
0001
0011
0100
0101
1000
,
0110
0000
0000
0000
0001
0000
0000
0000
1001
0000
0000
0000
0100
0000
0000
0000
1010
0000
0000
0000
0001
0000
0000
0000
1100
0000
0000
0000
1000
0000
0000
0100
,
0011
0100
1001
0010
1100
0001
0110
0100
,
1001
0000
0000
0000
0010
0000
0000
0000
0101
0000
0000
0000
1000
0000
0000
0000
1010
0000
0000
0000
0001
0000
0000
0000
0101
0000
0000
0000
0010
0000
0000
0100
,
1001
0010
1100
0001
0011
0100
0101
1000
,
0110
0000
0000
0000
0001
0000
0000
0000
1001
0000
0000
0000
0100
0000
0000
0000
1010
0000
0000
0000
0001
0000
0000
0000
1100
0000
0000
0000
0001
0000
0000
0100
,
1010
0100
1001
0010
1100
0001
0110
0100
,
1001
0000
0000
0000
0010
0000
0000
0000
0101
0000
0000
0000
1000
0000
0000
0000
1010
0000
0000
0000
0001
0000
0000
0000
0101
0000
0000
0000
0010
0000
0000
0100
,
1001
0010
1100
0001
0011
0100
0101
1000
,
0110
0000
0000
0000
0001
0000
0000
0000
1001
0000
0000
0000
0100
0000
0000
0000
1010
0000
0000
0000
0001
0000
0000
0000
1100
0000
0000
0000
0010
0000
0000
0100
,
1001
0010
1100
0001
0110
0100
1001
0010
,
0101
0000
0000
0000
1000
0000
0000
0000
1010
0000
0000
0000
0100
0000
0000
0000
0011
0000
0000
0000
1000
0000
0000
0000
0101
0000
0000
0000
0001
0000
0000
1000
,
0110
0001
1010
0100
1001
0001
0110
1000
,
1001
0010
0101
1000
0110
1000
0011
0100
,
2002
0000
3003
0000
2000
3200
0320
0000
0032
0000
0003
0000
0220
0000
0332
0000
,
2203
0000
3300
0000
0002
2003
3020
0000
0230
0000
0300
0000
0002
0023
0230
0000
,
2300
0000
0000
0000
0000
0000
0000
0000
0000
0000
0000
0000
0000
0000
0000
0000
0000
0000
0000
0000
0000
0000
0000
0000
3000
0000
0000
0000
0000
0000
0000
0000
0000
0000
0000
0000
0000
0000
0000
0000
0000
0000
0000
0000
0000
0000
0000
0000
0002
0000
0000
0000
0000
0000
0000
0000
0000
0000
0000
0000
0203
0000
0000
0000
0000
0000
0000
0000
0000
0000
0000
0000
0320
0000
0000
0000
0000
0000
0000
0000
0000
0000
0000
0000
0000
0000
0000
0000
0000
0000
0000
0000
0000
0000
0000
0000
2030
0000
0000
0000
0000
0000
0000
0000
0000
0000
0000
0000
0000
0000
0000
0000
0000
0000
0000
0000
0000
0000
0000
0000
3000
0000
0000
0000
0000
0000
0000
0000
0000
0000
0000
0000
0000
0000
0000
0000
0000
0000
0000
0000
0000
0000
0000
0000
2002
0000
0000
0000
0000
0000
0000
0000
0000
0000
0000
0000
0000
0000
0000
0000
0000
0000
0000
0000
0000
0000
0000
0003
3202
0000
0000
0000
0000
0000
0000
0000
0000
0000
0000
0000
0000
0000
0000
0000
0000
0000
0000
0000
0000
0000
0000
0000
,
2323
0000
3030
0000
0002
2003
3020
0000
0230
0000
0300
0000
2000
3020
0230
0000
,
1301
0100
1010
0001
0110
1000
0101
0010
,
1001
0100
0110
0001
1100
0010
0101
0010
,
1001
0100
0110
0001
1100
1000
0011
0010
,
0101
0000
0100
0000
1001
0000
0001
0000
0110
0000
0001
0000
1010
0100
0001
0000
,
1100
0001
0110
1000
1001
0010
0101
1000
,
0110
0001
1100
0001
0011
1000
0110
1000
,
1001
0010
0101
0010
0110
1000
1100
0001
,
1001
0010
0110
1000
1100
0001
0011
0100
,
0110
1000
1001
0010
0101
1000
0110
0001
,
1100
0010
1001
0010
0101
1000
0110
0001
,
1100
0010
1001
0010
0101
1000
0110
1000
,
1100
0001
1001
0010
0110
1000
0101
0010
,
2002
3003
MMMM
MMMM
,
2020
0000
0000
0000
0000
0000
3030
0000
0000
0000
0000
0000
M000
0M00
00M0
000M
00M0
0M00
M000
0000
0000
0000
0000
0000
,
0220
0000
0330
0000
M00M
0MM0
M00M
0000
,
0022
0000
0000
0000
0000
0000
0000
0000
0033
0000
0000
0000
0000
0000
0000
0000
00M0
0000
00M0
0000
MMMM
M00M
0MM0
0000
0MM0
0000
0000
0000
0000
0000
0000
0000
,
2002
3103
1010
0100
0202
1303
1010
0001
,
0220
1330
0011
1000
2200
3301
0110
0001
,
2002
3103
1010
0001
0220
1330
0101
0010
,
2200
3310
0011
1000
0220
0331
1100
0001
,
0022
1033
0110
0001
2002
3013
0101
1000
,
0220
0331
1010
0001
0202
1303
0110
1000
,
2002
3013
0101
0010
2200
3310
1001
0100
,
0220
1330
0011
0010
2200
3301
0110
0010
,
2002
3103
0220
0331
2200
3310
2002
3013
,
0202
1303
0220
0331
2200
3301
2002
3013
,
0202
0000
0000
0000
0000
0000
0000
0000
0000
0000
0000
0000
0000
0000
0000
0000
0000
0000
0000
0000
0000
0000
0000
0000
0313
0000
0000
0000
0000
0000
0000
0000
0000
0000
0000
0000
0000
0000
0000
0000
0000
0000
0000
0000
0000
0000
0000
0000
2200
0000
0000
0000
0000
0000
0000
0000
0000
0000
0000
0000
0000
0000
0000
0000
0000
0000
0000
0000
0000
0000
0000
0300
3220
0000
0000
0000
0000
0000
0000
0000
0000
0000
0000
0000
0000
0000
0000
0000
0000
0000
0000
0000
0000
0000
0000
0300
0232
0000
0000
0000
0000
0000
0000
0000
0000
0000
0000
0000
0000
0000
0000
0000
0000
0000
0000
0000
0000
0000
0000
0303
2002
0000
0000
0000
0000
0000
0000
0000
0000
0000
0000
0000
0000
0000
0000
0000
0000
0000
0000
0000
0000
0000
0000
0000
3223
0000
0000
0000
0000
0000
0000
0000
0000
0000
0000
0000
0000
0000
0000
0000
0000
0000
0000
0000
0000
0000
0000
0030
2320
0000
0000
0000
0000
0000
0000
0000
0000
0000
0000
0000
0000
0000
0000
0000
0000
0000
0000
0000
0000
0000
0000
0000
,
3232
0323
2230
3300
0202
0303
0220
0330
,
1004
0000
0000
0400
0000
0000
1303
0100
0010
0001
0000
0000
1010
0000
0000
0001
0000
0000
0110
0000
0000
1000
0000
0000
,
0104
0000
0000
0000
0000
0103
1000
0010
0100
0001
0000
0000
1010
0000
0000
0100
0000
0000
1001
0000
0000
0010
0000
0000
,
0410
0000
0000
0004
0000
0000
1303
0100
0010
0001
0000
0000
1010
0000
0000
0001
0000
0000
1100
0000
0000
0010
0000
0000
,
4001
0000
0000
0000
0000
3100
0010
0001
1000
0010
0000
0000
1100
0000
0000
0001
0000
0000
1010
0000
0000
0100
0000
0000
,
1004
0000
0000
0400
0000
0000
1303
0100
0010
0001
0000
0000
1010
0000
0000
0001
0000
0000
0110
0000
0000
1000
0000
0000
,
0104
0000
0000
0000
0000
0103
1000
0010
0100
0001
0000
0000
1010
0000
0000
0100
0000
0000
1001
0000
0000
0010
0000
0000
,
0410
0000
0000
0004
0000
0000
1303
0100
0010
0001
0000
0000
1010
0000
0000
0001
0000
0000
1100
0000
0000
0010
0000
0000
,
4001
0000
0000
0000
0000
3100
0010
0001
1000
0010
0000
0000
1100
0000
0000
0001
0000
0000
1000
0100
0010
0001
0010
0100
,
1001
0010
1100
0001
0110
1000
1001
0010
,
0101
1000
0110
0001
1010
0100
1001
0100
,
0110
0001
1100
0001
0011
0100
0101
1000
,
0110
0001
1010
0100
1001
1000
0110
0010
,
1001
0010
1100
0001
0110
1000
1001
0010
,
0101
1000
0110
0001
1010
0100
1001
0100
,
1010
0001
1100
0001
0101
1000
0011
1000
,
0202
0000
0000
0000
0000
0000
0000
0000
0000
0000
0000
0000
0000
0000
0000
0000
0000
0000
0000
0000
0000
0000
0000
0000
2323
0000
0000
0000
0000
0000
0000
0000
0000
0000
0000
0000
0000
0000
0000
0000
0000
0000
0000
0000
0000
0000
0000
0030
3220
0000
0000
0000
0000
0000
0000
0000
0000
0000
0000
0000
0000
0000
0000
0000
0000
0000
0000
0000
0000
0000
0000
0000
1330
0000
0000
0000
0000
0000
0000
0000
0000
0000
0000
0000
0000
0000
0000
0000
0000
0000
0000
0000
0000
0000
0000
0000
2002
0000
0000
0000
0000
0000
0000
0000
0000
0000
0000
0000
0000
0000
0000
0000
0000
0000
0000
0000
0000
0000
0000
0000
3013
0000
0000
0000
0000
0000
0000
0000
0000
0000
0000
0000
0000
0000
0000
0000
0000
0000
0000
0000
0000
0000
0000
0000
0202
0000
0000
0000
0000
0000
0000
0000
0000
0000
0000
0000
0000
0000
0000
0000
0000
0000
0000
0000
0000
0000
0000
0000
0313
0000
0000
0000
0000
0000
0000
0000
0000
0000
0000
0000
0000
0000
0000
0000
0000
0000
0000
0000
0000
0000
0000
0000
,
1001
0100
0010
0000
1100
0000
0010
0000
1001
0000
0001
0000
0110
0000
1000
0000
,
1001
0010
0101
1000
0110
0001
1010
0100
,
1001
0100
0110
0001
1100
0001
0011
0100
,
0101
1000
0110
0001
1010
0100
1001
1000
,
0110
0010
1001
0010
1100
0001
0110
1000
,
1001
0010
0101
1000
0110
0001
1010
0100
,
1001
0100
0110
0001
1100
0001
0011
0100
,
0110
0000
0000
1000
0000
0000
1001
0000
0000
0010
0000
0000
0101
0000
0000
0100
0000
0000
1001
0010
0100
0001
1000
0010
,
2002
0000
3003
0000
2000
3200
0320
0000
0032
0000
0003
0000
0220
0000
0332
0000
,
2203
0000
3300
0000
0002
2003
3020
0000
0230
0000
0300
0000
0002
0023
0230
0000
,
2300
0000
0000
0000
0000
0000
0000
0000
0000
0000
0000
0000
0000
0000
0000
0000
0000
0000
0000
0000
0000
0000
0000
0000
3000
0000
0000
0000
0000
0000
0000
0000
0000
0000
0000
0000
0000
0000
0000
0000
0000
0000
0000
0000
0000
0000
0000
0000
0002
0000
0000
0000
0000
0000
0000
0000
0000
0000
0000
0000
0203
0000
0000
0000
0000
0000
0000
0000
0000
0000
0000
0000
0320
0000
0000
0000
0000
0000
0000
0000
0000
0000
0000
0000
0000
0000
0000
0000
0000
0000
0000
0000
0000
0000
0000
0000
2030
0000
0000
0000
0000
0000
0000
0000
0000
0000
0000
0000
0000
0000
0000
0000
0000
0000
0000
0000
0000
0000
0000
0000
3000
0000
0000
0000
0000
0000
0000
0000
0000
0000
0000
0000
0000
0000
0000
0000
0000
0000
0000
0000
0000
0000
0000
0000
2002
0000
0000
0000
0000
0000
0000
0000
0000
0000
0000
0000
0000
0000
0000
0000
0000
0000
0000
0000
0000
0000
0000
0003
3202
0000
0000
0000
0000
0000
0000
0000
0000
0000
0000
0000
0000
0000
0000
0000
0000
0000
0000
0000
0000
0000
0000
0000
,
2323
0000
3030
0000
0002
2003
3020
0000
0230
0000
0300
0000
2000
3020
0230
0000
,
1301
0010
1100
0001
0011
1000
0101
1000
,
0011
1000
1100
0001
1010
0001
1100
0010
,
1001
0001
0110
0100
1001
0010
0101
1000
,
0110
0001
1100
0010
1001
0100
0011
0100
,
1001
0100
1010
0001
0110
1000
0101
0010
,
1001
0100
0110
0001
1100
0010
0101
0010
,
1001
0100
0110
0001
1100
1000
0011
0010
,
0101
0000
0100
0000
1001
0000
0001
0000
0110
0000
0001
0000
1010
0100
0001
0000
,
0110
0001
1100
0001
0110
1000
1001
0010
,
0101
1000
0110
0001
1010
0100
1001
0100
,
0110
0001
1100
0001
0011
0100
0101
1000
,
0110
0001
1010
0100
1001
1000
0101
0010
,
2200
3300
MMMM
MMMM
,
0202
0000
0000
0000
0000
0000
0303
0000
0000
0000
0000
0000
M000
0M00
00M0
000M
00M0
0M00
M000
0000
0000
0000
0000
0000
,
2020
0000
3030
0000
M00M
0MM0
M00M
0000
,
2002
3003
0000
0000
,
2002
3103
1010
0100
0202
1303
1010
0001
,
0220
1330
0011
1000
2200
3301
0110
0001
,
2002
3103
1010
0001
0220
1330
0101
0010
,
2200
3310
0011
1000
0220
0331
1100
0001
,
0022
1033
0110
0001
2002
3013
0101
1000
,
0220
0331
1010
0001
0202
1303
0110
1000
,
2002
3013
0101
0010
2200
3310
1001
0100
,
0220
1330
0011
0010
2200
3301
0110
0010
,
2002
3103
0220
0331
2200
3310
2002
3013
,
0202
1303
0220
0331
2200
3301
2002
3013
,
0202
0000
0000
0000
0000
0000
0000
0000
0000
0000
0000
0000
0000
0000
0000
0000
0000
0000
0000
0000
0000
0000
0000
0000
2323
0000
0000
0000
0000
0000
0000
0000
0000
0000
0000
0000
0000
0000
0000
0000
0000
0000
0000
0000
0000
0000
0000
3000
2230
0000
0000
0000
0000
0000
0000
0000
0000
0000
0000
0000
0000
0000
0000
0000
0000
0000
0000
0000
0000
0000
0000
0300
3220
0000
0000
0000
0000
0000
0000
0000
0000
0000
0000
0000
0000
0000
0000
0000
0000
0000
0000
0000
0000
0000
0000
0300
0232
0000
0000
0000
0000
0000
0000
0000
0000
0000
0000
0000
0000
0000
0000
0000
0000
0000
0000
0000
0000
0000
0000
0303
2002
0000
0000
0000
0000
0000
0000
0000
0000
0000
0000
0000
0000
0000
0000
0000
0000
0000
0000
0000
0000
0000
0000
0000
3223
0000
0000
0000
0000
0000
0000
0000
0000
0000
0000
0000
0000
0000
0000
0000
0000
0000
0000
0000
0000
0000
0000
0030
2320
0000
0000
0000
0000
0000
0000
0000
0000
0000
0000
0000
0000
0000
0000
0000
0000
0000
0000
0000
0000
0000
0000
0000
,
3232
0323
2230
3300
0202
0303
0220
0330
,
1004
0000
0000
0400
0000
0000
1303
0100
0010
0001
0000
0000
1010
0000
0000
0001
0000
0000
0110
0000
0000
1000
0000
0000
,
0104
0000
0000
0000
0000
0103
1000
0010
0100
0001
0000
0000
1010
0000
0000
0100
0000
0000
1001
0000
0000
0010
0000
0000
,
0410
0000
0000
0004
0000
0000
1303
0100
0010
0001
0000
0000
1010
0000
0000
0001
0000
0000
1100
0000
0000
0010
0000
0000
,
4001
0000
0000
0000
0000
3100
0010
0001
1000
0010
0000
0000
1100
0000
0000
0001
0000
0000
1010
0000
0000
0100
0000
0000
,
1004
0000
0000
0400
0000
0000
1303
0100
0010
0001
0000
0000
1010
0000
0000
0001
0000
0000
0110
0000
0000
1000
0000
0000
,
0104
0000
0000
0000
0000
0103
1000
0010
0100
0001
0000
0000
1010
0000
0000
0100
0000
0000
1001
0000
0000
0010
0000
0000
,
0410
0000
0000
0004
0000
0000
1303
0100
0010
0001
0000
0000
1010
0000
0000
0001
0000
0000
1100
0000
0000
0010
0000
0000
,
4001
0000
0000
0000
0000
3100
0010
0001
1000
0010
0000
0000
1100
0000
0000
0001
0000
0000
1000
0100
0010
0001
0010
0100
,
1001
0010
1100
0001
0110
1000
1001
0010
,
0101
1000
0110
0001
1010
0100
1001
0100
,
0110
0001
1100
0001
0011
0100
0101
1000
,
0110
0001
1010
0100
1001
1000
0110
0010
,
1001
0010
1100
0001
0110
1000
1001
0010
,
0101
1000
0110
0001
1010
0100
1001
0100
,
1010
0001
1100
0001
0101
1000
0011
1000
,
0202
0000
0000
0000
0000
0000
0000
0000
0000
0000
0000
0000
0000
0000
0000
0000
0000
0000
0000
0000
0000
0000
0000
0000
2323
0000
0000
0000
0000
0000
0000
0000
0000
0000
0000
0000
0000
0000
0000
0000
0000
0000
0000
0000
0000
0000
0000
0030
3220
0000
0000
0000
0000
0000
0000
0000
0000
0000
0000
0000
0000
0000
0000
0000
0000
0000
0000
0000
0000
0000
0000
0000
1330
0000
0000
0000
0000
0000
0000
0000
0000
0000
0000
0000
0000
0000
0000
0000
0000
0000
0000
0000
0000
0000
0000
0000
2002
0000
0000
0000
0000
0000
0000
0000
0000
0000
0000
0000
0000
0000
0000
0000
0000
0000
0000
0000
0000
0000
0000
0000
3013
0000
0000
0000
0000
0000
0000
0000
0000
0000
0000
0000
0000
0000
0000
0000
0000
0000
0000
0000
0000
0000
0000
0000
0202
0000
0000
0000
0000
0000
0000
0000
0000
0000
0000
0000
0000
0000
0000
0000
0000
0000
0000
0000
0000
0000
0000
0000
0313
0000
0000
0000
0000
0000
0000
0000
0000
0000
0000
0000
0000
0000
0000
0000
0000
0000
0000
0000
0000
0000
0000
0000
,
1001
0100
0010
0000
1100
0000
0010
0000
1001
0000
0001
0000
0110
0000
1000
0000
,
1001
0010
0101
1000
0110
0001
1010
0100
,
1001
0100
0110
0001
1100
0001
0011
0100
,
0101
1000
0110
0001
1010
0100
1001
1000
,
0110
0010
1001
0010
1100
0001
0110
1000
,
1001
0010
0101
1000
0110
0001
1010
0100
,
1001
0100
0110
0001
1100
0001
0011
0100
,
0110
0000
0000
1000
0000
0000
1001
0000
0000
0010
0000
0000
0101
0000
0000
0100
0000
0000
1001
0010
0100
0001
1000
0010
,
1001
0010
0101
1000
1010
0010
0101
1000
,
0110
0001
1100
0001
0011
1000
0110
1000
,
1001
0010
0101
0010
0110
1000
1100
0001
,
1001
0010
0110
1000
1100
0001
0011
0100
,
0110
1000
1001
0010
0101
1000
0110
0001
,
1100
0010
1001
0010
0101
1000
0110
0001
,
1100
0010
1001
0010
0101
1000
0110
1000
,
1100
0001
1001
0010
0110
1000
0101
0010
,
1001
0100
1001
0010
1100
0001
0110
0100
,
1001
0000
0000
0000
0010
0000
0000
0000
0101
0000
0000
0000
1000
0000
0000
0000
1010
0000
0000
0000
0001
0000
0000
0000
0101
0000
0000
0000
0010
0000
0000
0100
,
1001
0010
1100
0001
0011
0100
0101
1000
,
0110
0000
0000
0000
0001
0000
0000
0000
1001
0000
0000
0000
0100
0000
0000
0000
1010
0000
0000
0000
0001
0000
0000
0000
1100
0000
0000
0000
1000
0000
0000
0100
,
0011
0100
1001
0010
1100
0001
0110
0100
,
1001
0000
0000
0000
0010
0000
0000
0000
0101
0000
0000
0000
1000
0000
0000
0000
1010
0000
0000
0000
0001
0000
0000
0000
0101
0000
0000
0000
0010
0000
0000
0100
,
1001
0010
1100
0001
0011
0100
0101
1000
,
0110
0000
0000
0000
0001
0000
0000
0000
1001
0000
0000
0000
0100
0000
0000
0000
1010
0000
0000
0000
0001
0000
0000
0000
1100
0000
0000
0000
0001
0000
0000
0100
;

//---------------dance-single - ----------------
#NOTES:
     dance-single:
     :
     Hard:
     9:
     0.739,0.878,0.207,0.843,0.189,1108.000,56.000,228.000,66.000,4.000:

1000
0100
0010
0001
0100
0010
1000
0001
,
1000
0000
0000
0000
0010
0000
0000
0000
0100
0000
0000
0000
0001
0000
0000
0000
0010
0000
0000
0000
0100
0000
0000
0000
1000
0000
0000
0000
0001
0000
0000
1000
,
0001
0001
0010
0100
1000
0010
0100
0001
,
0010
0000
0000
0000
0001
0000
0000
0000
1000
0000
0000
0000
0010
0000
0000
0000
0100
0000
0000
0000
0001
0000
0000
0000
1000
0000
0000
0000
0001
0000
0000
0001
,
0100
0010
1000
0100
0010
0001
0100
0010
,
1000
0000
0000
0000
0010
0000
0000
0000
0100
0000
0000
0000
0001
0000
0000
0000
0010
0000
0000
0000
0100
0000
0000
0000
1000
0000
0000
0000
0001
0000
0000
1000
,
0010
0100
0001
1000
0100
0010
0001
0010
,
0100
0000
0000
0000
1000
0000
0000
0000
0001
0000
0000
0000
1000
0000
0000
0000
0010
0000
0000
0000
0100
0000
0000
0000
0001
0000
0000
0000
1000
0000
0000
0100
,
0010
0001
1000
0010
1000
0001
0100
0010
,
1000
0000
0000
0000
0100
0000
0000
0000
0010
0000
0000
0000
0001
0000
0000
0000
0100
0000
0000
0000
0010
0000
0000
0000
1000
0000
0000
0000
0100
0000
0000
0001
,
0010
0100
1000
0001
0100
0010
1000
0001
,
0010
0000
0000
0000
0001
0000
0000
0000
0100
0000
0000
0000
0010
0000
0000
0000
1000
0000
0000
0000
0001
0000
0000
0000
0100
0000
0000
0000
1000
0000
0000
0010
,
1000
0010
0100
0001
0010
0100
1000
0001
,
0100
0000
0000
0000
0010
0000
0000
0000
0100
0000
0000
0000
0001
0000
0000
0000
1000
0000
0000
0000
0100
0000
0000
0000
0010
0000
0000
0000
0001
0000
0000
0001
,
1000
1000
0100
0010
0001
0100
0010
1000
,
0001
0100
0010
1000
0100
0010
0001
0100
,
2002
0000
3003
0000
2000
3200
0320
0000
0032
0000
0003
0000
0200
0000
0302
0000
,
2003
0000
3000
0000
0002
2003
3020
0000
0230
0000
0300
0000
0002
0023
0230
0000
,
2300
0000
3000
0000
0002
0203
0320
0000
2030
0000
3000
0000
0020
0000
0230
0000
,
2300
0000
3000
0000
0002
2003
3020
0000
0230
0000
0300
0000
2000
3020
0230
0000
,
1302
0000
0003
0000
2000
3200
0320
0000
0032
0000
0003
0000
0200
0000
0302
0000
,
2003
0000
3000
0000
0002
2003
3020
0000
0230
0000
0300
0000
0002
0023
0230
0000
,
2300
0000
3000
0000
0002
0203
0320
0000
2030
0000
3000
0000
0020
0000
0230
0000
,
2300
0000
3000
0000
0002
2003
3020
0000
0230
0000
0300
0000
2000
3020
0230
0000
,
1301
0010
0100
1000
0001
0010
0001
1000
,
0010
0100
0001
0010
0100
1000
0100
0001
,
0010
0001
0100
0010
1000
0100
1000
0001
,
0010
0100
1000
0010
0100
0001
0010
0100
,
1001
0010
1000
0001
0010
0001
1000
0010
,
0100
0001
0010
0100
1000
0001
0010
0100
,
0001
0100
1000
0010
0100
0001
1000
0100
,
0010
0001
0100
0010
1000
0001
0010
0100
,
2002
3003
MMMM
MMMM
,
2020
0000
0000
0000
0000
0000
3030
0000
0000
0000
0000
0000
M000
0M00
00M0
000M
00M0
0M00
M000
0000
0000
0000
0000
0000
,
0220
0000
0330
0000
M00M
0MM0
M00M
0000
,
0022
0000
0000
0000
0000
0000
0000
0000
0033
0000
0000
0000
0000
0000
0000
0000
00M0
0000
00M0
0000
MMMM
M00M
0MM0
0000
0MM0
0000
0000
0000
0000
0000
0000
0000
,
0002
0103
1000
0100
0002
1003
0010
0001
,
0020
1030
0001
1000
0200
0301
0010
0001
,
2000
3100
0010
0001
0020
1030
0100
0001
,
2000
3010
0001
1000
0020
0031
1000
0001
,
0020
1030
0100
0001
2000
3010
0001
1000
,
0200
0301
1000
0001
0200
1300
0010
1000
,
0002
0013
1000
0001
0200
0310
1000
0100
,
0020
0031
1000
0010
2000
3001
0100
0010
,
2000
3100
0020
0031
2000
3010
0002
0013
,
0200
1300
0020
0031
2000
3001
2000
3010
,
0002
0013
2000
3200
0302
2003
3020
2030
,
3002
0023
0230
0300
2002
3003
0220
0330
,
0004
0000
0000
0400
0000
0000
1303
0100
0010
0001
0000
0000
1000
0000
0000
0001
0000
0000
0010
0000
0000
1000
0000
0000
,
0004
0000
0000
0000
0000
0103
1000
0010
0100
0001
0000
0000
0010
0000
0000
0100
0000
0000
1000
0000
0000
0010
0000
0000
,
0400
0000
0000
0004
0000
0000
1303
0100
0010
0001
0000
0000
0010
0000
0000
0001
0000
0000
0100
0000
0000
0010
0000
0000
,
4000
0000
0000
0000
0000
3100
0010
0001
1000
0010
0000
0000
1000
0000
0000
0001
0000
0000
0010
0000
0000
0100
0000
0000
,
0004
0000
0000
0400
0000
0000
1303
0100
0010
0001
0000
0000
0100
0000
0000
0001
0000
0000
0010
0000
0000
1000
0000
0000
,
0004
0000
0000
0000
0000
0103
1000
0010
0100
0001
0000
0000
0010
0000
0000
0100
0000
0000
1000
0000
0000
0010
0000
0000
,
0400
0000
0000
0004
0000
0000
1303
0100
0010
0001
0000
0000
1000
0000
0000
0010
0000
0000
1000
0000
0000
0001
0000
0000
,
4000
0000
0000
0000
0000
3100
0010
0001
1000
0010
0000
0000
1000
0000
0000
0001
0000
0000
1000
0100
0010
0001
0010
0100
,
1000
0100
0010
0001
1000
0010
0100
0001
,
0010
0100
1000
0010
0100
0001
0010
0100
,
1001
0001
0100
0010
1000
0010
0100
0001
,
0010
0100
0010
0001
1000
0010
0100
0001
,
0110
0001
1000
0010
0100
0001
1000
0100
,
1000
0010
0100
0001
1000
0100
0010
0001
,
1001
0001
0100
0010
1000
0010
0100
1000
,
0002
2003
3020
0030
2002
3003
0202
0303
,
1001
0010
0100
0001
1000
0100
1000
0010
,
0100
0001
0010
0100
0010
0001
1000
0010
,
1001
0001
0100
0010
1000
0100
0010
0001
,
0010
0100
0010
0001
1000
0010
0100
0001
,
0011
0001
1000
0010
0100
0001
0010
0100
,
1000
0010
1000
0001
0100
0010
1000
0100
,
1100
0100
0010
0001
0010
0100
1000
0010
,
0100
0000
0000
0001
0000
0000
1000
0000
0000
0001
0000
0000
0100
0000
0000
0010
0000
0000
1000
0010
1000
0010
0000
0000
,
2002
0000
3003
0000
2000
3200
0320
0000
0032
0000
0003
0000
0200
0000
0302
0000
,
2003
0000
3000
0000
0002
2003
3020
0000
0230
0000
0300
0000
0002
0023
0230
0000
,
2300
0000
3000
0000
0002
0203
0320
0000
2030
0000
3000
0000
0020
0000
0230
0000
,
2300
0000
3000
0000
0002
2003
3020
0000
0230
0000
0300
0000
2000
3020
0230
0000
,
1302
0000
0003
0000
2000
3200
0320
0000
0032
0000
0003
0000
0200
0000
0302
0000
,
2003
0000
3000
0000
0002
2003
3020
0000
0230
0000
0300
0000
0002
0023
0230
0000
,
2300
0000
3000
0000
0002
0203
0320
0000
2030
0000
3000
0000
0020
0000
0230
0000
,
2300
0000
3000
0000
0002
2003
3020
0000
0230
0000
0300
0000
2000
3020
0230
0000
,
1301
0010
0100
1000
0001
0010
0001
1000
,
0010
0100
0001
0010
0100
1000
0100
0001
,
0010
0001
0100
0010
1000
0100
1000
0001
,
0010
0100
1000
0010
0100
0001
0010
0100
,
1001
0010
1000
0001
0010
0001
1000
0010
,
0100
0001
0010
0100
1000
0001
0010
0100
,
0001
0100
1000
0010
0100
0001
1000
0100
,
0010
0001
0100
0010
1000
0001
0010
0100
,
2002
3003
MMMM
MMMM
,
2020
0000
0000
0000
0000
0000
3030
0000
0000
0000
0000
0000
M000
0M00
00M0
000M
00M0
0M00
M000
0000
0000
0000
0000
0000
,
0220
0000
0330
0000
M00M
0MM0
M00M
0000
,
0022
0000
0000
0000
0000
0000
0000
0000
0033
0000
0000
0000
0000
0000
0000
0000
00M0
0000
00M0
0000
MMMM
M00M
0MM0
0000
0MM0
0000
0000
0000
0000
0000
0000
0000
,
0002
0103
1000
0100
0002
1003
0010
0001
,
0020
1030
0001
1000
0200
0301
0010
0001
,
2000
3100
0010
0001
0020
1030
0100
0001
,
2000
3010
0001
1000
0020
0031
1000
0001
,
0020
1030
0100
0001
2000
3010
0001
1000
,
0200
0301
1000
0001
0200
1300
0010
1000
,
0002
0013
1000
0001
0200
0310
1000
0100
,
0020
0031
1000
0010
2000
3001
0100
0010
,
2000
3100
0020
0031
2000
3010
0002
0013
,
0200
1300
0020
0031
2000
3001
2000
3010
,
0002
0013
2000
3200
0302
2003
3020
2030
,
3002
0023
0230
0300
2002
3003
2020
3030
,
0004
0000
0000
0400
0000
0000
1303
0100
0010
0001
0000
0000
1000
0000
0000
0001
0000
0000
0010
0000
0000
1000
0000
0000
,
0004
0000
0000
0000
0000
0103
1000
0010
0100
0001
0000
0000
0010
0000
0000
0100
0000
0000
1000
0000
0000
0010
0000
0000
,
0400
0000
0000
0004
0000
0000
1303
0100
0010
0001
0000
0000
0010
0000
0000
0001
0000
0000
0100
0000
0000
0010
0000
0000
,
4000
0000
0000
0000
0000
3100
0010
0001
1000
0010
0000
0000
1000
0000
0000
0001
0000
0000
0010
0000
0000
0100
0000
0000
,
0004
0000
0000
0400
0000
0000
1303
0100
0010
0001
0000
0000
0100
0000
0000
0001
0000
0000
0010
0000
0000
1000
0000
0000
,
0004
0000
0000
0000
0000
0103
1000
0010
0100
0001
0000
0000
0010
0000
0000
0100
0000
0000
1000
0000
0000
0010
0000
0000
,
0400
0000
0000
0004
0000
0000
1303
0100
0010
0001
0000
0000
1000
0000
0000
0010
0000
0000
1000
0000
0000
0001
0000
0000
,
4000
0000
0000
0000
0000
3100
0010
0001
1000
0010
0000
0000
1000
0000
0000
0001
0000
0000
1000
0001
1000
0001
1000
0001
,
1000
0100
0010
0001
1000
0010
0100
0001
,
0010
0100
1000
0010
0100
0001
0010
0100
,
1001
0001
0100
0010
1000
0010
0100
0001
,
0010
0100
0010
0001
1000
0010
0100
0001
,
0011
0010
0100
1000
0001
0100
0010
1000
,
0100
0010
0001
0100
0001
1000
0010
0100
,
1001
0001
0100
0001
1000
0010
0001
1000
,
0002
2003
3020
0030
2002
3003
0202
0303
,
1001
0010
0100
0001
1000
0100
1000
0010
,
0100
0001
0010
0100
0010
0001
1000
0010
,
1001
0001
0100
0010
1000
0100
0010
0001
,
0010
0100
0010
0001
1000
0010
0100
0001
,
0011
0001
1000
0010
0100
0001
0010
0100
,
1000
0010
1000
0001
0100
0010
1000
0100
,
1100
0100
0010
0001
0010
0100
1000
0010
,
0100
0000
0000
0001
0000
0000
1000
0000
0000
0001
0000
0000
0100
0000
0000
0010
0000
0000
1000
0001
1000
0001
1000
0000
,
1001
0100
0010
0001
0100
0010
1000
0001
,
1000
0010
0100
0001
0010
0100
1000
0001
,
0100
0001
0010
0100
1000
0010
0100
0001
,
0010
0001
1000
0010
0100
0001
1000
0001
,
0100
0010
1000
0100
0010
0001
0100
0010
,
1000
0010
0100
0001
0010
0100
1000
0001
,
0010
0100
0001
1000
0100
0010
0001
0010
,
0100
1000
0001
0100
0001
1000
0010
1000
,
1001
0001
0010
0001
0100
0010
1000
0001
,
1000
0000
0000
0000
0010
0000
0000
0000
0100
0000
0000
0000
0001
0000
0000
0000
0010
0000
0000
0000
0100
0000
0000
0000
1000
0000
0000
0000
0001
0000
0000
1000
,
0001
0001
0010
0100
1000
0010
0100
0001
,
0010
0000
0000
0000
0001
0000
0000
0000
1000
0000
0000
0000
0010
0000
0000
0000
0100
0000
0000
0000
0001
0000
0000
0000
1000
0000
0000
0000
0001
0000
0000
0001
,
0100
0010
1000
0100
0010
0001
0100
0010
,
1000
0000
0000
0000
0010
0000
0000
0000
0100
0000
0000
0000
0001
0000
0000
0000
0010
0000
0000
0000
0100
0000
0000
0000
1000
0000
0000
0000
0001
0000
0000
1000
,
0010
0100
0001
1000
0100
0010
0001
0010
,
0100
0000
0000
0000
1000
0000
0000
0000
0001
0000
0000
0000
1000
0000
0000
0000
0010
0000
0000
0000
0100
0000
0000
0000
0001
0000
0000
0000
1000
0000
0000
0001
;
