#TITLE:Still More Fighting;
#SUBTITLE:NES remix;
#ARTIST:MadBrain;
#TITLETRANSLIT:;
#SUBTITLETRANSLIT:;
#ARTISTTRANSLIT:;
#CREDIT:VGmix.com;
#BANNER:banner.png;
#BACKGROUND:background.png;
#LYRICSPATH:;
#CDTITLE:cdtitle.png;
#MUSIC:Still more fighting, Nes remix.mp3;
#OFFSET:-1.250;
#SAMPLESTART:19.860;
#SAMPLELENGTH:12.000;
#SELECTABLE:YES;
#BPMS:0.000=192.010;
#STOPS:;
#BGCHANGES:;
// cache tags:
#FIRSTBEAT:12.000;
#LASTBEAT:272.000;
#SONGFILENAME:Songs/Fabulously Fresh Flock of Fantastic Files F5/(MaxSimpson) Still More Fighting/Still more fighting, Nes remix.sm;
#HASMUSIC:1;
#HASBANNER:1;
#MUSICLENGTH:95.909;
// end cache tags

//---------------dance-single - ----------------
#NOTES:
     dance-single:
     :
     Hard:
     13:
     1.000,1.000,0.751,0.438,1.000,613.000,72.000,42.000,0.000,1.000:
0000
0000
0000
0000
,
0000
0000
0000
0000
,
0000
0000
0000
0000
,
1000
0001
1000
0001
0000
0000
0100
0010
0100
0010
0000
0000
,
1000
0010
1000
0010
0100
1000
0001
0010
0100
1000
0000
0001
,
0001
0100
0001
0100
0000
0000
0010
1000
0010
1000
0000
0000
,
0100
0001
0100
0001
0010
0100
1000
0100
0010
0001
0000
1000
,
0100
0010
0100
0010
0100
0010
0100
0010
0100
0010
0100
0010
0100
0010
0100
0010
,
0100
0010
0100
0010
0100
0010
0100
0010
1000
0001
1000
0001
1000
0001
1000
0001
,
1000
0010
1000
0010
1000
0010
1000
0010
1000
0010
1000
0010
1000
0010
1000
0010
,
1000
0010
1000
0010
1000
0010
1000
0010
0100
0001
0100
0001
0100
0001
0100
0001
,
0100
0010
1000
0001
0010
0100
1000
0001
0010
0100
1000
0001
0010
0100
1000
0001
,
0010
0001
0100
0010
1000
0100
0010
0001
1000
0100
0010
0001
1000
0100
0010
0001
,
1000
0010
0100
0001
1000
0010
1000
0001
0100
0010
0100
0001
1000
0100
1000
0001
,
0100
0010
1000
0100
1000
0100
0010
0001
1000
0001
1000
0001
0100
0010
1000
0100
,
0011
0000
1000
0100
0010
0001
0100
0010
1000
0100
1000
0100
,
1001
0000
0100
0010
1000
0100
0010
0001
0010
0001
0100
0001
,
0010
1000
0010
1000
0010
1000
0010
1000
0010
1000
0010
1000
0010
1000
0010
1000
,
0010
0100
0010
0100
0010
0100
0010
0100
0010
0100
0010
0100
0010
0100
0010
0100
,
0010
1000
0001
0100
0001
1000
0100
0010
0100
1000
0001
0010
0001
0100
0010
1000
,
0010
1000
0010
1000
0010
1000
0010
1000
0010
1000
0010
1000
0010
1000
0010
1000
,
0110
0000
1000
0010
0100
0001
0010
0001
0100
0001
0100
0001
,
1010
0000
0100
0001
0010
0100
0010
0100
1000
0001
0100
0010
,
0001
0010
0100
1000
0100
1000
0100
0010
0001
0100
0001
1000
0010
0100
0010
1000
,
0100
0010
0001
0010
0100
0010
0001
0010
0100
1000
0001
0100
0010
1000
0001
0100
,
0010
1000
0010
1000
0010
1000
0010
1000
0010
1000
0010
1000
0010
1000
0010
1000
,
1001
0000
0110
0000
0011
0000
1010
0000
0101
0000
0110
0000
,
1010
0100
0010
0001
0010
0100
1000
0100
0010
0100
1000
0001
,
1100
0010
1000
0001
0100
0010
1000
0010
1000
0100
0010
0001
,
0110
0001
0010
0100
0010
0001
0100
1000
0010
0100
0001
0010
,
1001
0100
0010
0100
0010
0001
1000
0001
0010
0200
0000
0300
,
1001
0100
0010
0001
0100
0010
1000
0010
0100
0001
1000
0100
,
0011
0010
0001
0100
0010
1000
0100
0010
0001
0100
0010
1000
,
0011
0010
0001
0100
0010
1000
0010
0100
0001
0010
0001
1000
,
0110
0010
0001
0100
0001
0010
0100
1000
0001
0020
0000
0030
,
2000
0000
0000
0000
0000
0000
0200
3000
0000
0020
0000
0330
,
1002
0000
1000
0000
1000
0000
1000
0000
1000
0000
1000
0003
,
2000
0000
0000
0000
0000
0000
0020
0000
3000
0002
0000
0033
,
2100
0000
0100
0000
0100
0000
0100
0000
0100
0000
0100
0000
,
3200
0000
0000
0000
0000
0000
0020
0000
0300
2000
0000
3030
,
0012
0000
0010
0000
0010
0000
0010
0000
0010
0000
0010
0000
,
2023
0000
0000
0000
0000
3030
0202
0000
0303
2020
0000
3030
,
0101
0000
0101
0000
0101
0000
1010
0000
1010
0000
1010
0000
,
1000
0000
0100
0020
0000
0000
0000
0000
0030
1000
0100
0010
,
0101
0000
0000
0110
0000
0000
1010
0000
0000
0100
0010
0100
,
0110
0000
1000
0200
0000
0000
0000
0000
0300
0001
0010
0001
,
2010
0000
0000
0100
0000
0000
0010
0000
0000
0100
0000
3000
,
0101
0000
0010
2000
0000
0000
0000
0000
0000
3100
0010
0100
,
1001
0000
0000
0110
0000
0000
1010
0000
0000
0010
0100
1000
,
1100
0000
0011
0022
0000
0000
0000
0000
0033
0100
1000
0100
,
2100
0000
0000
0010
0000
0000
0001
0000
0000
0010
0000
3000
,
0110
0000
0001
1010
0000
0000
0000
0000
0000
0100
0010
0100
,
0011
0000
0000
1100
0000
0000
0110
0000
0000
1100
0001
1100
,
0001
0000
0100
0020
0000
0000
0000
0000
0030
1010
0100
1010
,
0202
0000
0000
0000
0000
0000
0000
0000
0000
0000
0000
0303
,
1000
0000
1000
2000
0000
0000
0000
0000
0000
3100
0010
1000
,
0101
0000
0000
1010
0000
0000
0110
0000
0000
0101
0010
0100
,
1100
0000
0011
2200
0000
0000
0000
0000
3300
0010
0001
0100
,
2020
0000
0000
0000
0000
0000
0000
0000
0000
0000
0000
3030
,
0100
0000
0100
0200
0000
0000
0000
0000
0300
0010
0010
0010
,
0011
0000
0000
1010
0000
0000
0110
0000
0000
0100
0100
0100
,
0110
0000
0010
0022
0000
0000
0000
0000
0033
1100
0011
0110
,
2002
0000
0000
0000
0000
0000
0000
0000
0000
0000
0000
3003
,
1000
0010
1000
0010
1000
0010
1000
0010
0100
0001
0100
0001
0100
0001
0100
0001
,
0010
0001
0010
0001
0010
0001
0010
0001
1000
0001
1000
0001
1000
0001
1000
0000
,
1001
0100
0100
0010
1000
0100
0010
0001
0100
0001
1000
0010
,
0010
0001
1000
0010
1000
0010
0100
0001
1000
0010
0100
0001
,
0220
0000
0000
0000
,
0330
0000
0000
0000
;
