#TITLE:I Still Don't Need Your Love;
#SUBTITLE:;
#ARTIST:Imil;
#TITLETRANSLIT:;
#SUBTITLETRANSLIT:;
#ARTISTTRANSLIT:;
#CREDIT:;
#BANNER:i still don't need your bn.png;
#BACKGROUND:i still don't need your bg.png;
#LYRICSPATH:;
#CDTITLE:;
#MUSIC:I Still Don't Need Your Love.ogg;
#OFFSET:0.008;
#SAMPLESTART:64.016;
#SAMPLELENGTH:12.800;
#SELECTABLE:YES;
#DISPLAYBPM:300.000;
#BPMS:0.000=75.000,47.000=72.000,48.000=150.000,111.000=225.000,111.750=75.000,112.000=300.000,240.000=150.000,272.000=300.000;
#STOPS:;
#BGCHANGES:;
// cache tags:
#FIRSTBEAT:15.000;
#LASTBEAT:472.000;
#SONGFILENAME:Songs/SPEEEDCOOOORE 3/I Still Don't Need Your Love - [Tyler]/still don't need it.sm;
#HASMUSIC:1;
#HASBANNER:1;
#MUSICLENGTH:144.822;
// end cache tags

//---------------dance-single - T. Moore----------------
#NOTES:
     dance-single:
     T. Moore:
     Challenge:
     12:
     0.805,1.000,0.476,0.173,0.369,717.000,69.000,25.000,7.000,0.000:
0000
0000
0000
0000
,
0000
0000
0000
0000
,
0000
0000
0000
0000
,
0000
0000
0000
00M0
,
1001
0000
0001
1000
0000
0001
1000
0100
0010
0000
0010
0000
0010
0000
0000
0000
,
0001
0000
0010
0001
0000
0010
0001
0010
0100
0000
2000
0000
3020
0000
0230
0000
,
0301
0000
0100
0001
0000
0100
0001
1000
0100
0000
0100
0000
0100
0000
0000
0000
,
0010
0000
0000
0000
0000
0000
0000
0000
0010
0000
0000
0000
0000
0000
0000
0000
0010
0000
0000
0000
0001
0000
0000
0000
0000
0000
0000
0000
1000
0000
0000
0000
0000
0000
0000
0000
0010
0000
0000
0000
1000
0000
0000
0000
0020
0000
0000
0000
0000
0000
0000
0000
0000
0000
0000
0000
0000
0000
0000
0000
0000
0000
0000
0030
,
0101
0000
0100
0001
0000
0100
0001
0010
0100
0000
0010
0100
0000
0010
0100
1000
,
0001
0000
1000
0001
0000
1000
0001
0100
0010
0000
0010
0000
0010
0000
0000
1010
,
1001
0000
1000
0001
0010
0100
1000
0010
0100
0000
0010
0100
0001
0010
0100
1000
,
0001
0000
0000
0000
0000
0000
0000
0000
1000
0000
0000
0000
0001
0000
0000
0000
0100
0000
0000
0000
0010
0000
0000
0000
1000
0000
0000
0000
0100
0000
0000
0000
0110
0000
0000
0000
0000
0000
0000
0000
0110
0000
0000
0000
0004
0000
0000
0003
0110
0000
0000
0000
0000
0000
0000
0000
0000
0000
0000
0000
0000
0000
0000
0000
,
1MM0
0001
0100
0001
0010
0100
1000
0001
0010
0001
1000
0010
0100
0001
1000
0100
,
0010
0001
0010
0100
1000
0001
0100
0010
1000
0001
0010
0100
1000
0000
0040
0000
,
1030
0100
0010
0001
0100
0001
0010
0100
1000
0001
0100
0010
1000
0001
0010
0400
,
0310
0001
1000
0010
0100
0001
1000
0100
0010
0001
0010
0001
1000
0000
1000
0000
,
0001
0100
0010
1000
0100
1000
0001
0010
0001
1000
0010
0100
0001
1000
0001
0010
,
0100
0000
0000
1000
0000
0000
0100
0000
0000
0010
0000
0000
0001
0000
0000
1000
0000
0000
0010
0000
0000
0100
0000
0000
0001
0000
0100
0000
0010
0000
1000
0000
0010
0000
0100
0000
0001
0000
1000
0000
0001
0000
0040
0000
0000
0000
0000
0000
,
0031
0000
0000
0000
1000
0000
0000
0000
0010
0000
0000
0000
0100
0000
0000
0000
0001
0000
0000
0000
0100
0000
0000
0000
0010
0000
0000
0000
1000
0000
0000
0000
0001
0000
0000
0000
0010
0000
0000
0000
0100
0000
0000
0000
1000
0000
0000
0000
0040
0000
0000
0000
0000
0000
0000
0000
0000
0000
0000
0000
0000
0000
0000
0030
,
0101
0000
0000
0000
0000
0000
0000
0000
0000
0000
0000
0000
0000
0000
0000
0000
1001
0000
0000
0000
0000
0000
0000
0000
0040
0000
0000
0000
0000
0000
0000
0030
1100
0000
0000
0000
0000
0000
0000
0000
1001
0000
0000
0000
0000
0000
0000
0000
0011
0000
0000
0000
0000
0000
0000
0000
0000
0000
0000
0000
0000
0000
0000
0000
,
1001
0000
0001
1000
0000
0001
1000
0010
,
0100
0100
0100
0001
,
1000
0000
0100
1000
0000
0100
1000
0100
,
0010
0000
0000
0000
0010
0000
0000
0010
0000
0000
0010
0000
0010
0000
0001
0000
,
2000
3000
0000
0000
0000
0000
2000
3000
0000
0000
0000
0000
0020
0000
0030
0000
0000
0000
0020
0000
0030
0000
0000
0000
,
0200
0000
0000
0000
0000
0000
0000
0000
0000
0000
0000
0000
0000
0000
0000
0000
0000
0000
0000
0000
0000
0000
0000
0000
0000
0000
0000
0000
0000
0000
0000
0000
0300
0000
0000
0000
0000
0000
0000
0000
0000
0000
0000
0000
0000
0000
0000
0000
0200
0000
0000
0000
0000
0000
0000
0000
0000
0000
0000
0000
0000
0000
0000
0000
0000
0000
0000
0000
0000
0000
0000
0000
0000
0000
0000
0000
0000
0000
0000
0000
0300
0000
0000
0000
0000
0000
0000
0000
0000
0000
0000
0000
0000
0000
0000
0000
0002
0000
0000
0000
0000
0000
0000
0000
0000
0000
0000
0000
0000
0000
0000
0000
0000
0000
0000
0000
0000
0000
0000
0000
0000
0000
0000
0000
0000
0000
0000
0000
0000
0000
0000
0000
0000
0000
0000
0000
0000
0000
0003
0000
0000
0000
0000
0000
0002
0000
0000
0000
0000
0000
0000
0000
0000
0000
0000
0000
0000
0000
0000
0000
0000
0000
0000
0000
0000
0000
0000
0000
1003
0000
0000
0000
0000
0000
0000
0000
0000
0000
0000
0000
0000
0000
0000
0000
0000
0000
0000
0000
0000
0000
0000
0000
,
2000
0000
0000
0000
0000
0000
0200
3000
0000
0000
0000
0000
0020
0000
0000
0300
0000
0000
0002
0000
0000
0000
0030
0000
,
2000
0000
0000
0000
0000
0003
0020
0000
3000
0100
0000
0030
0002
0000
0000
0000
0000
0000
1MM3
0000
0000
0000
0000
0000
,
0010
1000
0100
0010
0001
0100
0010
1000
,
0100
0010
0100
1000
0100
0000
0040
0000
,
0031
0100
0010
1000
0100
0010
0001
0100
,
0010
1000
0010
0100
0001
0000
1000
0000
,
0010
0100
0001
0010
0100
1000
0010
0100
,
0001
1000
0001
0100
0001
0040
0130
0040
,
0031
0100
0010
1000
0100
0010
0001
1000
,
0010
0000
0100
0010
0000
1000
0010
0000
,
0400
0000
0000
0000
0000
0000
0301
1000
0001
0100
0010
1000
,
0001
0010
0001
1000
0001
0010
0100
1000
,
0001
0100
0010
1000
0100
0010
0001
0100
,
0010
1000
0010
0100
0001
0000
1000
0000
,
0100
0010
0001
0100
0010
1000
0100
0010
,
0001
1000
0001
1000
0001
0100
0010
4000
,
3100
0010
0001
0100
0010
1000
0100
0010
,
0001
1000
0001
0010
0100
0000
0000
0000
,
1000
0100
0010
0001
0100
0010
1000
0001
,
0010
0100
0010
0001
0010
0000
0400
0000
,
1300
0001
0100
0001
1000
0100
1000
0001
,
0010
0010
0400
0000
,
1300
0001
0010
0001
1000
0010
1000
0100
,
0010
0001
0010
0100
0010
0004
0103
0004
,
0013
0100
1000
0010
0100
0001
0010
0001
,
1000
0010
0100
0001
0010
0100
1000
0000
0000
0000
0000
0000
,
1001
0001
0101
0100
,
0110
0000
0010
0000
1010
0000
1000
0001
,
0010
0100
1100
1000
,
1001
0000
0001
0000
0100
0010
1000
0001
,
0010
0100
1100
1000
,
1001
0000
0001
0000
0101
0000
0100
0010
,
1010
0000
1001
0000
,
0011
0000
0000
0000
,
1001
0001
1000
0001
1000
0001
1000
0001
,
1000
0001
1000
0001
1000
0001
1000
0010
,
1000
0001
0010
0100
1000
0001
0010
0001
,
1000
0010
0100
0001
1000
0100
0010
0011
,
1001
1010
0110
0101
,
1001
0000
1100
0000
0110
0000
0011
0011
,
1001
1010
0110
0101
,
1001
0000
0000
0000
0000
0000
0000
0000
0000
0000
0000
0000
0000
0000
0000
0000
0000
0000
0000
0000
0000
0000
0000
0000
0004
0000
0000
0000
0000
0000
0000
0000
0000
0000
0000
0000
0000
0000
0000
0000
0000
0000
0003
0000
0000
0000
0000
0000
0011
0000
0000
0000
0000
0000
0000
0000
0000
0000
0000
0000
0000
0000
0000
0000
0000
0000
0000
0000
0000
0000
0000
0000
0040
0000
0000
0000
0000
0000
0000
0000
0000
0000
0000
0000
0000
0000
0000
0000
0000
0000
0000
0000
0000
0000
0000
0000
0130
0000
0000
0000
0000
0000
0000
0000
1000
0000
0000
0000
0000
0000
0000
0000
0100
0000
0000
0000
0000
0000
0000
0000
1000
0000
0000
0000
0000
0000
0000
0000
0100
0000
0000
0000
0000
0000
0000
0000
1000
0000
0000
0000
0000
0000
0000
0000
0001
0000
0000
0000
0000
0000
0000
0000
0000
0000
0000
0000
0000
0000
0000
0000
0000
0000
0000
0000
0000
0000
0000
0000
0001
0000
0000
0000
0000
0000
0000
0000
0000
0000
0000
0000
0000
0000
0000
0000
0000
0000
0000
0000
0000
0000
0000
0000
,
1MM0
0000
0001
1000
0000
0001
1000
0010
,
0100
0100
0100
0001
,
1000
0000
0100
1000
0000
0100
1000
0100
,
0010
0010
0001
1000
,
0010
0000
1000
0010
0000
1000
0010
0100
,
0001
0001
0001
1000
,
0100
0000
0010
0100
0000
0010
0100
0010
,
0002
1003
0002
4003
,
3010
0000
0100
0001
0000
1000
0100
0010
,
0001
0001
0001
1000
,
0010
0000
0100
0001
0000
1000
0100
0010
,
0001
0001
1000
0010
,
0100
0000
0001
1000
0000
0001
0010
0100
,
1000
1000
1000
0001
,
0101
0000
0000
0000
,
0000
0000
0000
0000
,
1000
0100
0010
0001
0100
0001
0010
0100
,
1000
0001
1000
0001
1000
0000
0040
0000
,
0130
0001
0010
0100
1000
0010
0100
0001
,
1000
0100
1000
0100
0010
0000
0010
0000
,
0001
0010
0100
1000
0010
0100
0001
0010
,
0100
1000
0100
0010
0100
4000
3010
4000
,
3100
0010
0001
0100
0010
1000
0100
0010
,
0001
0000
1000
0001
0000
1000
0001
0000
,
0040
0000
0000
0000
0000
0000
0031
1000
0001
0100
0010
1000
,
0100
0010
0001
4000
0000
0000
3001
0000
0000
0000
0000
0000
,
0100
0001
0010
0100
1000
0010
0100
0001
,
1000
0100
1000
0100
0010
0000
0010
0000
,
0100
1000
0010
0100
0001
0010
0100
1000
,
0001
0100
0001
0010
0001
0000
0000
0000
,
1001
0000
0000
0000
0000
0000
0000
0000
0000
0000
0000
0000
0000
0000
0000
0000
1000
0000
0000
0000
0000
0000
0000
0000
0000
0000
0000
0000
0000
0000
0000
0000
2020
0000
0000
0000
0000
0000
0000
0000
0000
0000
0000
0000
0000
0000
0000
0000
0000
0000
0000
0000
0000
0000
0000
0000
0000
0000
0000
0000
0000
0000
0000
3030
,
0101
0000
0000
0000
,
1001
0000
0001
1000
0000
0001
1000
0010
,
0100
0100
0100
0000
,
0001
0000
1000
0001
0000
1000
0001
1000
,
0100
0100
0010
0100
,
1000
0000
0100
1000
0000
0100
1000
0001
,
0100
0100
0100
0000
,
0010
0000
0000
0000
0010
0000
0000
1000
,
0001
0001
1000
0100
,
0010
0000
0001
0010
0000
0001
0010
0100
,
1000
1000
1000
0000
,
0001
0000
1000
0001
0000
1000
0001
1000
,
0010
0000
0010
0000
0100
0001
0100
0001
,
1000
0000
0001
1000
0000
0001
1000
0100
,
0010
0010
0010
0001
,
0101
0000
0000
0000
0101
0000
0100
0010
,
1000
0000
0000
0000
0000
0000
0000
0000
1000
0000
0000
0000
0000
0000
0000
0000
0100
0000
0000
0000
0000
0000
0000
0000
0040
0000
0000
0000
0000
0000
0000
0030
,
2002
0000
0000
0000
,
0000
0000
0000
0000
,
3003
0000
0000
0000
;
