#TITLE:PARANOiA Cyber;
#SUBTITLE:;
#ARTIST:A.255-320;
#TITLETRANSLIT:;
#SUBTITLETRANSLIT:;
#ARTISTTRANSLIT:;
#CREDIT:;
#BANNER:banner.png;
#BACKGROUND:bg.png;
#LYRICSPATH:;
#CDTITLE:cdtitle.png;
#MUSIC:PARANOiACyber.mp3;
#OFFSET:-0.080;
#SAMPLESTART:52.669;
#SAMPLELENGTH:12.000;
#SELECTABLE:ROULETTE;
#DISPLAYBPM:255.000:320.000;
#BPMS:0.000=255.000,100.000=200.000,108.000=220.000,116.000=240.000,120.000=255.000,220.000=300.000,348.000=320.000,412.000=62.500;
#STOPS:;
#BGCHANGES:;
// cache tags:
#FIRSTBEAT:16.000;
#LASTBEAT:419.500;
#SONGFILENAME:Songs/Japanese Collaboration Mix/paracyber/paracyber.sm;
#HASMUSIC:1;
#HASBANNER:1;
#MUSICLENGTH:98.690;
// end cache tags

//---------------dance-single - Copied from----------------
#NOTES:
     dance-single:
     Copied from:
     Challenge:
     11:
     0.896,0.956,0.405,0.395,0.051,540.000,40.000,39.000,0.000,0.000:
0000
0000
0000
0000
,
0000
0000
0000
0000
,
0000
0000
0000
0000
,
0000
0000
0000
0000
,
0001
1000
0100
0000
1000
0001
0100
0000
,
0001
1000
0010
1000
0001
0010
0100
0000
,
1000
0001
0100
0000
0010
1000
0100
0000
,
0100
1000
0010
0100
0001
0010
0100
0000
,
2000
3200
0320
0000
,
0032
0203
0320
0030
,
0010
1000
0001
0010
0100
1000
0010
0100
,
0102
0000
0203
0000
,
0301
0100
0010
0100
0001
0100
0010
0100
,
0001
0100
0001
0100
0001
0100
0010
1000
,
0010
0100
0010
0100
1000
0100
0010
0100
,
1000
0100
0010
0001
1000
0100
0010
0100
,
1001
0100
0010
0001
0100
0010
1000
0000
,
1000
0100
0010
0001
0100
0010
1000
0000
,
1000
0100
0010
0001
0100
0010
1000
0000
,
1000
0010
0100
0001
0010
0100
1000
0010
,
0100
0001
0100
0010
1000
0100
0010
0000
,
0010
0100
1000
0010
0100
0001
0010
0000
,
0010
0001
0100
0010
1000
0100
0010
0000
,
0010
0100
1000
0010
0100
0001
0010
0100
,
1000
0010
0100
0001
1000
0010
0100
0001
,
1000
0000
0220
0330
,
2002
3003
2200
3300
,
2000
3002
0203
0300
,
1002
0000
0000
0000
1003
0100
0010
0001
,
0200
0300
2002
3003
,
1000
0100
1000
0100
1000
0100
1000
0000
,
0001
0100
0001
0100
0001
0100
0001
0000
,
0010
1000
0010
1000
0010
1000
0010
0000
,
0010
0001
0010
0001
0010
0001
0010
0001
,
0010
0100
1000
0000
0220
0000
0330
0000
,
0001
1000
0100
0000
0220
0000
0330
0000
,
2002
3003
0220
0330
,
1001
1001
1001
1001
,
0010
1000
0100
0010
0001
0100
0010
0100
,
0001
0010
0100
1000
0010
0100
0001
1000
,
0100
0000
0100
2000
0000
3001
0100
0010
,
2002
0000
0000
3003
,
0001
1000
0100
1000
0001
1000
0100
1000
,
0001
0100
0001
1000
0001
0100
0001
1000
,
0010
1000
0001
1000
0010
1000
0001
1000
,
0001
0010
0001
1000
0001
0010
0001
1000
,
0010
0100
0001
0010
0100
1000
0100
0000
,
0100
1000
0100
0010
0001
0100
0010
0000
,
0010
0100
0001
0000
0010
0100
1000
0000
,
0001
1000
0100
0010
0001
0100
0010
1000
,
0002
0000
0000
0000
2000
0000
0000
3003
,
0000
1010
0000
0201
0000
0301
1000
0100
,
1001
0000
0210
0000
0301
0010
0100
1000
,
0000
1020
0000
0130
0000
0001
0010
1000
,
0010
0100
1000
0010
0100
0001
0010
0100
,
1001
0100
0010
0001
,
0100
0000
1001
0000
0000
1001
0000
0000
,
0010
0100
0010
0100
0000
0000
1001
0000
,
0010
0100
0001
0010
,
1001
0100
0000
0000
0010
0000
0001
0000
,
0100
0000
1001
0000
0000
0001
1000
0000
,
0001
1000
0001
1000
0000
0000
0010
0000
,
0100
0000
0011
0000
,
0110
0001
0000
0000
1000
0000
0010
0000
,
0100
0000
1001
0000
0000
0100
0010
0000
,
0001
1000
0001
1000
0000
0000
0010
0000
,
0100
0001
0010
0000
,
1001
0100
0000
0000
0010
0000
0001
0000
,
0100
0000
1000
0001
0000
0001
1000
0000
,
0001
0010
0100
1000
0000
0000
0001
1000
,
0100
0010
0001
0000
,
1001
0100
0000
0000
0010
0000
0001
0000
,
0100
0000
0010
0000
0000
0010
1000
0000
,
1000
0001
1000
0001
0000
0000
0010
0000
,
0100
0001
0100
0010
,
1001
0100
0010
0001
,
0100
0000
0010
1000
0000
1000
0001
0000
,
1000
0100
0010
0001
0000
0000
0100
1000
,
0100
0000
0011
0000
,
1100
0001
0010
0100
,
1000
0000
0010
0000
0000
0001
1000
0000
,
1000
0100
0010
0000
0100
1000
0100
0000
,
1000
0001
1000
0000
0100
0000
1000
0000
,
1001
0100
0010
0001
,
0100
0010
1000
0000
0001
0000
0000
0000
,
0001
1000
0100
0000
1000
0001
0100
0000
,
0001
1000
0010
0000
,
0110
0001
0000
0000
0100
0000
0010
0000
,
0001
0100
0010
1000
,
0001
1000
0100
0000
0010
0000
0001
0000
,
0100
0010
1000
0000
0001
0000
0010
0000
,
0100
1000
0010
0000
1000
0100
0010
0000
,
0001
0010
0100
0000
1000
0001
0010
0000
,
0001
0100
0010
1000
,
0001
1000
0100
1000
0001
0000
0110
0000
,
1001
1000
0100
0010
,
0001
0100
0010
1000
,
0100
0010
0001
0000
0010
0000
0100
0000
,
1000
0010
1000
0000
0100
0000
0010
0000
,
0001
1000
0100
0000
1000
0001
0100
0000
,
0001
1000
0010
0000
1000
0001
0010
0000
,
0001
1000
0010
0100
0001
0000
0001
0010
,
0100
1000
0010
0100
0001
0010
0100
0000
,
1001
0000
0000
0000
0000
0000
0000
0000
0000
0000
0001
0000
0000
0001
1000
0000
0100
0100
0000
0000
0000
0000
0000
0000
0001
0000
0001
0000
0000
0000
0000
0000
,
0001
1000
0000
0000
0000
0000
0000
0000
0000
0000
0010
0000
0000
0010
1000
0000
2000
0002
0000
0000
0000
0000
0000
0000
0000
0000
0000
0000
3003
0000
0000
0000
;
