#TITLE:Take Me Back;
#SUBTITLE:;
#ARTIST:KaW;
#TITLETRANSLIT:;
#SUBTITLETRANSLIT:;
#ARTISTTRANSLIT:;
#CREDIT:;
#BANNER:Take Me Back_bn.png;
#BACKGROUND:Take Me Back_bg.png;
#LYRICSPATH:;
#CDTITLE:ducky.png;
#MUSIC:Take Me Back.mp3;
#OFFSET:-0.060;
#SAMPLESTART:43.906;
#SAMPLELENGTH:12.000;
#SELECTABLE:YES;
#BPMS:0.000=87.500,16.000=175.000,304.000=87.500;
#STOPS:;
#BGCHANGES:;
// cache tags:
#FIRSTBEAT:0.000;
#LASTBEAT:320.000;
#SONGFILENAME:Songs/Fabulously Fresh Flock of Fantastic Files F5/(Ducky) Take Me Back/Take Me Back.sm;
#HASMUSIC:1;
#HASBANNER:1;
#MUSICLENGTH:123.351;
// end cache tags

//---------------dance-single - ----------------
#NOTES:
     dance-single:
     :
     Hard:
     11:
     0.944,1.000,0.713,0.057,0.726,720.000,88.000,7.000,0.000,0.000:
1000
0100
0001
0100
0000
0010
0001
0100
1000
0100
0001
0020
0000
0000
0030
0000
,
0100
1000
0010
0001
0000
0010
1000
0100
0020
0000
0000
0000
0030
0000
0000
0000
,
1000
0001
0100
0010
0000
0001
0010
1000
0100
0010
0100
0002
0000
0000
0000
0003
,
0100
1000
0010
0100
0000
1000
0100
0001
0020
0000
0000
0000
0000
0000
0000
0030
,
1001
0000
1000
0100
1000
0000
1000
0100
1000
0000
0001
0100
0001
0000
0001
0100
,
0001
0000
1000
0010
1000
0000
1000
0010
1000
0000
0001
0010
0001
0000
0001
0010
,
0001
0000
1000
0100
0010
0000
0010
0100
1000
0000
1000
0100
0010
0000
0010
0100
,
1000
0000
0001
0100
0010
0000
0010
0100
0001
0000
0001
0100
0010
0000
0010
0100
,
0001
0000
1000
0001
0100
0000
0100
0001
1000
0000
1000
0001
0100
0000
0100
0001
,
1000
0000
0001
0100
1000
0000
1000
0100
0001
0000
0001
0100
1000
0000
1000
0100
,
0001
0000
0001
0010
1000
0000
1000
0010
0001
0000
0001
0010
1000
0000
1000
0010
,
0001
0000
0000
0000
0000
0000
1000
0000
0000
0001
0000
0000
1000
0000
0000
0000
0000
0000
0100
0000
0000
0010
0000
0000
1001
0000
0000
0000
0000
0000
1001
0000
0000
0000
0000
0000
0100
0000
0010
0000
0100
0000
0010
0000
0100
0000
0010
0000
,
0100
0001
1000
0110
0001
0110
1000
0001
,
0110
1000
0100
0010
1001
1100
0011
0100
,
1010
1000
0010
1001
0100
1010
0100
0010
,
1001
0100
0010
1000
0101
1010
1001
0010
,
0101
0010
0001
1100
0010
1001
0100
0001
,
1100
0010
0001
1000
0011
1100
0110
0001
,
0101
1000
0010
1001
0100
0011
0100
0010
,
1100
0010
0001
1000
0101
0110
1001
0000
,
1001
1000
0100
0011
1000
0110
1000
0001
,
1010
0100
0001
1000
0110
0110
0110
0000
,
0101
0001
1000
0110
0001
1010
1000
0100
,
0011
1000
0100
0001
1100
1100
1100
0000
,
1001
0010
1000
0101
0010
1001
0010
0100
,
1001
0100
0010
1000
0101
0101
0101
0000
,
0110
0000
0000
0001
0000
0000
1000
0000
0000
0101
0000
0000
0010
0000
0000
1010
0000
0000
0000
0000
0000
0001
1000
0001
,
2000
0000
0000
0000
0000
0000
0001
3000
,
1000
0001
1000
0100
0010
0001
0010
0100
,
0000
0100
0000
0010
0001
0000
0100
0000
,
1000
0100
0001
0010
0100
0010
0001
1000
,
0000
0001
0000
1000
0100
0000
0011
0000
,
1001
1000
0100
0001
0100
1000
0010
0001
,
0000
0010
1000
0100
0010
0000
0001
1000
,
0110
1000
0100
0010
0001
0010
0100
0010
,
0000
0000
0000
0001
0000
0000
0010
0000
0000
0100
0000
0000
1000
0000
0000
0000
0000
0000
0001
0000
0000
0100
0010
0100
,
0010
0100
1000
0100
0001
0100
1000
0010
,
0000
0100
0001
1000
0100
0000
0001
0000
,
0010
1000
0010
0001
0100
0010
1000
0001
,
0000
0010
0000
1000
0010
0000
0001
0000
,
1000
0100
0010
0100
1000
0001
0100
0010
,
0000
0001
0010
1000
0100
0000
0001
1000
,
0001
1000
0010
1000
0100
0010
0001
0010
,
0000
0000
0000
0100
0000
0000
0010
0000
0000
1000
0000
0000
0001
0000
0000
0000
0000
0000
0100
0000
0000
0001
1000
0001
,
1000
0000
0000
1010
0000
0110
0000
0000
,
0011
0000
0000
1010
0000
0110
0000
0000
,
0101
0000
0000
1100
0000
0011
0000
0000
,
1001
0000
0000
0000
0000
0000
0000
0000
0000
1100
0000
0000
0000
0000
0000
0011
0000
0000
0000
0000
0000
0010
0100
1000
,
0001
1000
0100
0011
0000
0011
0001
0100
,
1001
0100
0010
1001
0000
0101
0000
0010
,
1001
0010
0100
0011
0000
1100
0010
1000
,
0101
0000
0000
0010
0000
0000
1000
0000
0000
0011
0000
0000
0000
0000
0000
1001
0000
0000
0000
0000
0000
1000
0001
0010
,
0100
0010
0001
0010
0100
0010
0001
0010
,
0100
1000
0100
0010
0100
1000
0100
0010
,
0001
1000
0001
0100
0001
1000
0001
0100
,
0010
0001
0010
1000
0010
0001
0010
0100
,
1001
0001
1000
0100
1000
0100
1000
0100
1000
0100
1000
0100
1000
0100
1000
0100
,
0010
0001
0010
0001
0010
0001
0010
0001
0010
0001
0010
0001
0010
0001
0010
0100
,
1000
0001
1000
0001
1000
0001
1000
0001
1000
0001
1000
0001
1000
0001
1000
0100
,
0010
0001
1000
0010
1000
0001
0100
0010
1000
0001
0100
1000
0100
0001
1000
0001
,
1000
0100
0010
1000
0100
0010
0001
1000
,
0000
0001
0100
0010
1000
0000
0011
0000
,
1001
0001
0100
1000
0100
0010
1000
0001
,
0000
1000
0100
0010
0001
0000
0110
0000
,
1010
1000
0001
0100
0010
1000
0100
0001
,
0000
0100
1000
0010
0001
0000
1100
0000
,
0101
0001
0100
0010
1000
0001
0010
0100
,
0000
0010
0001
0100
1000
0000
0101
0000
,
0110
0000
0001
0100
0010
1000
0100
0010
0100
1000
0001
0100
0010
0100
0001
1000
,
0100
0001
0100
1000
0010
0100
0001
0100
0010
1000
0010
1000
0100
0010
0001
0010
,
0100
1000
0010
1000
0100
1000
0100
0010
0100
0001
0100
1000
0001
0010
0100
1000
,
0100
0010
0001
0100
0010
0100
0001
1000
0001
0010
0100
1000
0010
0100
0001
0010
,
0001
0100
0010
1000
0100
1000
0010
0100
0001
1000
0100
0010
0100
1000
0001
0100
,
0010
0100
0001
0010
0100
0010
0001
1000
0010
0100
0001
1000
0100
0010
0100
1000
,
0100
0010
0001
1000
0001
0100
0010
1000
0100
0010
0001
0100
0010
1000
0010
0100
,
0001
1000
0010
0100
0010
1000
0001
0100
0001
0100
0010
1000
0001
0010
0100
1000
,
0001
1000
0100
0010
0000
0001
1000
0100
0010
0001
0010
0100
0000
0000
0000
0000
,
0010
1000
0100
0001
0000
0100
1000
0001
0200
0000
0000
0000
0000
0000
0000
0300
,
0001
0010
0100
0010
0000
0001
0100
0010
1000
0100
0001
1000
0000
0000
0000
0000
,
0010
0001
0100
0010
0000
1000
0100
0010
0002
0000
0000
0000
0000
0000
0000
0000
,
0003
0000
0000
0000
;

//---------------dance-single - ----------------
#NOTES:
     dance-single:
     :
     Challenge:
     12:
     0.971,1.000,0.770,0.057,0.790,736.000,95.000,7.000,0.000,0.000:
0001
0010
1000
0010
0000
0100
1000
0010
0001
0010
1000
0200
0000
0000
0300
0000
,
0010
0001
0100
1000
0000
0100
0001
0010
0200
0000
0000
0000
0300
0000
0000
0000
,
0001
1000
0010
0100
0000
1000
0100
0001
0010
0100
0010
2000
0000
0000
0000
3000
,
0010
0001
0100
0010
0000
0001
0010
1000
0200
0000
0000
0000
0000
0000
0000
0300
,
1001
0000
0001
0010
0001
0000
0001
0010
0001
0000
1000
0010
1000
0000
1000
0010
,
1000
0000
0001
0100
0001
0000
0001
0100
0001
0000
1000
0100
1000
0000
1000
0100
,
1000
0000
0001
0010
0100
0000
0100
0010
0001
0000
0001
0010
0100
0000
0100
0010
,
0001
0000
1000
0010
0100
0000
0100
0010
1000
0000
1000
0010
0100
0000
0100
0010
,
1000
0000
0001
1000
0010
0000
0010
1000
0001
0000
0001
1000
0010
0000
0010
1000
,
0001
0000
1000
0010
0001
0000
0001
0010
1000
0000
1000
0010
0001
0000
0001
0010
,
1000
0000
1000
0100
0001
0000
0001
0100
1000
0000
1000
0100
0001
0000
0001
0100
,
1000
0000
0000
0000
0000
0000
0001
0000
0000
1000
0000
0000
0001
0000
0000
0000
0000
0000
0010
0000
0000
0100
0000
0000
1001
0000
0000
0000
0000
0000
1001
0000
0000
0000
0000
0000
0010
0000
0100
0000
0010
0000
0100
0000
0010
0000
0100
0000
,
0110
1000
0001
0110
1000
0110
0001
1000
,
0110
0001
0010
0100
1001
0011
1100
0010
,
0101
0001
0100
1001
0010
0101
0010
0100
,
1001
0010
0100
0001
1010
0101
1001
0100
,
1010
0100
1000
0011
0100
1001
0010
1000
,
0011
0100
1000
0001
1100
0011
0110
1000
,
1010
0001
0100
1001
0010
1100
0010
0100
,
0011
0100
1000
0001
1010
0110
1001
0000
,
1001
0001
0010
1100
0001
0110
0001
1000
,
0101
0010
1000
0001
0110
0110
0110
0000
,
1010
1000
0001
0101
0010
1100
0001
0010
,
1100
0001
0010
1000
0011
0011
0011
0000
,
1001
0100
0001
1010
0100
1001
0100
0010
,
1001
0010
0100
0001
1010
1010
1010
0000
,
0110
0000
0000
1000
0000
0000
0001
0000
0000
1010
0000
0000
0100
0000
0000
1001
0000
0000
0000
0000
0000
0001
1000
0001
,
1002
0000
0000
0000
0000
0000
1000
0003
,
0001
1000
0001
0010
0100
1000
0100
0010
,
0000
0010
0000
0100
1000
0000
0010
0000
,
0001
0010
1000
0100
0010
0100
1000
0001
,
0000
1000
0000
0001
0010
0000
1100
0000
,
1001
0001
0010
1000
0010
0001
0100
1000
,
0000
0100
0001
0010
0100
0000
1000
0001
,
0110
0001
0010
0100
1000
0100
0010
0100
,
0000
0000
0000
1000
0000
0000
0100
0000
0000
0010
0000
0000
0001
0000
0000
0000
0000
0000
1000
0000
0000
0010
0100
0010
,
0110
0100
0001
0010
1000
0010
0001
0100
,
0000
0010
1000
0001
0010
0000
1000
0000
,
0100
0001
0100
1000
0010
0100
0001
1000
,
0000
0100
0000
0001
0100
0000
1000
0000
,
0001
0010
0100
0010
0001
1000
0010
0100
,
0000
1000
0100
0001
0010
0000
1000
0100
,
1010
0001
0100
0001
0010
0100
1000
0100
,
0000
0000
0000
0010
0000
0000
0100
0000
0000
0001
0000
0000
1000
0000
0000
0000
0000
0000
0010
0000
0000
1000
0001
1000
,
1001
0000
0000
0101
0000
0110
0000
0000
,
1100
0000
0000
0101
0000
0110
0000
0000
,
1010
0000
0000
0011
0000
1100
0000
0000
,
1001
0000
0000
0000
0000
0000
0000
0000
0000
0011
0000
0000
0000
0000
0000
1100
0000
0000
0000
0000
0000
0100
0010
0001
,
1010
0001
0010
1100
0000
1100
1000
0010
,
1001
0010
0100
1001
0000
1010
0000
0100
,
1001
0100
0010
1100
0000
0011
0100
0001
,
1010
0000
0000
0100
0000
0000
0001
0000
0000
1100
0000
0000
0000
0000
0000
1001
0000
0000
0000
0000
0000
0001
1000
0100
,
0011
0100
1000
0100
0010
0100
1000
0100
,
0010
0001
0010
0100
0010
0001
0010
0100
,
1000
0001
1000
0010
1000
0001
1000
0010
,
0100
1000
0100
0001
0100
1000
0100
0010
,
1001
1000
0001
0010
0100
0010
0001
0010
0100
0010
0001
0010
0100
0010
0001
0010
,
0100
1000
0100
0010
0100
1000
0100
0010
0100
1000
0100
0010
0100
1000
0100
0010
,
0001
0100
0001
1000
0001
0100
0001
1000
0001
0100
0001
1000
0001
0100
0001
0010
,
0100
1000
0001
1000
0001
1000
0001
1000
0001
1000
0001
1000
0001
1000
0001
1000
0001
1000
0001
1000
0001
1000
0001
1000
0001
1000
0001
1000
0001
1000
0001
1000
,
0001
0010
0100
0001
0010
0100
1000
0001
,
0000
1000
0010
0100
0001
0000
1100
0000
,
1001
1000
0010
0001
0010
0100
0001
1000
,
0000
0001
0010
0100
1000
0000
0110
0000
,
0101
0001
1000
0010
0100
0001
0010
1000
,
0000
0010
0001
0100
1000
0000
0011
0000
,
1010
1000
0010
0100
0001
1000
0100
0010
,
0000
0100
1000
0010
0001
0000
1010
0000
,
0110
0000
1000
0010
0100
0001
0010
0100
0010
0001
1000
0010
0100
0010
1000
0001
,
0010
1000
0010
0100
0001
0100
1000
0010
0100
1000
0100
0001
0010
0100
1000
0100
,
0010
1000
0010
0001
0100
0001
0010
0100
0010
1000
0010
0100
1000
0100
0010
0001
,
0010
0100
1000
0010
0100
0010
0001
0010
1000
0100
0010
0001
0100
0010
1000
0100
,
1000
0010
0100
0001
0010
0001
0100
0010
1000
0001
0010
1000
0010
0001
1000
0010
,
0001
0010
1000
0100
0001
0100
1000
0001
0100
1000
0100
0001
0010
0100
0010
0001
,
0010
0100
1000
0001
0100
1000
0100
0001
0010
0100
1000
0010
0100
0001
0100
0010
,
1000
0001
0100
0010
0100
1000
0001
0010
1000
0010
0100
0001
1000
0100
0010
0001
,
1000
0001
0010
0100
0000
1000
0001
0010
0100
1000
0100
0010
0000
0000
0000
0000
,
0100
0001
0010
1000
0000
0010
0001
1000
0020
0000
0000
0000
0000
0000
0000
0030
,
1000
0100
0010
0100
0000
1000
0010
0100
0001
0010
1000
0001
0000
0000
0000
0000
,
0100
1000
0010
0100
0000
0001
0010
0100
2000
0000
0000
0000
0000
0000
0000
0000
,
3000
0000
0000
0000
;
