#TITLE:You Are;
#SUBTITLE:;
#ARTIST:LIA;
#TITLETRANSLIT:;
#SUBTITLETRANSLIT:;
#ARTISTTRANSLIT:;
#CREDIT:Zaghurim + Rebirth;
#BANNER:../Zeppelin_bn.png;
#BACKGROUND:../bg_Zeppelin.png;
#LYRICSPATH:;
#CDTITLE:../cdtitle_ZAiA.png;
#MUSIC:Lia - You Are....ogg;
#OFFSET:-6.440;
#SAMPLESTART:32.580;
#SAMPLELENGTH:23.380;
#SELECTABLE:YES;
#BPMS:0.000=165.000;
#STOPS:;
#BGCHANGES:;
// cache tags:
#FIRSTBEAT:8.000;
#LASTBEAT:390.000;
#SONGFILENAME:Songs/Cirque du Zeppelin/You Are - [Zaia]/You Are.sm;
#HASMUSIC:1;
#HASBANNER:1;
#MUSICLENGTH:148.950;
// end cache tags

//---------------dance-single - 3/15/15/15/15/3----------------
#NOTES:
     dance-single:
     3/15/15/15/15/3:
     Challenge:
     14:
     1.000,1.000,0.027,0.591,1.000,1144.000,4.000,88.000,0.000,0.000:
0000
0000
0000
0000
,
0000
0000
0000
0000
,
0201
0000
0000
0320
0000
0000
2030
0000
,
3002
0000
0000
0023
0000
0230
2300
0000
,
3002
0000
0000
0203
0000
0320
2030
3002
,
0000
0000
0000
0000
0000
0003
0000
2000
,
3200
2300
3002
0000
0003
0200
0320
0000
,
2030
0000
0000
3002
0000
0023
0230
0000
,
2300
0000
3020
0230
0000
0302
0023
0230
,
0000
0000
0000
0300
0000
0000
0000
0000
,
2100
0000
0000
3200
0000
0000
2300
0000
,
3002
0000
0000
0203
0000
0320
2030
0000
,
3002
0000
0000
0023
0000
0230
2300
3002
,
0000
0000
0000
0000
0000
0003
0000
2000
,
3010
0100
0001
1000
0010
1000
0001
0010
0100
1000
0001
0100
0001
1000
0100
0010
,
0001
1000
0010
1000
0001
1000
0100
0010
0100
1000
0001
1000
0010
0100
0001
1000
,
0001
0010
0100
0010
0001
1000
0001
0100
0001
1000
0100
1000
0010
0100
0001
1000
,
0002
0000
0003
0000
,
1000
0010
0100
0001
1000
0010
1000
0100
0010
0001
0010
0100
1000
0010
0100
0001
,
1000
0100
0010
0001
1000
0001
0100
0010
1000
0001
0100
0001
0010
0001
0100
0010
,
1000
0001
0010
0100
1000
0001
1000
0010
0100
0001
0010
0100
1000
0001
1000
0010
,
1000
0001
0100
0001
1000
0001
0010
0100
0010
0001
1000
0001
1000
0010
0100
0001
,
1000
0100
0010
0001
1000
0010
1000
0001
1000
0100
0010
0001
0100
0001
1000
0100
,
1000
0001
0100
0010
1000
0100
1000
0001
0010
0001
1000
0001
0100
0010
0100
0001
,
0010
0100
1000
0100
0010
0001
1000
0001
0100
0010
1000
0001
0010
0100
1000
0100
,
1000
0001
1000
0010
1000
0001
1000
0100
0010
0001
1000
0001
0100
0001
1000
0100
,
0010
0001
0100
0010
1000
0001
0100
0001
0010
0100
1000
0100
0010
0001
0100
0010
,
1000
0001
0010
0100
1000
0001
1000
0010
0100
0001
1000
0010
1000
0100
1000
0001
,
0100
0001
1000
0100
0010
0001
1000
0001
0100
0010
1000
0100
0010
0001
1000
0001
,
0100
0001
1000
0010
1000
0001
1000
0100
0010
0100
1000
0001
1000
0001
0100
0010
,
1000
0001
0010
0100
1000
0001
0100
0001
1000
0001
0010
0100
1000
0010
1000
0001
,
0010
0001
1000
0010
0100
0001
0010
0001
1000
0100
1000
0001
1000
0010
0100
0010
,
1000
0100
0010
0001
0010
0100
1000
0001
1000
0010
0100
0001
1000
0100
0010
0001
,
2000
0000
3000
0000
,
0001
0010
0001
1000
0001
0010
0100
1000
0100
0010
0100
1000
0010
0100
0010
1000
,
0001
0010
0001
1000
0001
0100
0010
1000
0010
0100
0010
1000
0001
0010
0100
1000
,
0001
0100
0001
1000
0001
0100
0001
0010
0100
1000
0100
0010
0001
0100
0010
0100
,
0001
1000
0100
1000
0001
1000
0100
1000
0001
0100
0010
0100
0001
1000
0100
0010
,
0001
0100
0010
1000
0010
0100
0001
1000
0100
1000
0001
1000
0100
1000
0001
1000
,
0010
0100
0001
0100
0010
0100
0001
0010
0100
1000
0100
0010
0100
1000
0100
0010
,
0001
0100
0010
1000
0100
1000
0001
0100
0001
1000
0100
1000
0001
1000
0010
0100
,
0001
0010
0100
1000
0100
0010
0001
0100
0010
1000
0010
0100
0001
1000
0100
1000
,
0001
0100
0001
1000
0001
0100
0010
1000
0010
0100
0010
1000
0100
0010
0100
1000
,
0001
0100
0001
1000
0001
0010
0100
1000
0100
0010
0100
1000
0001
0100
0010
1000
,
0001
0010
0001
1000
0001
0010
0001
0100
0010
1000
0010
0100
0001
0010
0100
0010
,
0001
1000
0010
1000
0001
1000
0010
1000
0001
0010
0100
0010
0001
1000
0010
0100
,
0001
0010
0100
1000
0100
0010
0001
1000
0010
1000
0001
1000
0010
1000
0001
1000
,
0100
0010
0001
0010
0100
0010
0001
0100
0010
1000
0010
0100
0010
1000
0010
0100
,
0001
0010
0100
1000
0010
1000
0001
0010
0001
1000
0010
1000
0001
1000
0100
0010
,
0002
0000
0003
0000
,
0010
0100
1000
0001
1000
0010
1000
0001
0100
0010
0100
0001
1000
0001
0010
0100
,
1000
0001
1000
0010
0100
0001
1000
0100
1000
0010
0100
0001
0010
0001
0100
0010
,
1000
0100
0010
0001
1000
0010
0100
0001
1000
0100
1000
0001
0100
0010
1000
0001
,
0010
0001
1000
0001
0100
0010
1000
0001
1000
0001
0010
0100
1000
0010
0100
0001
,
0010
0001
1000
0100
1000
0010
1000
0001
0010
0100
0010
0001
1000
0001
0100
0010
,
1000
0001
1000
0100
0010
0001
1000
0010
1000
0100
0010
0001
0100
0001
0010
0100
,
1000
0010
0100
0001
1000
0100
0010
0001
1000
0010
1000
0001
0010
0100
1000
0001
,
0100
0001
1000
0001
0010
0100
1000
0001
1000
0001
0100
0010
1000
0100
0010
0001
,
0100
0010
1000
0100
1000
0001
0100
0001
1000
0010
0100
0010
1000
0001
1000
0100
,
0010
0001
1000
0001
0100
0010
1000
0001
0010
0001
0100
0010
1000
0100
1000
0010
,
0100
0001
0010
0100
1000
0001
0100
0010
1000
0001
0010
0001
1000
0010
0100
0001
,
1000
0100
1000
0001
1000
0010
0100
0001
1000
0001
1000
0100
0010
0001
0100
0010
,
1000
0100
1000
0001
0010
0001
0100
0001
1000
0100
0010
0100
1000
0001
1000
0010
,
0100
0001
1000
0001
0010
0100
1000
0001
0100
0001
0010
0100
1000
0010
1000
0100
,
0010
0001
0100
0010
1000
0001
0010
0100
1000
0001
0100
0001
1000
0100
0010
0001
,
2000
0000
3000
0000
,
0001
0010
0001
0100
0001
1000
0010
1000
0001
1000
0100
0010
0001
1000
0010
0100
,
0001
0100
0001
0010
0100
1000
0001
0100
0001
1000
0100
1000
0010
0100
0001
1000
,
0001
0010
0100
1000
0010
1000
0001
0100
0001
1000
0001
0010
0100
1000
0001
0100
,
0010
1000
0010
1000
0100
0010
0001
1000
0010
1000
0001
0010
0001
0100
0010
1000
,
0001
0100
0001
0010
0001
1000
0100
1000
0001
1000
0010
0100
0001
1000
0100
0010
,
0001
0010
0001
0100
0010
1000
0001
0010
0001
1000
0010
1000
0100
0010
0001
1000
,
0001
0100
0010
1000
0100
0010
0100
1000
0001
0100
0010
1000
0001
0010
0001
0100
,
0010
1000
0010
0100
0001
1000
0001
0010
0100
1000
0001
1000
0100
1000
0001
0100
,
0010
1000
0001
0010
0001
1000
0100
1000
0001
1000
0010
0100
0001
1000
0100
0010
,
0001
0010
0001
0100
0010
1000
0001
0010
0001
1000
0010
1000
0100
0010
0001
1000
,
0001
0100
0010
1000
0100
1000
0001
0010
0001
1000
0001
0100
0010
1000
0001
0010
,
0100
1000
0100
1000
0010
0100
0001
1000
0100
1000
0001
0100
0001
0010
0100
1000
,
0001
0010
0001
0100
0001
1000
0010
1000
0001
1000
0100
0010
0001
1000
0010
0100
,
0001
0100
0001
0010
0100
1000
0001
0100
0001
1000
0100
1000
0010
0100
0001
1000
,
0001
0010
0100
1000
0010
0100
0010
1000
0001
0010
0100
1000
0001
0100
0001
0010
,
0200
0000
0300
0000
,
1002
0000
0000
0203
0000
0000
0302
0000
,
2003
0000
0000
3200
0000
0320
0032
0000
,
2003
0000
0000
3020
0000
0230
0302
2003
,
0000
0000
0000
0000
0000
3000
0000
0002
,
0023
0032
2003
0000
3000
0020
0230
0000
,
0302
0000
0000
2003
0000
3200
0320
0000
,
0032
0000
0203
0320
0000
2030
3200
0320
,
0000
0000
0000
0030
0000
0000
0000
0000
,
0012
0000
0000
0023
0000
0000
0032
0000
,
2003
0000
0000
3020
0000
0230
0302
0000
,
2003
0000
0000
3200
0000
0320
0032
2003
,
0000
0000
0000
0000
0000
3000
0000
0002
,
0103
0010
1000
0001
0100
0001
1000
0100
0010
0001
1000
0010
1000
0001
0010
0100
,
1000
0001
0100
0001
1000
0001
0010
0100
0010
0001
1000
0001
0100
0010
1000
0001
,
1000
0100
0010
0100
1000
0001
1000
0010
1000
0001
0010
0001
0100
0010
1000
0001
,
2000
0000
3000
0000
;

//---------------dance-single - 3/8/8/8/8/3----------------
#NOTES:
     dance-single:
     3/8/8/8/8/3:
     Hard:
     12:
     0.971,1.000,0.027,0.591,1.000,920.000,4.000,88.000,0.000,0.000:
0000
0000
0000
0000
,
0000
0000
0000
0000
,
0201
0000
0000
0320
0000
0000
2030
0000
,
3002
0000
0000
0023
0000
0230
2300
0000
,
3002
0000
0000
0203
0000
0320
2030
3002
,
0000
0000
0000
0000
0000
0003
0000
2000
,
3200
2300
3002
0000
0003
0200
0320
0000
,
2030
0000
0000
3002
0000
0023
0230
0000
,
2300
0000
3020
0230
0000
0302
0023
0230
,
0000
0000
0000
0300
0000
0000
0000
0000
,
2100
0000
0000
3200
0000
0000
2300
0000
,
3002
0000
0000
0203
0000
0320
2030
0000
,
3002
0000
0000
0023
0000
0230
2300
3002
,
0000
0000
0000
0000
0000
0003
0000
2000
,
3010
0100
0001
1000
0010
1000
0001
0010
0100
1000
0001
0100
0001
1000
0100
0010
,
0001
1000
0010
1000
0001
1000
0100
0010
0100
1000
0001
1000
0010
0100
0001
1000
,
0001
0010
0100
0010
0001
1000
0001
0100
0001
1000
0100
1000
0010
0100
0001
1000
,
0002
0000
0003
0000
,
1000
0010
0100
0001
1000
0010
1000
0100
0010
0001
0010
0100
1000
0010
0100
0001
,
1000
0100
0010
0001
1000
0001
0100
0010
1000
0001
0100
0001
0010
0001
0100
0010
,
1000
0001
0010
0100
1000
0001
1000
0010
0100
0001
0010
0100
1000
0001
1000
0010
,
1000
0001
0100
0001
1000
0001
0010
0100
0010
0001
1000
0001
1000
0010
0100
0001
,
1000
0100
0010
0001
1000
0010
1000
0001
1000
0100
0010
0001
0100
0001
1000
0100
,
1000
0001
0100
0010
1000
0100
1000
0001
0010
0001
1000
0001
0100
0010
0100
0001
,
0010
0100
1000
0100
0010
0001
1000
0001
0100
0010
1000
0001
0010
0100
1000
0100
,
1000
0001
1000
0010
1000
0001
1000
0100
0010
0001
1000
0001
0100
0001
1000
0100
,
0010
0100
1000
0001
0100
0010
0100
0001
,
0010
0001
1000
0100
1000
0010
1000
0001
,
0010
0100
1000
0001
1000
0010
0100
0001
,
1000
0100
0010
0100
1000
0001
0100
0010
,
0100
0001
1000
0100
1000
0001
0100
0010
,
1000
0100
0010
0100
1000
0010
0100
0001
,
1000
0001
0010
0100
0010
0001
0100
0010
,
2000
0000
3000
0000
,
0001
0010
0001
1000
0001
0010
0100
1000
0100
0010
0100
1000
0010
0100
0010
1000
,
0001
0010
0001
1000
0001
0100
0010
1000
0010
0100
0010
1000
0001
0010
0100
1000
,
0001
0100
0001
1000
0001
0100
0001
0010
0100
1000
0100
0010
0001
0100
0010
0100
,
0001
1000
0100
1000
0001
1000
0100
1000
0001
0100
0010
0100
0001
1000
0100
0010
,
0001
0100
0010
1000
0010
0100
0001
1000
0100
1000
0001
1000
0100
1000
0001
1000
,
0010
0100
0001
0100
0010
0100
0001
0010
0100
1000
0100
0010
0100
1000
0100
0010
,
0001
0100
0010
1000
0100
1000
0001
0100
0001
1000
0100
1000
0001
1000
0010
0100
,
0001
0010
0100
1000
0100
0010
0001
0100
0010
1000
0010
0100
0001
1000
0100
1000
,
0001
0100
0001
0010
0100
0010
0001
0100
,
0010
1000
0100
0010
0001
1000
0010
1000
,
0001
0010
0100
1000
0010
0100
0010
1000
,
0100
0010
0001
1000
0010
0100
0001
0010
,
0001
1000
0010
1000
0001
1000
0100
0010
,
0001
0100
0010
1000
0100
0010
0100
1000
,
0010
1000
0100
0010
0001
0100
0010
1000
,
0002
0000
0003
0000
,
0010
0100
1000
0001
1000
0010
1000
0001
0100
0010
0100
0001
1000
0001
0010
0100
,
1000
0001
1000
0010
0100
0001
1000
0100
1000
0010
0100
0001
0010
0001
0100
0010
,
1000
0100
0010
0001
1000
0010
0100
0001
1000
0100
1000
0001
0100
0010
1000
0001
,
0010
0001
1000
0001
0100
0010
1000
0001
1000
0001
0010
0100
1000
0010
0100
0001
,
0010
0001
1000
0100
1000
0010
1000
0001
0010
0100
0010
0001
1000
0001
0100
0010
,
1000
0001
1000
0100
0010
0001
1000
0010
1000
0100
0010
0001
0100
0001
0010
0100
,
1000
0010
0100
0001
1000
0100
0010
0001
1000
0010
1000
0001
0010
0100
1000
0001
,
0100
0001
1000
0001
0010
0100
1000
0001
1000
0001
0100
0010
1000
0100
0010
0001
,
1000
0010
0100
0010
1000
0100
1000
0001
,
0010
0001
0100
0001
1000
0010
0100
0001
,
1000
0100
0010
0001
1000
0010
0100
0010
,
1000
0001
0010
0100
0010
0001
1000
0010
,
1000
0001
0100
0001
1000
0100
0010
0001
,
0100
0010
1000
0100
1000
0001
0010
0001
,
0100
0010
1000
0010
0100
0001
0010
0100
,
2000
0000
3000
0000
,
0001
0010
0001
0100
0001
1000
0010
1000
0001
1000
0100
0010
0001
1000
0010
0100
,
0001
0100
0001
0010
0100
1000
0001
0100
0001
1000
0100
1000
0010
0100
0001
1000
,
0001
0010
0100
1000
0010
1000
0001
0100
0001
1000
0001
0010
0100
1000
0001
0100
,
0010
1000
0010
1000
0100
0010
0001
1000
0010
1000
0001
0010
0001
0100
0010
1000
,
0001
0100
0001
0010
0001
1000
0100
1000
0001
1000
0010
0100
0001
1000
0100
0010
,
0001
0010
0001
0100
0010
1000
0001
0010
0001
1000
0010
1000
0100
0010
0001
1000
,
0001
0100
0010
1000
0100
0010
0100
1000
0001
0100
0010
1000
0001
0010
0001
0100
,
0010
1000
0010
0100
0001
1000
0001
0010
0100
1000
0001
1000
0100
1000
0001
0100
,
0010
1000
0001
0010
0100
1000
0001
0100
,
0001
1000
0100
1000
0010
0100
0001
0010
,
0100
1000
0001
0100
0010
0100
0001
1000
,
0100
0010
0100
1000
0001
0010
0001
1000
,
0010
0100
0001
0010
0001
0100
0001
1000
,
0010
1000
0100
1000
0001
0010
0100
1000
,
0001
1000
0010
0100
0001
1000
0001
0010
,
0200
0000
0300
0000
,
1002
0000
0000
0203
0000
0000
0302
0000
,
2003
0000
0000
3200
0000
0320
0032
0000
,
2003
0000
0000
3020
0000
0230
0302
2003
,
0000
0000
0000
0000
0000
3000
0000
0002
,
0023
0032
2003
0000
3000
0020
0230
0000
,
0302
0000
0000
2003
0000
3200
0320
0000
,
0032
0000
0203
0320
0000
2030
3200
0320
,
0000
0000
0000
0030
0000
0000
0000
0000
,
0012
0000
0000
0023
0000
0000
0032
0000
,
2003
0000
0000
3020
0000
0230
0302
0000
,
2003
0000
0000
3200
0000
0320
0032
2003
,
0000
0000
0000
0000
0000
3000
0000
0002
,
0103
0010
1000
0001
0100
0001
1000
0100
0010
0001
1000
0010
1000
0001
0010
0100
,
1000
0001
0100
0001
1000
0001
0010
0100
0010
0001
1000
0001
0100
0010
1000
0001
,
1000
0100
0010
0100
1000
0001
1000
0010
1000
0001
0010
0001
0100
0010
1000
0001
,
2000
0000
3000
0000
;

//---------------dance-single - 3/4/4/4/4/3----------------
#NOTES:
     dance-single:
     3/4/4/4/4/3:
     Medium:
     11:
     0.848,1.000,0.027,0.591,0.591,792.000,4.000,88.000,0.000,0.000:
0000
0000
0000
0000
,
0000
0000
0000
0000
,
0201
0000
0000
0320
0000
0000
2030
0000
,
3002
0000
0000
0023
0000
0230
2300
0000
,
3002
0000
0000
0203
0000
0320
2030
3002
,
0000
0000
0000
0000
0000
0003
0000
2000
,
3200
2300
3002
0000
0003
0200
0320
0000
,
2030
0000
0000
3002
0000
0023
0230
0000
,
2300
0000
3020
0230
0000
0302
0023
0230
,
0000
0000
0000
0300
0000
0000
0000
0000
,
2100
0000
0000
3200
0000
0000
2300
0000
,
3002
0000
0000
0203
0000
0320
2030
0000
,
3002
0000
0000
0023
0000
0230
2300
3002
,
0000
0000
0000
0000
0000
0003
0000
2000
,
3010
0100
0001
1000
0010
1000
0001
0010
0100
1000
0001
0100
0001
1000
0100
0010
,
0001
1000
0010
1000
0001
1000
0100
0010
0100
1000
0001
1000
0010
0100
0001
1000
,
0001
0010
0100
0010
0001
1000
0001
0100
0001
1000
0100
1000
0010
0100
0001
1000
,
0002
0000
0003
0000
,
1000
0010
0100
0001
1000
0010
1000
0100
0010
0001
0010
0100
1000
0010
0100
0001
,
1000
0100
0010
0001
1000
0001
0100
0010
1000
0001
0100
0001
0010
0001
0100
0010
,
1000
0001
0010
0100
1000
0001
1000
0010
0100
0001
0010
0100
1000
0001
1000
0010
,
1000
0001
0100
0001
1000
0001
0010
0100
0010
0001
1000
0001
1000
0010
0100
0001
,
1000
0100
0010
0100
1000
0010
0100
0001
,
0010
0100
0010
0001
1000
0010
0100
0001
,
0010
0001
1000
0100
1000
0010
0100
0001
,
0100
0010
1000
0001
0010
0100
1000
0001
,
1000
0100
1000
0001
0100
0010
0100
0001
,
0010
0001
1000
0100
1000
0010
1000
0001
,
0010
0100
1000
0001
1000
0010
0100
0001
,
1000
0100
0010
0100
1000
0001
0100
0010
,
0100
0001
1000
0100
1000
0001
0100
0010
,
1000
0100
0010
0100
1000
0010
0100
0001
,
1000
0001
0010
0100
0010
0001
0100
0010
,
2000
0000
3000
0000
,
0001
0010
0001
1000
0001
0010
0100
1000
0100
0010
0100
1000
0010
0100
0010
1000
,
0001
0010
0001
1000
0001
0100
0010
1000
0010
0100
0010
1000
0001
0010
0100
1000
,
0001
0100
0001
1000
0001
0100
0001
0010
0100
1000
0100
0010
0001
0100
0010
0100
,
0001
1000
0100
1000
0001
1000
0100
1000
0001
0100
0010
0100
0001
1000
0100
0010
,
0001
0100
0010
0100
0001
0010
0100
1000
,
0001
0100
0010
1000
0001
0010
0001
1000
,
0100
1000
0010
0100
0001
1000
0100
0010
,
0001
1000
0010
0100
0001
0010
0001
0100
,
0010
1000
0001
0010
0100
0010
0001
0100
,
0010
1000
0100
0010
0001
1000
0010
1000
,
0001
0010
0100
1000
0010
0100
0010
1000
,
0100
0010
0001
1000
0010
0100
0001
0010
,
0001
1000
0010
1000
0001
1000
0100
0010
,
0001
0100
0010
1000
0100
0010
0100
1000
,
0010
1000
0100
0010
0001
0100
0010
1000
,
0002
0000
0003
0000
,
0010
0100
1000
0001
1000
0010
1000
0001
0100
0010
0100
0001
1000
0001
0010
0100
,
1000
0001
1000
0010
0100
0001
1000
0100
1000
0010
0100
0001
0010
0001
0100
0010
,
1000
0100
0010
0001
1000
0010
0100
0001
1000
0100
1000
0001
0100
0010
1000
0001
,
0010
0001
1000
0001
0100
0010
1000
0001
1000
0001
0010
0100
1000
0010
0100
0001
,
0010
0100
1000
0001
0100
0010
1000
0001
,
0010
0001
0100
0001
1000
0100
1000
0010
,
0100
0001
0010
0100
1000
0001
0100
0010
,
1000
0001
0010
0001
1000
0100
0010
0100
,
1000
0010
0100
0010
1000
0100
1000
0001
,
0010
0001
0100
0001
1000
0010
0100
0001
,
1000
0100
0010
0001
1000
0010
0100
0010
,
1000
0001
0010
0100
0010
0001
1000
0010
,
1000
0001
0100
0001
1000
0100
0010
0001
,
0100
0010
1000
0100
1000
0001
0010
0001
,
0100
0010
1000
0010
0100
0001
0010
0100
,
2000
0000
3000
0000
,
0001
0010
0001
0100
0001
1000
0010
1000
0001
1000
0100
0010
0001
1000
0010
0100
,
0001
0100
0001
0010
0100
1000
0001
0100
0001
1000
0100
1000
0010
0100
0001
1000
,
0001
0010
0100
1000
0010
1000
0001
0100
0001
1000
0001
0010
0100
1000
0001
0100
,
0010
1000
0010
1000
0100
0010
0001
1000
0010
1000
0001
0010
0001
0100
0010
1000
,
0001
0100
0010
0100
0001
1000
0100
0010
,
0100
1000
0001
1000
0010
0100
0001
0010
,
0100
1000
0001
0100
0010
1000
0100
0010
,
0001
0100
0010
1000
0100
1000
0001
0100
,
0010
1000
0001
0010
0100
1000
0001
0100
,
0001
1000
0100
1000
0010
0100
0001
0010
,
0100
1000
0001
0100
0010
0100
0001
1000
,
0100
0010
0100
1000
0001
0010
0001
1000
,
0010
0100
0001
0010
0001
0100
0001
1000
,
0010
1000
0100
1000
0001
0010
0100
1000
,
0001
1000
0010
0100
0001
1000
0001
0010
,
0200
0000
0300
0000
,
1002
0000
0000
0203
0000
0000
0302
0000
,
2003
0000
0000
3200
0000
0320
0032
0000
,
2003
0000
0000
3020
0000
0230
0302
2003
,
0000
0000
0000
0000
0000
3000
0000
0002
,
0023
0032
2003
0000
3000
0020
0230
0000
,
0302
0000
0000
2003
0000
3200
0320
0000
,
0032
0000
0203
0320
0000
2030
3200
0320
,
0000
0000
0000
0030
0000
0000
0000
0000
,
0012
0000
0000
0023
0000
0000
0032
0000
,
2003
0000
0000
3020
0000
0230
0302
0000
,
2003
0000
0000
3200
0000
0320
0032
2003
,
0000
0000
0000
0000
0000
3000
0000
0002
,
0103
0010
1000
0001
0100
0001
1000
0100
0010
0001
1000
0010
1000
0001
0010
0100
,
1000
0001
0100
0001
1000
0001
0010
0100
0010
0001
1000
0001
0100
0010
1000
0001
,
1000
0100
0010
0100
1000
0001
1000
0010
1000
0001
0010
0001
0100
0010
1000
0001
,
2000
0000
3000
0000
;
