#TITLE:Drop Out;
#SUBTITLE:;
#ARTIST:NW260;
#TITLETRANSLIT:;
#SUBTITLETRANSLIT:;
#ARTISTTRANSLIT:;
#CREDIT:;
#BANNER:../fthescorept1bn.png;
#BACKGROUND:../fthescorept1bg.png;
#LYRICSPATH:;
#CDTITLE:;
#MUSIC:Drop Out.ogg;
#OFFSET:-0.047;
#SAMPLESTART:3.740;
#SAMPLELENGTH:14.700;
#SELECTABLE:YES;
#BPMS:0.000=260.000;
#STOPS:;
#BGCHANGES:;
// cache tags:
#FIRSTBEAT:0.000;
#LASTBEAT:91.500;
#SONGFILENAME:Songs/Fuck The Score Part I/Drop Out [Dossar]/Drop Out.sm;
#HASMUSIC:1;
#HASBANNER:1;
#MUSICLENGTH:24.293;
// end cache tags

//---------------dance-single - ----------------
#NOTES:
     dance-single:
     :
     Challenge:
     15:
     1.000,1.000,0.453,0.206,0.844,200.000,11.000,5.000,0.000,0.000:
1000
0010
1000
0010
0100
0001
0100
0001
,
1000
0100
1000
0100
0010
0001
0010
0001
,
1000
0000
0000
0000
0002
0000
0000
0203
0000
0000
0000
0000
0000
0002
0000
0000
,
0000
0000
0000
0000
0000
0303
2002
3003
,
1000
0010
0100
0001
0010
0100
0010
0001
,
0100
0010
1000
0100
0010
0001
0010
0100
,
1000
0010
0100
0001
0010
0100
0010
0001
,
1000
0010
0100
0001
1000
0010
0100
0010
,
1000
0001
0100
0001
1000
0010
0100
0001
1000
0010
1000
0001
0100
0010
1000
0001
,
0100
0001
1000
0010
0100
0001
1000
0010
1000
0001
0100
0010
1000
0001
0100
0001
,
1000
0000
0010
0000
0100
0000
0001
0000
0010
0000
0100
0000
0010
0000
0001
0010
,
0001
1000
0100
0010
0001
1000
0100
1000
0001
0000
0010
0000
0001
0000
0010
0000
,
0100
1000
0010
0100
0001
0010
0100
0010
,
0001
0000
1000
0000
0010
0000
0100
0000
0001
0000
0010
0000
0100
1000
0100
0010
,
0001
1000
0010
0100
0001
0010
0100
0010
,
0001
0100
0010
1000
0100
0010
0100
1000
,
0001
0100
0010
1000
0001
1000
0010
0100
0001
1000
0010
1000
0001
0100
0010
1000
,
0001
0100
0001
1000
0010
0100
0001
1000
0010
1000
0001
0100
0010
1000
0001
0100
,
0001
1000
0100
0010
0001
1000
0001
0100
,
0010
1000
0100
0010
0001
1000
0001
0100
,
0000
1001
0000
1001
0000
0110
0000
1001
,
0000
0110
0000
1001
0000
0011
0000
1001
,
0000
1010
0000
1001
0000
0010
0000
0100
;
