#TITLE:YuGiOh!;
#SUBTITLE:- Shuffle;
#ARTIST:奥井雅美;
#TITLETRANSLIT:;
#SUBTITLETRANSLIT:;
#ARTISTTRANSLIT:Okui Masami;
#CREDIT:;
#BANNER:shufflelogo.png;
#BACKGROUND:shufflebg1.png;
#LYRICSPATH:;
#CDTITLE:;
#MUSIC:Shuffle.mp3;
#OFFSET:0.155;
#SAMPLESTART:35.602;
#SAMPLELENGTH:12.000;
#SELECTABLE:YES;
#BPMS:0.000=167.800;
#STOPS:;
#BGCHANGES:;
// cache tags:
#FIRSTBEAT:3.500;
#LASTBEAT:268.500;
#SONGFILENAME:Songs/Anime Songs/Shuffle/shuffle.sm;
#HASMUSIC:1;
#HASBANNER:1;
#MUSICLENGTH:96.106;
// end cache tags

//---------------dance-single - ----------------
#NOTES:
     dance-single:
     :
     Easy:
     4:
     0.351,0.279,0.094,0.000,0.000,227.000,9.000,0.000,0.000,0.000:  // measure 1
0000
0000
0000
0000
,  // measure 2
0000
0000
0000
1001
0000
1000
0000
0001
,  // measure 3
0000
1000
0000
0001
0000
0010
0000
0100
,  // measure 4
0000
0010
0000
0100
0000
1000
0000
0000
,  // measure 5
0000
0000
0000
0000
0000
1001
0000
0000
,  // measure 6
0000
0110
0000
0000
0000
0000
0000
0001
,  // measure 7
0000
1000
0000
0100
0000
0010
0000
0001
,  // measure 8
0000
0100
0000
1000
0000
0010
0000
0001
,  // measure 9
0000
1000
0000
0100
0000
0010
0000
0001
,  // measure 10
0000
0001
0000
1000
0000
0100
0000
0010
,  // measure 11
0000
1000
0000
0001
0000
0000
0000
0000
,  // measure 12
0000
0000
0000
0000
0000
1001
0000
0010
,  // measure 13
0000
0000
0000
0000
0000
0100
0000
1001
,  // measure 14
0000
0000
0000
0000
0000
0110
0000
0100
,  // measure 15
0000
0000
0000
0000
0000
0010
0000
0110
,  // measure 16
0000
0000
0000
0000
,  // measure 17
0000
1000
0000
1000
0000
1000
0000
1000
,  // measure 18
0000
0001
0000
0001
0000
0001
0000
0001
,  // measure 19
0000
1000
0000
0001
0000
1000
0000
0001
,  // measure 20
0000
1000
0000
0001
0000
1000
0000
0001
,  // measure 21
0000
0000
0000
0000
,  // measure 22
0000
0000
0000
0010
0000
0010
0000
0001
,  // measure 23
0000
0001
0000
0001
0000
1000
0000
1000
,  // measure 24
0000
0010
0000
0001
0000
1000
0000
0100
,  // measure 25
0000
0010
0000
0001
0000
1000
0000
0001
,  // measure 26
0000
0100
0000
0010
0000
0001
0000
1000
,  // measure 27
0000
0010
0000
0001
0000
1000
0000
0001
,  // measure 28
0000
0100
0000
1000
0000
0100
0000
0010
,  // measure 29
0000
0001
0000
1000
0000
0001
0000
1000
,  // measure 30
0000
0001
0000
0001
0000
1000
0000
0000
,  // measure 31
0000
0000
0000
0000
0000
0000
0000
0001
,  // measure 32
0000
1000
0000
0100
0000
0010
0000
0001
,  // measure 33
0000
1000
0000
0001
0000
1000
0000
0001
,  // measure 34
0000
1000
0000
0010
0000
0001
0000
1000
,  // measure 35
0000
0000
0000
0000
0000
0001
0000
0001
,  // measure 36
0000
1000
0000
1000
0000
0100
0000
0010
,  // measure 37
0000
1000
0000
0001
0000
0100
0000
0010
,  // measure 38
0000
1000
0000
0100
0000
0010
0000
0001
,  // measure 39
0000
0100
0000
1000
0000
0001
0000
0100
,  // measure 40
0000
0010
0000
1000
0000
0001
0000
0100
,  // measure 41
0000
1000
0000
0010
0000
0001
0000
1000
,  // measure 42
0000
0100
0000
0010
0000
0001
0000
0001
,  // measure 43
0000
1000
0000
0100
0000
0010
0000
1000
,  // measure 44
0000
0001
0000
0100
0000
1000
0000
0010
,  // measure 45
0000
0001
0000
0001
0000
0100
0000
0000
,  // measure 46
0000
0000
0000
0000
0000
0000
0000
1000
,  // measure 47
0000
1000
0000
0100
0000
0010
0000
0001
,  // measure 48
0000
0001
0000
1000
0000
0100
0000
0010
,  // measure 49
0000
1000
0000
0001
0000
0001
0000
1000
,  // measure 50
0000
1000
0000
0100
0000
0100
0000
0100
,  // measure 51
0000
0100
0000
0010
0000
0010
0000
0010
,  // measure 52
0000
0010
0000
0001
0000
0001
0000
0001
,  // measure 53
0000
0001
0000
1000
0000
1000
0000
1000
,  // measure 54
0000
1000
0000
0100
0000
0010
0000
1000
,  // measure 55
0000
0001
0000
0100
0000
0010
0000
1000
,  // measure 56
0000
0001
0000
1000
0000
0100
0000
1000
,  // measure 57
0000
0100
0000
0001
0000
0100
0000
0001
,  // measure 58
0000
0100
0000
0010
0000
1000
0000
0010
,  // measure 59
0000
1000
0000
0010
0000
0001
0000
0010
,  // measure 60
0000
0001
0000
0001
0000
1000
0000
0001
,  // measure 61
0000
1000
0000
0100
0000
1000
0000
0001
,  // measure 62
0000
0100
0000
1000
0000
0001
0000
1000
,  // measure 63
0000
0001
0000
1000
0000
0001
0000
0001
,  // measure 64
0000
1000
0000
1000
0000
0001
0000
0001
,  // measure 65
0000
1000
0000
1000
0000
0001
0000
0001
,  // measure 66
0000
1000
0000
1000
0000
1000
0000
0001
,  // measure 67
0000
1001
0000
0000
0000
0000
0000
0100
,  // measure 68
0000
1001
0000
0000
0000
0000
0000
0000
;

//---------------dance-single - ----------------
#NOTES:
     dance-single:
     :
     Medium:
     5:
     0.434,0.349,0.291,0.000,0.000,264.000,28.000,0.000,0.000,0.000:  // measure 1
0000
0000
0000
0000
,  // measure 2
0000
0000
0000
1001
0000
0110
0000
1000
,  // measure 3
0000
1000
0000
0100
0000
0010
0000
0001
,  // measure 4
0000
0001
0000
1000
0000
0001
0000
0010
,  // measure 5
0000
0100
0000
0010
0000
1010
0000
0100
,  // measure 6
0000
0101
0000
1000
0000
0010
0000
0001
,  // measure 7
0000
1000
0000
0001
0000
1000
0000
0010
,  // measure 8
0000
0100
0000
0010
0000
1000
0000
0100
,  // measure 9
0000
0001
0000
0010
0000
0001
0000
1000
,  // measure 10
0000
0100
0000
0010
0000
0001
0000
0001
,  // measure 11
0000
1000
0000
0100
0000
0010
0000
1000
,  // measure 12
0000
0001
0000
0100
0000
1100
0000
0100
,  // measure 13
0000
0100
0000
0100
0000
0100
0000
0101
,  // measure 14
0000
0001
0000
1000
0000
1010
0000
0010
,  // measure 15
0000
0010
0000
0010
0000
0010
0000
0011
,  // measure 16
0000
0001
0000
0001
0000
1000
0000
0001
,  // measure 17
0000
0001
0000
1000
0000
1000
0000
0001
,  // measure 18
0000
1000
0000
0001
0000
0001
0000
1000
,  // measure 19
0000
0001
0000
1000
0000
1000
0000
0010
,  // measure 20
0000
0100
0000
0010
0000
1000
0000
0001
,  // measure 21
0000
1001
0000
1001
0000
0001
0000
1000
,  // measure 22
0000
0010
0000
0001
0000
1000
0000
0100
,  // measure 23
0000
0001
0000
1000
0000
0010
0000
1000
,  // measure 24
0000
0100
0000
0010
0000
0001
0000
0100
,  // measure 25
0000
1000
0000
0010
0000
0001
0000
1000
,  // measure 26
0000
0100
0000
0001
0000
0010
0000
1000
,  // measure 27
0000
0100
0000
0001
0000
0010
0000
1000
,  // measure 28
0000
0001
0000
1000
0000
0010
0000
0100
,  // measure 29
0000
0010
0000
1000
0000
0001
0000
1000
,  // measure 30
0000
0100
0000
0010
0000
0110
0000
0110
,  // measure 31
0000
0001
0000
0010
0000
0001
0000
0001
,  // measure 32
0000
1000
0000
0100
0000
0010
0000
0001
,  // measure 33
0000
1000
0000
0100
0000
0010
0000
0001
,  // measure 34
0000
1000
0000
0100
0000
0110
0000
1001
,  // measure 35
0000
0100
0000
0100
0000
0010
0000
0100
,  // measure 36
0000
0001
0000
1000
0000
0100
0000
1000
,  // measure 37
0000
0001
0000
0100
0000
0001
0000
0010
,  // measure 38
0000
1000
0000
0010
0000
0001
0000
0010
,  // measure 39
0000
0001
0000
1000
0000
0001
0000
0100
,  // measure 40
0000
0010
0000
1000
0000
0100
0000
0010
,  // measure 41
0000
1000
0000
0001
0000
0010
0000
0100
,  // measure 42
0000
0001
0000
0010
0000
1000
0000
0001
,  // measure 43
0000
0100
0000
0010
0000
1000
0000
0100
,  // measure 44
0000
0010
0000
0001
0000
1000
0000
0100
,  // measure 45
0000
0010
0000
0100
0000
1001
0000
0110
,  // measure 46
0000
0001
0000
0010
0000
0100
0000
1000
,  // measure 47
0000
1100
0000
1000
0000
0010
0000
0100
,  // measure 48
0000
1000
0000
0010
0000
0100
0000
0110
,  // measure 49
0000
0100
0000
0001
0000
0100
0000
0010
,  // measure 50
0000
1000
0000
0001
0000
0100
0000
0010
,  // measure 51
0000
1000
0000
0100
0000
0001
0000
0010
,  // measure 52
0000
0011
0000
0001
0000
0100
0000
0010
,  // measure 53
0000
0100
0000
1000
0000
0001
0000
0100
,  // measure 54
0000
1000
0000
0010
0000
0001
0000
0100
,  // measure 55
0000
1000
0000
0001
0000
1001
0000
1000
,  // measure 56
0000
0100
0000
0010
0000
1000
0000
0001
,  // measure 57
0000
0010
0000
1000
0000
0100
0000
0001
,  // measure 58
0000
0010
0000
0001
0000
0100
0000
0101
,  // measure 59
0000
0010
0000
1000
0000
0010
0000
1000
,  // measure 60
0000
0100
0000
0001
0000
0010
0000
0100
,  // measure 61
0000
1000
0000
1100
0000
1000
0000
0001
,  // measure 62
0000
1000
0000
0100
0000
0001
0000
0100
,  // measure 63
0000
0010
0000
1000
0000
1010
0000
0010
,  // measure 64
0000
0010
0000
1000
0000
0001
0000
0100
,  // measure 65
0000
0010
0000
1000
0000
0001
0000
1000
,  // measure 66
0000
0100
0000
0010
0000
0001
0000
0100
,  // measure 67
0000
1100
0000
0101
0000
1100
0000
0101
,  // measure 68
0000
1001
0000
0000
0000
0000
0000
0000
;

//---------------dance-single - ----------------
#NOTES:
     dance-single:
     :
     Hard:
     7:
     0.657,0.559,1.000,0.000,0.000,284.000,158.000,0.000,0.000,0.000:  // measure 1
0000
0000
0000
0000
0000
0000
0000
1000
,  // measure 2
0001
1000
0001
0110
0000
0110
0000
0110
,  // measure 3
0000
0110
0000
1001
0000
1001
0000
1001
,  // measure 4
0000
1001
0000
0101
0000
0101
0000
0101
,  // measure 5
0000
0101
0000
0001
0000
0101
0000
0100
,  // measure 6
0000
1010
0000
1000
0000
1010
0000
1010
,  // measure 7
0000
1010
0000
1010
0000
0110
0000
1001
,  // measure 8
0000
0101
0000
0100
0000
1010
0000
0011
,  // measure 9
0000
1010
0000
0011
0000
1100
0000
0101
,  // measure 10
0000
0100
0000
1001
0000
0100
0000
0010
,  // measure 11
0000
0100
0000
1000
0000
0001
0000
1001
,  // measure 12
0000
0100
0000
0100
0000
1001
0000
1000
,  // measure 13
0000
0001
0000
1000
0000
0001
0000
1001
,  // measure 14
0000
0100
0000
0100
0000
1001
0000
1001
,  // measure 15
0000
0110
0000
1001
0000
0110
0000
1001
,  // measure 16
0000
0100
0000
0100
0000
1001
0000
0001
,  // measure 17
0000
0001
0000
1000
0000
1000
0000
0001
,  // measure 18
0000
1000
0000
0001
0000
1000
0000
0110
,  // measure 19
0000
1001
0000
0110
0000
0110
0000
1001
,  // measure 20
0000
1001
0000
0110
0000
0110
0000
0101
,  // measure 21
0000
0101
0000
0101
0000
0101
0000
0100
,  // measure 22
0000
0100
0000
1010
0000
1010
0000
1010
,  // measure 23
0000
0100
1000
0100
0001
0100
0010
0100
,  // measure 24
1000
0001
0000
0110
0000
0110
0000
0110
,  // measure 25
0000
0110
0000
1001
0000
1001
0000
1001
,  // measure 26
0000
1001
0000
0101
0000
0101
0000
0101
,  // measure 27
0000
0101
0000
1010
0000
1010
0000
1010
,  // measure 28
0000
1010
0000
0110
0000
0110
0000
1001
,  // measure 29
0000
1001
0000
0100
0000
1000
0000
1000
,  // measure 30
0000
0001
0000
0001
0000
0110
0000
1001
,  // measure 31
0000
1010
0000
0011
0000
0101
0000
0100
,  // measure 32
1000
0100
0001
0100
0010
0100
1000
0010
,  // measure 33
0001
0000
0100
0001
0010
0100
1000
0100
,  // measure 34
0001
0100
0010
0100
1000
0000
0000
0001
,  // measure 35
0001
0000
0000
0100
0000
0110
0000
0110
,  // measure 36
0000
0110
0000
1001
0000
0110
0000
1001
,  // measure 37
0000
0110
0000
0010
0000
0100
0000
0010
,  // measure 38
0000
0100
0000
0010
0000
0100
0000
1010
,  // measure 39
0000
0011
0000
1010
0000
0011
0000
1100
,  // measure 40
0000
0101
0000
1100
0000
0101
0000
0010
,  // measure 41
0000
0001
0000
1000
0000
0100
0000
0010
,  // measure 42
0000
1000
0000
0001
0000
0100
0000
1010
,  // measure 43
0000
1010
0000
0011
0000
0011
0000
1010
,  // measure 44
0000
1010
0000
0011
0000
0011
0000
0101
,  // measure 45
0000
0101
0000
1100
0000
1100
0000
0101
,  // measure 46
0000
0101
0000
1100
0000
1100
0000
0001
,  // measure 47
0000
1000
0000
1000
0000
0001
0000
1001
,  // measure 48
0000
1001
0000
1001
0000
1001
0000
0110
,  // measure 49
0000
0110
0000
0110
0000
0110
0000
1001
,  // measure 50
0000
1001
0000
1001
0000
1001
0000
0010
,  // measure 51
0000
0100
0000
1000
0000
0010
0000
1000
,  // measure 52
0000
0010
0000
1010
0000
1010
0000
1010
,  // measure 53
0000
1010
0000
0010
0000
0001
0000
0010
,  // measure 54
0000
0001
0000
0010
0000
0001
0000
0011
,  // measure 55
0000
0011
0000
0011
0000
0011
0000
0001
,  // measure 56
0000
0100
0000
0001
0000
0100
0000
0001
,  // measure 57
0000
0100
0000
0101
0000
0101
0000
0101
,  // measure 58
0000
0101
0000
1000
0000
0100
0000
1000
,  // measure 59
0000
0100
0000
1000
0000
0100
0000
1100
,  // measure 60
0000
1100
0000
1100
0000
1100
0000
1010
,  // measure 61
0000
1010
0000
0011
0000
0011
0000
1100
,  // measure 62
0000
1100
0000
0101
0000
0101
0000
1001
,  // measure 63
0000
1001
0000
0110
0000
0110
0000
1001
,  // measure 64
0000
1010
0000
0011
0000
1001
0000
1100
,  // measure 65
0000
0101
0000
1000
0000
0001
0000
1000
,  // measure 66
0000
0001
0000
1001
0000
1001
0000
0001
,  // measure 67
0001
0000
1000
0001
1000
0001
1000
0001
,  // measure 68
0000
1001
0000
0000
0000
0000
0000
0000
;
