#TITLE:Boss Machine;
#SUBTITLE:;
#ARTIST:DM Ashura;
#TITLETRANSLIT:;
#SUBTITLETRANSLIT:;
#ARTISTTRANSLIT:;
#CREDIT:Shortysnmn2010;
#BANNER:Boss Machine-bn.jpg;
#BACKGROUND:Boss Machine-bg.jpg;
#LYRICSPATH:;
#CDTITLE:CDTitle.png;
#MUSIC:Boss Machine.mp3;
#OFFSET:-0.035;
#SAMPLESTART:78.020;
#SAMPLELENGTH:12.720;
#SELECTABLE:YES;
#BPMS:0.000=160.000;
#STOPS:;
#BGCHANGES:;
// cache tags:
#FIRSTBEAT:16.000;
#LASTBEAT:336.000;
#SONGFILENAME:Songs/new/Boss Machine/Boss Machine.sm;
#HASMUSIC:1;
#HASBANNER:1;
#MUSICLENGTH:129.705;
// end cache tags

//---------------dance-single - ----------------
#NOTES:
     dance-single:
     :
     Easy:
     4:
     0.285,0.356,0.116,0.131,0.000,227.000,15.000,17.000,0.000,0.000:
0000
0000
0000
0000
,
0000
0000
0000
0000
,
0000
0000
0000
0000
,
0000
0000
0000
0000
,
1000
0000
0000
0010
,
2002
0000
3003
0000
,
0001
0000
0000
0100
,
0220
0000
0330
0000
,
1000
0000
0000
0010
,
2002
0000
3003
0000
,
0100
0000
0000
1000
,
0022
0000
0033
0000
,
0001
0100
0001
1000
,
0010
0010
0010
0010
,
1000
0000
0000
0001
,
0010
0010
0100
1000
,
0100
0000
0000
0010
,
0001
0100
0010
1000
,
0001
0000
0000
1000
,
0100
0010
0100
1000
,
0010
0100
0001
1000
,
0010
1000
0000
0001
,
0010
0001
0100
0010
,
1000
0001
0101
1001
,
0100
0000
1000
0010
,
1000
0100
0010
0001
,
1000
0000
0010
0000
,
1000
0010
0110
1010
,
0001
0000
1000
0000
,
0001
0010
0100
0000
,
1000
0001
0100
0000
,
0010
1000
0001
0001
,
0001
0000
1000
0100
,
0010
0100
1000
0010
,
0100
0000
0100
0000
,
0001
0010
0001
0000
,
2000
0000
0000
3000
,
0002
0000
0000
0003
,
0020
0000
0000
0030
,
0002
0000
0000
0003
,
1000
0000
1000
0000
,
1000
0100
0010
0100
,
1000
0000
1000
0000
,
1002
0000
0103
0001
,
1000
0100
1000
0001
,
1000
0100
0110
0000
,
0010
0001
0100
0001
,
0010
0001
1001
0000
,
1000
0100
0010
0001
,
1000
0010
0110
0000
,
0100
0001
0010
0001
,
1000
0010
1010
0000
,
1000
0001
0100
0010
,
1000
0002
0003
0000
,
1000
0100
0010
0100
,
1000
0010
0200
0300
,
0010
1000
0001
0100
,
0001
0020
0030
0000
,
0100
1000
0010
1000
,
0001
0010
0002
0003
,
1000
1100
1000
0001
,
0100
0000
0010
0000
,
1000
0001
0010
1000
,
0010
0000
0001
0100
,
0001
0000
1000
0010
,
1000
0000
0001
0000
,
0010
0001
0100
0000
,
0010
1000
0100
0000
,
1000
0000
0001
0000
,
0100
0001
0100
0001
,
1000
0000
0010
0000
,
1000
0100
0010
0001
,
1000
0000
0001
0000
,
0010
0100
0010
0001
,
1000
0000
0010
0000
,
0100
0001
1000
0010
,
1000
0000
0000
0000
,
0001
0010
0100
1000
,
0100
0000
0000
0000
,
1000
0010
0100
0001
,
0010
0000
0000
0000
,
0100
0010
0100
1000
,
0000
0000
0000
0000
,
0001
0100
0010
0100
,
1001
0000
0000
0000
;

//---------------dance-single - ----------------
#NOTES:
     dance-single:
     :
     Medium:
     6:
     0.370,0.389,0.185,0.146,0.000,293.000,24.000,19.000,0.000,0.000:
0000
0000
0000
0000
,
0000
0000
0000
0000
,
0000
0000
0000
0000
,
0000
0000
0000
0000
,
1000
0000
0000
0001
0000
0000
0100
0000
,
1001
0000
0000
0000
,
0010
0000
0000
0100
0000
0000
1000
0000
,
0011
0000
0000
0000
,
1000
0000
0000
0010
0000
0000
0100
0000
,
0101
0000
0000
0000
,
0001
0000
0000
1000
0000
0000
0100
0000
,
0011
0000
0000
0000
,
1000
0000
0000
0001
0000
0000
0100
0000
,
0001
1000
0010
1000
,
0100
0000
0000
0010
0000
0000
0100
0000
,
0010
0001
0100
0010
,
1000
0000
0000
0001
0000
0000
1000
0000
,
0010
0001
0010
1000
,
0100
0000
0000
0010
0000
0000
0001
0000
,
0100
0001
1000
0100
,
0010
0100
1000
0000
0001
0000
0010
0000
,
0001
0000
0100
0001
0000
0000
1000
0000
,
0010
0100
0001
0000
0010
0000
0001
0000
,
1000
0010
1001
1001
,
0100
0001
0100
0000
0010
0000
1000
0000
,
0001
0000
0010
0001
0000
0000
1000
0000
,
0010
0100
0001
0000
1000
0000
0100
0000
,
0001
0100
1100
1100
,
0010
0001
0100
0000
0001
0000
0010
0000
,
0100
0000
1000
0020
0000
0000
1030
0000
,
0010
0100
0001
0010
,
0100
1000
0101
0101
,
1000
0010
1000
0000
0100
0000
0010
0000
,
0001
0000
0100
0002
0000
0000
0013
0000
,
0001
0010
0100
1000
,
0010
0100
1001
0110
,
2000
0000
0000
3010
,
1000
0100
0010
0001
,
0200
0000
0000
0301
,
0100
0001
0010
0100
,
0020
0000
0000
0031
,
0010
0100
1000
0010
,
0200
0000
0000
1300
,
0100
0001
0010
0100
,
1000
0010
1000
0102
,
1003
0001
0010
0001
,
0100
0010
0100
1002
,
0013
0100
1000
0010
,
0100
0001
0010
0001
,
2100
3001
0010
0100
,
1000
0010
1000
0001
,
0102
0013
0001
0010
,
0100
1000
0100
0000
0010
0000
0100
0000
,
1000
0000
0010
1000
0000
0000
0010
0000
,
0100
0001
0010
0001
,
2000
0010
3010
0000
,
1000
0100
0010
0000
0001
0000
0100
0000
,
0001
0000
1000
0020
0000
0000
0130
0000
,
0010
0100
0001
0010
,
0001
0100
0010
0000
2000
0000
3000
0000
,
0001
1000
0001
0000
0010
0000
0001
0000
,
1000
1001
0000
0100
,
0010
0001
0010
0000
0100
0000
1000
0000
,
0010
0100
0000
0110
,
0010
1000
0100
0000
1000
0000
0010
0000
,
0100
0000
0001
0100
0000
0000
0001
0000
,
0010
0001
0100
0000
0001
0000
0010
0000
,
0100
1000
0010
0000
,
1000
0000
1000
0010
0100
0000
0001
0000
,
2000
0100
0100
3100
,
1000
0000
0001
0010
0001
0000
1000
0000
,
0002
0100
0100
0103
,
0001
0000
1000
0010
,
2000
0100
0100
3001
,
1000
0000
0001
0010
,
0002
0100
0100
0013
,
0001
0000
0000
0000
0000
0000
0000
1000
,
0100
0010
1001
0101
,
0010
0000
0000
0000
0000
0000
0000
0001
,
0100
0010
1001
1100
,
0010
0000
0000
0000
0000
0000
0000
1000
,
0100
0010
0102
0013
,
0001
0000
0000
0000
0000
0000
0000
1000
,
0010
0100
1002
0103
,
0001
0000
0000
0000
;

//---------------dance-single - ----------------
#NOTES:
     dance-single:
     :
     Hard:
     7:
     0.501,0.453,0.216,0.216,0.000,399.000,28.000,28.000,0.000,0.000:
0000
0000
0000
0000
,
0000
0000
0000
0000
,
0000
0000
0000
0000
,
0000
0000
0000
0000
,
1000
0100
0000
0100
1000
0000
0100
0010
,
0001
0100
0100
0100
,
0001
0010
0000
0010
0001
0000
0100
0010
,
1000
1000
1000
0100
,
0010
0001
0000
0100
0001
0000
0010
0100
,
1000
0010
0010
1000
,
0001
0100
0000
0010
0100
0000
0001
0010
,
0100
1000
0100
0010
,
0002
0100
1003
1001
,
1000
0100
0010
0000
0100
0000
1000
0000
,
0020
0100
1030
1010
,
0010
0100
0001
0000
0010
0000
1001
0000
,
0100
0000
0001
0000
0010
0000
0100
1000
,
0010
0200
0001
0301
,
0100
0000
0010
1000
0100
0000
0010
0000
,
0001
1000
2100
3001
,
1000
0100
0010
0000
0001
0000
0100
0000
,
0001
1000
0001
0010
0000
0100
0010
0000
,
0001
0100
0010
0000
1000
0000
0001
0000
,
0100
0001
0100
0001
1000
0000
1010
0000
,
1000
0100
0010
0000
0001
0000
1000
0000
,
0001
0100
0010
0100
0000
0100
0001
0000
,
0010
0100
1000
0000
0010
0000
0100
0000
,
0010
1000
0001
1000
0010
0000
0101
0000
,
0010
0100
1000
0000
0100
0000
0010
0000
,
0100
1000
0100
0010
0000
0001
0010
0000
,
0001
0100
0001
0000
1000
0000
0010
0000
,
0100
0001
0100
0010
1000
0000
0101
0000
,
0010
0200
1000
0000
1000
0000
0310
0000
,
0100
0000
0010
0100
0000
0100
1000
0000
,
0010
0200
0001
0000
0010
0000
0301
0000
,
0100
0001
1000
0100
0010
0000
1001
0000
,
0002
0000
0010
0000
0010
0000
0013
0001
,
0200
0000
0001
0000
0001
0000
0301
0100
,
0020
0000
1000
0000
1000
0000
1030
0010
,
0100
0001
2001
3100
,
2000
0000
0100
0000
0100
0000
3100
1000
,
0002
0000
0010
0000
0010
0000
0013
0001
,
2000
0000
0010
0000
0010
0000
3010
1000
,
0200
0000
0010
0000
0010
0000
0310
0100
,
1000
0010
1000
0000
0001
0100
0010
0000
,
1000
0100
0010
0001
0010
0100
1000
0000
,
0001
0100
0001
0000
1000
0010
0100
0000
,
0001
0010
1000
0010
0001
0100
0010
0000
,
1000
0100
0010
0000
0001
0100
1000
0000
,
0100
0010
1000
0100
0010
0001
1000
0000
,
0001
0010
0001
0000
1000
0100
1000
0000
,
0001
0100
0010
1000
0001
0100
0010
0000
,
1000
0100
0100
0000
0010
0000
0100
0000
,
1000
0000
0001
0100
0000
0100
0001
0000
,
0010
0001
0001
0000
0100
0000
0010
0000
,
1000
0100
0021
0031
,
0010
0100
1000
0000
0010
0000
0100
0000
,
0001
0000
0010
0100
0000
0100
0010
0000
,
0100
1000
0001
0000
0010
0000
0001
0000
,
0100
0010
1002
1003
,
0001
0010
0001
0000
1000
0000
0100
0000
,
0010
0100
1000
0010
0000
0010
1000
0000
,
0001
0100
0010
0000
0100
0000
0001
0000
,
0010
0100
1000
0000
0010
0100
0001
0000
,
1000
0100
0010
0000
0002
0000
0103
0000
,
0002
0000
1003
0100
0000
0010
0001
0000
,
1000
0100
0010
0000
0200
0000
1300
0000
,
0200
0000
0310
0000
0100
1000
0001
0000
,
1000
0000
0010
0000
0100
0000
0010
0100
,
0001
0011
1001
1100
,
1000
0000
0100
0000
0010
0000
0001
0100
,
0010
1010
1001
0101
,
0010
0000
0010
0000
1000
0000
0100
0010
,
0001
1100
1001
0011
,
0100
0000
0100
0000
1000
0000
0010
0100
,
0001
1001
1010
0101
,
2000
0000
0000
0000
0000
0000
3010
1000
,
0002
0100
1003
1001
,
2000
0000
0000
0000
0000
0000
3100
0010
,
0002
0010
1003
0101
,
0020
0000
0000
0000
0000
0000
0130
0010
,
2000
0010
3100
0110
,
0020
0000
0000
0000
0000
0000
1030
0010
,
0002
0100
0103
0110
,
1001
0000
0000
0000
;

//---------------dance-single - ----------------
#NOTES:
     dance-single:
     :
     Challenge:
     9:
     0.689,0.680,0.324,0.517,0.170,517.000,42.000,67.000,0.000,0.000:
0000
0000
0000
0000
,
0000
0000
0000
0000
,
0000
0000
0000
0000
,
0000
0000
0000
0000
,
0001
0200
0000
1300
0100
0000
0001
0020
,
0100
0130
0210
0310
,
0200
1000
0000
0301
0100
0000
1000
0020
,
0100
0130
0210
0310
,
0100
0001
0001
1000
0001
0001
0010
0100
,
1000
1010
1100
1010
,
0010
0100
0100
0001
1000
1000
0010
0100
,
0001
0011
0101
0011
,
0001
0000
1000
0000
0100
0000
1000
0000
0002
0000
1000
0000
1003
0000
0001
0010
,
0001
2100
3001
0101
,
0010
0000
1000
0000
0100
0000
1000
0000
0020
0000
0100
0000
0130
0000
0010
0100
,
0001
0010
0100
0010
0001
0000
1001
0000
,
0020
0000
1000
0000
1030
0000
0020
0000
0100
0000
0130
0000
0010
0000
1000
0001
,
1000
2100
3001
0011
,
0200
0000
1000
0000
1300
0000
0200
0000
0010
0000
0310
0000
0100
0000
1000
0100
,
0010
0001
0100
0001
0010
0000
1100
0000
,
0020
0001
0001
0000
0100
0000
0031
0000
,
0010
0100
1000
0010
0000
0110
0210
0000
,
0301
0100
0010
0000
1000
0100
0010
0000
,
0001
1000
0100
1000
0002
0010
0013
0000
,
0200
1000
1000
0000
0010
0000
0310
0000
,
0100
0010
0001
1000
0000
1010
1020
0000
,
0130
0010
1000
0000
0001
0010
0001
0000
,
1000
0100
0010
0001
0200
0010
0310
0000
,
0100
0001
2001
0000
0100
0000
3001
0000
,
1000
0100
0010
0001
0000
0001
1001
0000
,
0100
1000
1020
0000
0100
0000
1030
0000
,
0010
0100
0001
0010
0100
1000
1100
0000
,
0200
1000
1000
0000
0001
0000
0010
0000
,
1000
0000
0010
0010
0000
1300
1001
0000
,
0200
0001
0001
0000
1000
0000
0010
0000
,
0001
0301
0100
0010
0100
0001
1001
0000
,
0001
0010
0100
0000
0010
0100
1000
0000
0010
0000
0100
0000
0002
0000
0000
0003
,
1000
0100
1000
0000
0001
0010
0001
0000
0100
0000
0010
0000
2000
0000
0000
3000
,
0001
0100
0010
0000
0100
0010
1000
0000
0001
0000
0010
0000
0200
0000
0000
0300
,
1000
0100
0010
0000
0001
1000
0001
0000
0100
0000
0010
0000
2000
0000
0000
3000
,
0010
0100
0001
0000
0100
0010
1000
0000
0001
0000
0010
0000
0002
0000
0000
0003
,
1000
0100
0010
0000
0100
1000
0001
0000
0100
0000
0010
0000
2000
0000
0000
3000
,
0010
1000
0001
0000
0100
0001
0100
0000
0010
0000
0100
0000
0002
0000
0000
0003
,
0010
0100
1000
0000
1000
0100
0010
0000
0001
0000
1000
0000
0200
0000
0000
0300
,
1000
0100
0010
0001
0100
0001
0010
0100
,
2000
0010
3010
1000
0010
0100
0101
0000
,
0001
1000
0100
0010
0100
1000
0010
0100
,
0002
0010
0013
0001
0100
0010
1010
0000
,
1000
0100
0001
0100
1000
0010
0100
0001
,
0020
0100
0130
0010
0001
0100
0110
0000
,
0010
1000
0100
1000
0010
0001
0010
0100
,
0002
0010
0013
0001
0100
0001
0011
0000
,
0200
0000
0000
2300
0000
0000
3002
0000
0000
0023
0000
0000
0100
0000
0130
0000
,
0010
0000
0000
0001
0000
0000
2100
0000
0000
3001
0000
0000
1000
0000
0001
0000
,
0200
0000
0000
0302
0000
0000
2003
0000
0000
3020
0000
0000
1000
0000
1030
0000
,
0010
0000
0000
0110
0000
0000
0100
0000
0001
0000
0000
1001
0000
0000
1000
0000
,
0200
0000
0000
0320
0000
0000
0032
0000
0000
0203
0000
0000
0301
0000
0100
0000
,
0020
0000
0000
2030
0000
0000
3100
0000
0000
1200
0000
0000
0310
0000
0100
0000
,
2000
0000
0000
3002
0000
0000
0203
0000
0000
0320
0000
0000
0130
0000
0010
0000
,
1000
0000
0000
1001
0000
0000
0001
0000
0100
0000
0000
0110
0000
0000
0010
0000
,
1000
0200
0001
0000
1000
0000
0301
0000
,
0100
0001
0100
1000
0000
0010
0100
0001
,
1000
0020
0001
0000
1000
0000
0031
0000
,
0010
1000
0100
0010
0001
0000
1001
0000
,
0002
0010
0010
0000
1003
0000
1001
0000
,
1000
0100
0010
0002
0000
0103
0101
0000
,
0001
0010
0100
0000
1000
0000
0010
0000
,
0100
0002
1000
1003
0001
0000
1010
0000
,
1000
0000
0001
0000
0100
0000
0001
0000
1000
0000
0001
0000
0100
0000
0010
0100
,
0020
1000
1000
0130
,
0010
0000
1000
0000
0100
0000
1000
0000
0010
0000
1000
0000
0100
0000
0010
0100
,
1000
0010
1000
0100
0010
0000
0001
0000
,
1000
0000
0100
0000
0010
0000
0100
0000
1000
0000
0010
0000
0100
0000
0001
0100
,
0020
0001
0001
0130
,
0010
0000
1000
0000
0100
0000
1000
0000
0001
0000
0100
0000
1000
0000
0100
0001
,
0100
0010
1000
0100
0010
0000
1100
0000
,
0010
0000
0000
0000
0001
0000
0000
0000
1000
0000
0000
0000
0010
0000
0100
0001
,
1000
0010
0100
1001
,
0010
0000
0000
0000
0100
0000
0000
0000
1000
0000
0000
0000
0010
0000
0100
0001
,
1000
0010
0001
0010
1000
0000
0011
0000
,
0200
0000
0000
0000
0000
0000
2300
0000
0000
0000
0000
0000
3001
0000
1000
0100
,
0010
0001
0010
0100
,
2000
0000
0000
0000
0000
0000
3020
0000
0000
0000
0000
0000
0031
0000
0010
1000
,
0001
0010
0100
1000
0001
0000
0100
0000
,
1010
0000
0000
0000
;
