#TITLE:Serious Shit;
#SUBTITLE:;
#ARTIST:The Quick Brown Fox;
#TITLETRANSLIT:;
#SUBTITLETRANSLIT:;
#ARTISTTRANSLIT:;
#CREDIT:;
#BANNER:serious shit bn.png;
#BACKGROUND:serious shit bg.png;
#LYRICSPATH:;
#CDTITLE:;
#MUSIC:Serious Shit.ogg;
#OFFSET:-0.334;
#SAMPLESTART:28.497;
#SAMPLELENGTH:12.000;
#SELECTABLE:YES;
#BPMS:0.000=230.000;
#STOPS:;
#BGCHANGES:;
// cache tags:
#FIRSTBEAT:33.813;
#LASTBEAT:513.250;
#SONGFILENAME:Songs/SPEEEDCOOOORE 4/Serious Shit - [ITGAlex]/Serious Shit.sm;
#HASMUSIC:1;
#HASBANNER:1;
#MUSICLENGTH:135.810;
// end cache tags

//---------------dance-single - ITGAlex----------------
#NOTES:
     dance-single:
     ITGAlex:
     Challenge:
     19:
     1.000,1.000,0.074,0.044,1.000,1445.000,10.000,6.000,42.000,0.000:
0000
0000
0000
0000
,
0000
0000
0000
0000
,
0000
0000
0000
0000
,
0000
0000
0000
0000
,
0000
0000
0000
0000
,
0000
0000
0000
0000
,
0000
0000
0000
0000
,
0000
0000
0000
0000
,
0000
0000
0000
0000
0000
0000
0000
0000
0000
0000
0000
0000
0000
0000
0000
0000
0000
0000
0000
0000
0000
0000
0000
0000
0000
0000
0000
0000
0000
00M0
0000
0000
0000
0000
0000
0000
0000
0000
0000
0000
0000
0000
0000
0000
0000
0000
0000
0000
0000
0000
0000
0000
0000
0000
0000
0000
0000
0000
0000
0000
0000
0000
0000
0000
,
1000
0100
0010
0001
1000
0100
1000
0001
0100
0010
1000
0001
0010
0100
0010
0001
,
1000
0001
0100
0010
1000
0001
0100
0001
1000
0100
0010
0001
1000
0010
0100
0001
,
1000
0100
1000
0001
0010
0100
1000
0010
0100
0001
1000
0100
1000
0010
0100
0001
,
0010
0100
1000
0001
0010
0001
1000
0010
0100
0001
1000
0010
1000
0001
0010
0001
,
0100
0010
1000
0001
0100
0001
0010
0100
1000
0001
0010
0100
0010
0001
1000
0010
,
0100
0001
1000
0010
1000
0001
0010
0100
1000
0100
0010
0001
1000
0010
0100
0001
,
1000
0100
1000
0001
0010
0100
1000
0001
0100
0001
1000
0010
1000
0100
0010
0001
,
0100
0010
0100
0001
1000
0010
0100
0010
1000
0100
0010
0001
1000
0001
0010
0100
,
1000
0010
0100
0001
1000
0010
1000
0001
0010
0100
0010
0001
1000
0010
0100
0001
,
1000
0001
0010
0100
0010
0001
1000
0010
1000
0001
0010
0100
1000
0001
0100
0010
,
1000
0001
0010
0100
0010
0001
1000
0010
1000
0001
0010
0001
0100
0010
1000
0001
,
1000
0100
0010
0001
1000
0010
1000
0001
0010
0001
1000
0100
1000
0001
0100
0010
,
1000
0100
0010
0001
1000
0010
1000
0100
0010
0100
1000
0001
0100
0001
1000
0010
,
1000
0001
0010
0100
0010
0001
1000
0010
1000
0001
0010
0100
1000
0001
0100
0010
,
1000
0001
1000
0100
0010
0001
1000
0010
1000
0001
0010
0001
1000
0100
1000
0001
,
1000
0000
0000
0000
0000
0000
0000
0000
0000
0000
0000
0000
0000
0000
0000
0000
0010
0000
0000
0000
0000
0000
0000
0000
0000
0000
0000
0000
0000
0000
0000
0000
0100
0000
0000
0000
0000
0000
0000
0000
0000
0000
0000
0000
0000
0000
0000
0000
0001
0000
0000
0000
0000
0000
0000
0000
0000
0000
0000
0000
0000
0000
0000
0000
0100
0000
0000
0000
0000
0000
0000
0000
0000
0000
0000
0000
0000
0000
0000
0000
0010
0000
0000
0000
0000
0000
0000
0000
0000
0000
0000
0000
0000
0000
0000
0000
1000
0000
0000
0000
0000
0000
0000
0000
0000
0000
0000
0001
0000
0000
0000
0000
0000
0000
0000
0000
0000
0100
0000
0000
0000
0000
0000
0000
0000
0000
0000
0000
0001
0000
0000
0000
0000
0000
0000
0000
0000
0000
0000
1000
0000
0000
0000
0000
0000
0000
0000
0000
0000
0010
0000
0000
0000
0000
0000
0000
0000
0000
0000
0000
1000
0000
0000
0000
0000
0000
0000
0000
0000
0000
0000
0001
0000
0000
0000
0000
0000
0000
0000
0000
0000
1000
0000
0000
0000
0000
0000
0000
0000
0000
0000
0000
,
0100
0000
0000
0000
,
0000
0000
0000
0000
,
1000
0100
0010
0001
1000
0100
1000
0001
0100
0010
1000
0001
0100
0001
0010
0100
,
1000
0001
0010
0001
1000
0100
0010
0100
1000
0001
0100
0010
1000
0001
0010
0100
,
1000
0001
1000
0010
0100
0001
1000
0100
0010
0001
1000
0100
1000
0001
0100
0010
,
1000
0001
0010
0100
0010
0001
1000
0010
0100
0001
1000
0010
1000
0100
1000
0001
,
0100
0010
0100
0001
1000
0010
1000
0001
0010
0100
0010
0001
1000
0100
0010
0001
,
0100
0001
1000
0010
0100
0001
1000
0010
1000
0001
0010
0100
1000
0001
0100
0010
,
1000
0001
0010
0001
1000
0100
0010
0001
1000
0010
1000
0001
0100
0010
0100
0001
,
0010
0001
1000
0010
0100
0010
1000
0001
0100
0010
1000
0001
0010
0001
1000
0010
,
0100
0001
1000
0001
0010
0100
0010
0001
1000
0001
0100
0010
0100
0001
1000
0001
,
0010
0100
0010
0001
1000
0001
0100
0010
1000
0001
0010
0001
0100
0010
0100
0001
,
1000
0100
0010
0001
1000
0001
0100
0010
1000
0001
0010
0001
1000
0100
0010
0001
,
1000
0001
0100
0010
1000
0001
0010
0001
1000
0010
0100
0010
1000
0100
1000
0001
,
0100
0010
1000
0001
0010
0001
1000
0010
0100
0010
1000
0001
0010
0001
1000
0010
,
0100
0010
1000
0001
0010
0001
1000
0010
0100
0001
0010
0100
0010
0001
0100
0001
,
1000
0100
0010
0100
1000
0001
0100
0001
1000
0100
0010
0100
1000
0001
0100
0001
,
1000
0100
0010
0001
0100
0010
0100
0001
0010
0001
1000
0010
1000
0100
0010
0000
,
0100
0000
1000
0010
0000
0100
0001
0000
1000
0001
0000
0010
,
0100
0000
1000
0010
0000
0100
0001
0000
0010
0100
0000
0010
,
0001
0000
1000
0010
0000
0100
0001
0000
1000
0100
0000
1000
,
0010
0000
0100
0001
0000
0010
0100
0000
0010
0100
0000
0010
,
010M
0000
1000
0001
0000
0100
0001
0000
0010
0100
0000
0010
,
0001
0000
1000
0010
0000
0100
0001
0000
1000
0100
0000
1000
,
0010
0000
0100
0001
0000
0010
0100
0000
1000
0010
0000
0100
,
0010
0000
1000
0001
0000
1000
0010
0000
1000
0010
0000
1000
,
0M10
0000
0100
0001
0000
1000
0001
0000
0010
M100
0000
0010
,
0001
0000
1000
0010
0000
0100
00M1
0000
1000
0100
0000
0010
,
0M01
0000
1000
0001
0000
0100
0010
0000
1000
010M
0000
0010
,
0001
0000
1000
0001
0000
0100
00M1
0000
1000
0100
0000
0010
,
0M01
0000
1000
0010
0000
1000
00M1
0000
1000
0M01
0000
0010
,
0100
0000
1000
001M
0000
1000
0M10
0000
1000
0001
0000
0010
,
M100
0000
0010
010M
0000
1000
0010
0000
0100
M001
0000
0100
,
0010
0000
1000
010M
0000
0010
0M01
0000
10M0
0M01
0000
10M0
,
0M01
0000
0000
0000
0000
0000
0000
0000
0000
0000
0000
0000
0000
0000
0000
0000
0000
0000
0000
0000
0000
0000
0000
0000
0000
0000
0000
0000
0000
0000
0000
0000
0000
0000
0000
0000
0000
0000
0000
0000
0000
0000
0000
0000
0000
0000
0000
0000
0000
0000
0000
0000
0000
0000
0000
0000
0000
0000
0000
0000
0000
0000
0000
0000
0000
0000
0000
0000
0000
0000
0000
0000
0000
0000
0000
0000
0000
0000
0000
0000
0000
0000
0000
0000
0000
0000
0000
0000
0000
0000
0000
0000
0000
0000
0000
0000
1000
0000
0000
0000
0000
0000
0100
0000
0000
0000
0000
0000
0010
0000
0000
0000
0000
0000
0000
0000
0000
0000
0000
0000
0001
0000
0000
0000
0000
0000
0000
0000
1000
0000
0000
0000
0000
0000
0000
0000
0001
0000
0000
0000
0000
0000
0000
0000
0100
0000
0000
0000
0000
0000
0000
0000
0000
0000
0000
0000
0010
0000
0000
0000
0000
0000
0000
0000
0000
0000
0000
0000
1000
0000
0000
0000
0000
0000
0000
0000
0100
0000
0000
0000
0000
0000
0000
0000
1000
0000
0000
0000
0000
0000
0000
0000
,
0001
0000
0010
0001
0000
1000
0001
0000
0100
0010
0000
0100
,
0001
0000
1000
0001
0000
0010
0001
0000
1000
0010
0010
0001
,
0100
0000
0010
1000
0000
0001
0010
0000
0100
1000
0000
0001
,
0100
0000
0010
1000
0000
0001
0100
0100
1000
0001
0010
0100
,
1000
0000
0010
0100
0000
0010
1000
0000
0001
0010
0000
0001
,
0100
0000
0010
1000
0000
0001
0010
0000
0100
0010
0010
1000
,
0001
0000
1000
0010
0000
1000
0100
0000
0010
0001
0000
1000
,
0010
0000
0000
0000
0100
0000
0001
0000
0000
0000
1000
0000
0200
0000
0000
0000
0000
0000
0000
0000
0000
0300
0000
0000
,
1000
0010
0100
0001
0010
0100
0010
0001
1000
0010
0100
0001
,
1000
0100
1000
0001
0100
0010
1000
0001
0010
0100
0010
0001
,
1000
0010
0100
0001
1000
0100
1000
0010
0100
0010
1000
0001
,
0010
0100
1000
0010
0100
0001
0100
0100
1000
0001
0100
0010
,
0100
0001
1000
0100
0010
0001
0010
0100
1000
0010
0100
0010
,
1000
0001
1000
0100
0010
0001
0100
0010
1000
0001
0010
0001
,
0100
0010
0100
0001
1000
0100
0010
0100
1000
0001
0100
0010
,
1000
0000
0002
0000
0023
0000
0130
0000
1000
0010
0100
0001
2000
0000
3000
0000
,
10M1
0001
0010
0010
0100
0100
1000
1000
,
0010
0010
0100
0100
0001
0001
1000
0001
,
0010
0100
1000
1000
0010
0010
0100
0100
,
0001
0001
0010
0010
0100
1000
0100
1000
,
00M1
0100
0010
0010
1000
1000
0001
0001
,
0010
0010
0001
0001
0100
0100
0010
1000
,
0100
0010
0001
0001
1000
1000
0010
0010
,
1000
1000
0100
0100
0010
0001
0010
0001
,
1M00
0010
0100
0001
10M0
0100
0010
0001
,
M010
0100
1000
0010
010M
0010
1000
0001
,
01M0
0001
1000
0100
M010
0001
1000
0010
,
1M00
0001
0010
0100
10M0
0001
1000
0001
,
01M1
M110
101M
1M01
,
M011
0000
011M
0000
11M0
0000
1M01
0001
,
1000
0001
0100
0010
1000
0001
0010
0100
,
0010
0000
0001
0000
1000
0000
0010
0000
0100
0000
0001
0000
1000
0100
0010
0001
,
1MM0
0000
0000
0000
,
0000
0000
0000
0000
,
0001
0100
0010
1000
0001
0010
0001
1000
0010
0100
0001
0100
0010
1000
0100
0010
,
0001
1000
0010
1000
0001
0010
0100
1000
0001
1000
0010
0100
0001
1000
0100
0010
,
0001
1000
0010
1000
0001
0010
0100
0010
0001
1000
0010
0100
0001
0010
0001
0100
,
0010
1000
0001
0100
0001
1000
0100
0010
0001
1000
0010
1000
0001
0010
0001
1000
,
0001
0100
0010
1000
0001
0010
0001
1000
0010
0100
0001
1000
0010
1000
0100
0010
,
0001
0010
0100
1000
0001
0010
0001
1000
0010
0100
0001
1000
0100
0010
0001
1000
,
0010
0100
0010
1000
0001
0010
0001
1000
0010
1000
0100
0010
0001
0100
0001
0010
,
0100
1000
0001
0010
0001
1000
0010
0100
0001
1000
0010
1000
0001
0010
0100
0010
,
0001
1000
0010
1000
0100
0010
0001
1000
0010
1000
0100
0010
0001
1000
0010
1000
,
0100
0010
0001
1000
0010
1000
0100
0010
0001
1000
0010
0100
0001
1000
0100
1000
,
0001
0100
0001
0010
0100
1000
0001
0100
0001
0010
0100
1000
0001
0100
0001
0010
,
0100
1000
0001
0100
0001
0010
0100
1000
0001
0100
0001
1000
0010
1000
0001
0010
,
0001
0100
0010
1000
0100
1000
0001
0100
0010
1000
0100
1000
0001
0100
0010
1000
,
0100
1000
0001
0100
0010
1000
0100
1000
0001
0100
0001
1000
0100
0010
0001
1000
,
0010
0100
0001
0010
0001
1000
0010
0100
0001
0010
0001
1000
0010
0100
0001
0010
,
0001
1000
0100
1000
0001
0100
0010
1000
0001
0010
0100
1000
0010
0100
0001
0000
,
1000
0010
0100
0001
1000
0010
1000
0001
0010
0100
1000
0001
0100
0010
0100
0001
,
1000
0001
0010
0100
1000
0001
0010
0001
1000
0010
0100
0001
1000
0100
0010
0001
,
1000
0010
1000
0001
0100
0010
1000
0100
0010
0001
1000
0010
1000
0100
0010
0001
,
0100
0010
1000
0001
0100
0001
1000
0100
0010
0001
1000
0100
1000
0001
0100
0001
,
0010
0100
1000
0001
0010
0001
0100
0010
1000
0001
0100
0010
0100
0001
1000
0100
,
0010
0001
1000
0100
1000
0001
0100
0010
1000
0010
0100
0001
1000
0100
0010
0001
,
1000
0010
1000
0001
0100
0010
1000
0001
0010
0001
1000
0100
1000
0010
0100
0001
,
0010
0100
0010
0001
1000
0100
0010
0100
1000
0010
0100
0001
1000
0001
0100
0010
,
1000
0100
0010
0001
1000
0100
1000
0001
0100
0010
0100
0001
1000
0100
0010
0001
,
1000
0001
0100
0010
0100
0001
1000
0100
1000
0001
0100
0010
1000
0001
0010
0100
,
1000
0001
0100
0010
0100
0001
1000
0100
1000
0001
0100
0001
0010
0100
1000
0001
,
1000
0010
0100
0001
1000
0100
1000
0001
0100
0001
1000
0010
1000
0001
0010
0100
,
1000
0010
0100
0001
1000
0100
1000
0010
0100
0010
1000
0001
0010
0001
1000
0100
,
1000
0001
0100
0010
0100
0001
1000
0100
1000
0001
0100
0010
1000
0001
0010
0100
,
1000
0001
1000
0010
0100
0001
1000
0100
1000
0001
0100
0001
1000
0010
1000
0001
,
1000
0000
0000
0000
0000
0000
0000
0000
0000
0000
0000
0000
0000
0000
0000
0000
0100
0000
0000
0000
0000
0000
0000
0000
0000
0000
0000
0000
0000
0000
0000
0000
0010
0000
0000
0000
0000
0000
0000
0000
0000
0000
0000
0000
0000
0000
0000
0000
0001
0000
0000
0000
0000
0000
0000
0000
0000
0000
0000
0000
0000
0000
0000
0000
0010
0000
0000
0000
0000
0000
0000
0000
0000
0000
0000
0000
0000
0000
0000
0000
0100
0000
0000
0000
0000
0000
0000
0000
0000
0000
0000
0000
0000
0000
0000
0000
1000
0000
0000
0000
0000
0000
0000
0000
0000
0000
0000
0001
0000
0000
0000
0000
0000
0000
0000
0000
0000
0010
0000
0000
0000
0000
0000
0000
0000
0000
0000
0000
0001
0000
0000
0000
0000
0000
0000
0000
0000
0000
0000
1000
0000
0000
0000
0000
0000
0000
0000
0000
0000
0100
0000
0000
0000
0000
0000
0000
0000
0000
0000
0000
1000
0000
0000
0000
0000
0000
0000
0000
0000
0000
0000
0001
0000
0000
0000
0000
0000
0000
0000
0000
0000
1000
0000
0000
0000
0000
0000
0000
0000
0000
0000
0000
,
0010
0000
0000
0000
,
0000
0000
0000
0000
,
2002
0000
0000
0000
0000
3003
0000
0000
0000
0000
0000
0000
0000
0000
0000
0000
;
