#TITLE:Let Us Dance in the Dark Phantom Forest;
#SUBTITLE:(OC Remix);
#ARTIST:Star Salzman;
#TITLETRANSLIT:;
#SUBTITLETRANSLIT:;
#ARTISTTRANSLIT:;
#CREDIT:;
#BANNER:banner.jpg;
#BACKGROUND:background.jpg;
#LYRICSPATH:;
#CDTITLE:cdtitle.png;
#MUSIC:Final_Fantasy_6_LetUsDanceInTheDarkPhantomPhorest_OC_ReMix.mp3;
#OFFSET:0.000;
#SAMPLESTART:47.123;
#SAMPLELENGTH:12.000;
#SELECTABLE:YES;
#BPMS:0.000=130.000;
#STOPS:;
#BGCHANGES:;
// cache tags:
#FIRSTBEAT:9.000;
#LASTBEAT:381.500;
#SONGFILENAME:Songs/new cc/Let Us Dance in the Dark Phantom Forest/phantomforest.sm;
#HASMUSIC:1;
#HASBANNER:1;
#MUSICLENGTH:177.266;
// end cache tags

//---------------dance-single - Copied from----------------
#NOTES:
     dance-single:
     Copied from:
     Hard:
     7:
     0.450,0.457,0.169,0.045,0.000,520.000,30.000,8.000,0.000,0.000:
0000
0000
0000
0000
,
0000
0000
0000
0000
,
0000
0000
1000
0001
1000
0000
0010
0100
,
0010
1000
0001
0000
1000
0001
2000
0000
,
0001
0001
0001
0000
0001
0000
0001
0001
,
0001
0000
3002
0000
1000
1000
1000
0000
,
1000
0000
1000
1000
1000
0003
0020
0100
,
0100
0030
0001
1000
0001
1000
0001
0000
,
1000
0001
1000
0001
1000
0000
0001
1000
,
0001
1000
0001
1000
0001
1000
0010
0100
,
0010
0100
0010
0100
0001
0010
0001
0010
,
0001
0010
1000
0000
1000
0010
1000
0010
,
1000
0010
1000
0010
0000
0010
0020
0000
,
1000
0000
0000
1000
1000
0000
1000
0000
,
1000
0000
1000
0000
1000
0000
0000
1000
,
1000
1000
1000
2030
,
0001
0000
0000
0001
0001
0000
0001
0000
,
0000
0001
0001
0000
0001
0000
0001
0000
,
0001
0000
0001
0000
0000
0001
0001
0000
,
0000
0000
3000
0000
1000
0001
0010
0000
,
1000
0100
0001
0010
1000
0000
1000
0001
,
1000
0010
1000
0000
1000
0010
1000
0010
,
1000
0000
1000
0001
0100
0001
0010
0000
,
1000
0010
1000
0100
0010
0000
0001
0010
,
0100
0001
0010
0000
0001
0010
1000
0010
,
0001
1000
0001
0100
0001
1000
0010
0000
,
0001
0100
0010
1000
0100
0000
0001
0010
,
0100
0010
0001
0000
0001
0010
0001
0010
,
0100
1000
0100
0010
0001
0100
1000
0000
,
1000
0010
0100
0001
0010
0000
1000
0100
,
0010
1000
0100
0000
0001
0010
0100
0001
,
0010
0000
1000
0010
1000
0000
0001
0000
,
1000
0000
0100
1000
0010
0000
0001
0010
,
0100
1001
0110
1001
,
1100
0000
0001
1000
0001
0000
0100
0000
,
1001
0010
0110
1000
,
0010
1000
0010
0000
0001
0000
0100
0000
,
1000
0000
0100
0000
0001
0100
1000
0000
,
0010
0001
0010
0100
1000
0000
1000
0010
,
0100
0001
0010
0000
1000
0010
0100
0001
,
0010
0000
1000
0010
1000
0010
0100
0000
,
0001
0100
1000
0010
0100
0000
0001
0010
,
1000
0100
0001
0000
0001
0010
0100
0010
,
1000
0000
1000
0100
0001
0100
0010
1000
,
0010
0100
0001
0010
1000
0010
0100
0001
,
0010
0001
0010
1000
0100
0001
0010
1000
,
0100
0000
0001
0010
1000
0100
0010
0000
,
0001
0010
1000
0010
1000
0000
1000
0001
,
1000
0100
0010
0000
1000
0010
0100
0001
,
0010
0000
0001
0010
1000
0001
0010
0100
,
1000
0010
0001
0100
0010
1000
0010
0100
,
0001
0010
0001
0000
1000
0010
0100
0010
,
1000
1000
0002
0000
,
1000
1000
1000
1000
,
1000
1000
1000
1000
,
1000
1000
1000
0000
1000
0000
1000
0000
,
1000
0000
1000
1000
1000
0000
1000
0000
,
1000
0000
0000
0000
0000
0000
0000
0000
0000
0000
0000
0000
0000
0000
0000
0000
0000
0000
0000
0000
0000
0000
0000
0000
0000
0000
0000
0000
0000
0000
0000
0000
0000
0000
0000
0000
0000
0000
0000
0000
0000
0000
0000
0000
0000
0000
0000
0000
1000
0000
0000
0000
0000
0000
0000
0000
0000
0000
0000
0000
0000
0000
0000
0000
0000
0000
0000
0000
0000
0000
0000
0000
0000
0003
0000
0000
0000
0000
0000
0000
0000
0000
0000
0000
0000
0000
0000
0000
0000
0000
0000
0000
0000
0000
0000
0000
0001
0000
0000
0000
0000
0000
0000
0000
0000
0000
0000
0000
0000
0000
0000
0000
0000
0000
0000
0000
0000
0000
0000
0000
0000
0000
0000
0000
0000
0000
0000
0000
0000
0000
0000
0000
0000
0000
0000
0000
0000
0000
0000
0000
0000
0000
0000
0000
1000
0000
0000
0000
0000
0000
0000
0000
0000
0000
0000
0000
0000
0000
0000
0000
0000
0000
0000
0000
0000
0000
0000
0000
0000
0000
0000
0000
0000
0000
0000
0000
0000
0000
0000
0000
0000
0000
0000
0000
0000
0000
0000
0000
0000
0000
0000
0000
,
0001
0000
1000
0000
0010
1000
0001
0000
,
0010
0000
0001
0010
1000
0000
0100
0001
,
0010
1000
0100
0000
0001
0010
1000
0001
,
0010
0000
1000
0001
0010
0100
1000
0000
,
0001
0010
1000
0100
0001
0000
0001
0010
,
1000
0100
0001
0000
0001
0100
1000
0010
,
0001
0000
0100
0010
1001
0000
0011
0000
,
1010
0101
1010
0100
,
0110
0001
1010
0001
,
0010
1000
1100
0010
,
1000
0000
0001
0010
1000
0000
0100
0000
,
0001
0010
1000
0000
0010
0000
0100
0000
,
0001
1000
1010
0100
,
0001
0011
1000
0100
,
0110
0001
1000
0110
,
0001
1000
1010
0011
,
0100
0110
1001
0110
,
0011
1010
0100
0001
,
0010
0000
1000
0001
1000
0000
0100
0000
,
0001
0000
1000
0001
1000
0000
0001
0000
,
0110
1001
0110
0011
,
1010
0000
0100
0000
0010
0001
0010
0000
,
1000
0100
0010
0001
1000
0010
0100
0001
,
0010
1000
0010
0000
0100
0001
0010
0001
,
0010
0000
0010
1000
0100
0010
0001
0000
,
0001
0010
1000
0010
0100
0000
0010
0001
,
0001
0001
0001
0000
1000
1000
1000
1000
,
1000
0000
0100
0100
0100
0100
0100
0000
,
0010
0010
0010
0010
0010
0000
0010
1000
,
0001
0100
0010
0001
1000
0010
0100
0001
,
1000
0010
0100
0001
1000
0010
1000
0001
,
0100
0010
1000
0100
0001
0010
1000
0100
,
0001
0010
1000
0000
0001
0000
1000
0000
,
0100
0010
0002
0000
,
0000
0000
0000
0000
,
2000
0000
0000
0000
,
0000
0000
0000
0000
,
0000
0000
3000
0003
0000
0000
0000
0000
;
