#TITLE:Holy Orders;
#SUBTITLE:;
#ARTIST:S.S.H.;
#TITLETRANSLIT:;
#SUBTITLETRANSLIT:;
#ARTISTTRANSLIT:;
#CREDIT:DukAmok;
#BANNER:Holy_Orders.png;
#BACKGROUND:Holy_Orders-bg.png;
#LYRICSPATH:;
#CDTITLE:!duktitle.png;
#MUSIC:Holy_Orders.mp3;
#OFFSET:-0.240;
#SAMPLESTART:5.260;
#SAMPLELENGTH:12.000;
#SELECTABLE:YES;
#BPMS:0.000=136.020;
#STOPS:;
#BGCHANGES:;
// cache tags:
#FIRSTBEAT:16.000;
#LASTBEAT:558.250;
#SONGFILENAME:Songs/Community Keyboard Megapack - Volume 1/(DukAmok) Holy Orders v2/Holy_Orders.sm;
#HASMUSIC:1;
#HASBANNER:1;
#MUSICLENGTH:260.712;
// end cache tags

//---------------dance-single - Heavy----------------
#NOTES:
     dance-single:
     Heavy:
     Hard:
     11:
     1.000,1.000,0.798,0.288,1.000,1770.000,208.000,75.000,0.000,0.000:
0000
0000
0000
0000
,
0000
0000
0000
0000
,
0000
0000
0000
0000
,
0000
0000
0000
0000
,
1000
0100
0010
0001
0100
0010
1000
0010
0100
0001
0010
0100
1000
0100
0010
0001
,
0100
0010
1000
0100
1000
0001
1000
0010
0100
0001
0010
0100
0010
0100
1000
0001
,
0010
0001
1000
0010
0100
0001
0100
0010
1000
0100
0010
0100
1000
0001
0010
0100
,
0010
0001
0010
0100
0010
0001
0010
0001
0100
0010
1000
0100
0010
0001
0100
0001
,
2000
0000
0000
0000
0000
0000
0000
0000
3100
0000
0010
0000
0001
0010
0100
1000
,
0100
0010
0001
0010
0100
1000
0100
0010
0001
0010
0100
1000
0100
0010
0001
0100
0010
1000
0010
0100
0001
0100
0010
1000
,
0100
0010
0001
1000
0100
0010
0001
1000
0100
0010
0100
1000
0010
0100
0001
1000
0010
0100
0001
1000
0010
0100
0001
0010
,
0100
1000
0100
0010
0100
0010
0001
0010
0001
0100
0001
0100
0010
0100
0010
1000
0010
1000
0001
1000
0001
0100
0001
0100
,
0020
0000
0000
0000
0100
0000
0000
0000
1000
0000
0000
0000
0130
0001
0010
0100
,
2000
0000
0000
0000
0100
0000
0000
0000
3010
0100
0100
0001
0010
0010
0100
1000
,
1100
0000
0000
0110
0000
0000
0011
0001
0101
0000
0000
0110
0000
0000
0101
0100
,
0110
0000
0000
1010
0000
0000
1100
0000
0110
0000
0000
0011
0000
0000
0101
0000
,
0110
0000
0000
1001
0000
0000
1100
0100
0110
0000
0000
1001
0000
0000
0101
0001
,
1001
0000
0000
1100
0000
0000
0110
0000
0011
0000
1010
0000
0101
0001
1000
0100
,
0110
0000
0000
1010
0000
0000
0110
0100
1100
0000
0000
1010
0000
0000
1100
1000
,
1010
0000
0000
0011
0000
0000
1001
0000
1010
0000
0000
0110
0000
0000
1100
0000
,
1010
0000
0000
0101
0000
0000
1001
1000
1010
0000
0000
0101
0000
0000
1100
0100
,
0101
0000
0000
1001
0000
0000
1010
0000
0110
0000
0011
0000
2100
0000
0000
0000
,
3020
0000
1000
0000
1000
0000
1000
0000
0130
0001
0100
0010
1000
0100
0010
0100
,
2000
0000
0000
0000
3100
0010
0100
0010
0001
1000
0100
1000
0010
1000
0010
0100
,
0001
0010
0100
0010
0001
0010
0100
1000
0010
0100
0001
0100
0010
0100
0010
1000
,
0100
0010
0001
0010
0100
0010
0001
1000
0010
1000
0100
1000
0001
0010
0100
0010
,
0001
0100
0010
1000
0100
1000
0001
1000
0010
0100
0001
0100
0010
0100
0001
0010
,
0100
1000
0010
0100
0001
0010
0100
1000
0001
0010
0100
0010
0001
1000
0010
0100
,
0001
0010
0100
1000
0010
0100
0001
0010
0100
1000
0100
0010
0001
0010
0001
0100
,
0001
0100
0010
0100
0010
1000
0010
1000
0100
1000
0100
0010
0001
0010
0100
0010
,
0001
1000
0010
0100
0001
0010
0100
0010
0100
1000
0001
1000
0001
0100
0010
0100
,
0001
0010
0100
1000
0010
0100
0010
1000
0100
0000
0110
0000
0010
0011
0000
0001
,
0011
0000
0001
0101
0000
0100
0110
0000
0100
0010
1010
0000
1000
1001
0000
0001
,
0011
0000
0010
0110
0000
0100
1100
0000
1001
0001
1001
0000
1000
1010
0000
0100
,
0110
0000
0100
0101
0000
0001
0011
0000
0110
0000
0000
0011
0000
0000
0101
0000
,
1010
0100
0001
0010
0100
1000
0001
0010
0110
0000
0010
0011
0000
0001
1001
0000
,
1100
0000
1000
1100
0000
0010
1010
0000
0110
0000
0100
0101
0000
0001
1001
0000
,
1100
0100
0010
0011
0000
1000
1010
0000
0100
0001
0010
0110
0000
0100
1100
0000
,
1001
0000
0001
0101
0000
0100
0110
0000
0101
0000
0000
0110
0000
0000
1100
0000
,
1001
1000
0001
0010
0100
0010
0001
1000
0010
0000
1010
0000
0001
0001
0011
0000
,
0010
0000
0100
1100
0000
0100
0110
0000
0010
0000
0011
0000
0001
0100
0110
0000
,
0100
0010
1010
1000
0000
1000
1100
0000
0001
0000
0101
0000
0100
0010
0110
0000
,
1000
0001
1001
1000
0000
0100
0110
0000
0001
0010
0100
1000
0001
0010
0100
1000
,
0100
0010
0001
1000
0100
0010
0001
0100
0001
0000
0101
0000
1000
1000
1100
0000
,
0100
0000
0010
0011
0000
0010
0110
0000
0100
0000
1100
0000
1000
0010
0110
0000
,
0010
0100
0101
0001
0000
0001
0011
0000
1000
0000
1010
0000
0010
0100
0110
0000
,
0001
1000
1001
0001
0000
0010
0110
0000
2000
0000
0001
0000
3200
0000
1000
0000
,
0301
0000
1000
0000
0010
0000
0100
0000
0001
0000
0010
0000
0100
0000
1000
0000
0001
0000
0010
0000
0001
0000
1000
0000
0010
0000
0000
0000
0000
0000
0100
0000
0000
0001
0000
0000
0100
0000
0000
0010
0000
0000
0100
0000
0000
0001
0000
0000
,
0011
0000
0010
0100
1000
0100
0010
0100
1001
0000
1000
0001
0100
0001
1000
0001
,
0011
0000
0001
1000
0010
1000
0100
1000
1100
0000
0100
0010
0001
0010
0100
0010
,
1001
0000
0100
0010
1000
0100
0010
0001
1100
0000
0010
0001
0100
0001
1000
0010
,
0110
0000
0100
0101
0000
0001
0011
0000
1001
0000
0010
1000
0010
0100
0010
1000
,
1100
0000
0100
0010
0001
0010
0100
0010
1001
0000
0001
1000
0010
1000
0001
1000
,
1100
0000
1000
0001
0100
0001
0010
0001
0011
0000
0010
0100
1000
0100
0010
0100
,
1001
0000
0010
0100
0001
0010
0100
1000
0011
0001
0100
0000
0010
1000
1010
0000
,
1000
0000
0000
0000
0000
0000
0000
0000
0100
0000
0000
0000
0000
0000
0000
0000
0010
0000
0000
0000
0000
0000
0000
0000
0001
0000
0000
0000
0000
0000
0000
0000
0010
0000
0000
0000
0000
0000
0000
0000
0100
0000
0000
0000
0000
0000
0000
0000
1000
0000
0000
0000
0000
0000
0001
0000
0000
0000
0000
0000
1000
0000
0000
0000
0000
0000
0001
0000
0000
0000
0000
0000
1000
0000
0000
0000
0000
0000
0000
0000
0000
0000
0000
0000
0000
0000
0000
0000
0000
0000
0000
0000
0000
0000
0000
0000
1000
0000
0000
0000
0000
0000
0000
0000
0000
0000
0000
0000
0100
0000
0000
0000
0000
0000
0000
0000
0000
0000
0000
0000
0010
0000
0000
0000
0000
0000
0000
0000
0000
0000
0000
0000
0100
0000
0000
0000
0000
0000
0000
0000
0000
0000
0000
0000
1000
0000
0000
0000
0000
0000
0000
0000
0000
0000
0000
0000
0001
0000
0000
0000
0000
0000
0000
0000
0000
0000
0000
0000
0010
0000
0000
0000
0000
0000
0000
0000
0000
0000
0000
0000
0001
0000
0000
0000
0000
0000
0000
0000
0000
0000
0000
0000
,
0100
0001
0100
0010
1000
0100
0010
0100
1000
0000
0100
1000
0010
0100
0001
0100
,
0010
0100
0010
1000
0100
0010
0001
0010
0100
0010
0001
1000
0010
1000
0100
1000
,
0001
0010
0100
0010
0001
0100
0010
1000
0100
1000
1000
0010
0100
0100
0001
0100
,
0010
1000
0001
0010
0100
1000
0010
1000
0200
0000
0000
0000
0000
0000
0000
0000
,
0320
0000
0000
0000
0000
0000
0000
0000
0031
1000
1000
0010
0100
0100
0001
0010
,
0100
1000
0010
1000
0001
1000
0010
0100
0002
0000
0000
0000
0000
0000
0000
0000
,
0203
0000
0000
0000
0320
0000
0000
0000
1030
0100
0100
0010
0001
0001
0100
0010
,
0010
1000
0100
0100
0020
0000
0000
0000
0031
0000
0000
1000
0000
0000
0010
0000
,
0100
0000
0000
0001
0000
0000
0100
0000
0010
1000
0100
0010
0001
0100
0010
1000
,
0100
0010
0000
0000
0001
0000
0100
0000
0020
0000
0000
0000
0000
0000
0000
0000
,
1030
0000
0000
0100
0000
0000
0010
0000
0002
0000
0000
0000
0000
0000
0000
0000
,
0023
0230
0320
0000
,
0031
1000
0010
0100
0001
0010
0100
0010
0002
1000
0000
1000
0003
1000
0000
0010
,
0200
0000
0000
0000
0000
0000
0301
0000
0010
0100
1000
0100
0001
0100
0010
0001
,
0100
0010
1000
0100
0010
0001
0010
0100
0010
0001
0001
0100
0010
0010
1000
0100
,
0010
0000
0001
1000
0000
0001
0010
0000
0100
0010
0000
0001
1000
0010
0100
0001
,
0010
0001
0100
0010
0000
1000
0010
0000
1000
0100
1000
0001
1000
0010
1000
0010
,
0100
0001
0010
0100
1000
0010
0100
0010
1000
0100
0010
0001
0010
0100
1000
0001
,
0100
0010
1000
0010
0100
0001
0010
0100
0010
0001
0010
0100
1000
0010
0100
0001
,
0020
0000
0000
0000
0200
0000
0000
0030
2000
0000
0000
0300
0002
0000
0000
3000
,
0200
0000
0000
0003
0020
0000
0000
0300
1030
0100
0010
0001
0010
0100
1000
0010
,
0100
0001
0100
0010
1000
0010
0100
0001
0100
0010
1000
0010
0100
0010
1000
0100
0010
0001
0010
0100
1000
0001
0010
0100
,
1000
0100
0010
0001
0010
0100
0010
0100
1000
0100
1000
0010
0100
0010
0100
0001
0100
0001
0010
0001
0010
0100
1000
0001
,
0010
0000
0110
0000
0010
0011
0000
0001
0011
0000
0001
0101
0000
0100
0110
0000
,
0010
1000
1001
0000
0001
0101
0000
0010
0022
0000
0033
0000
0000
0001
0100
0010
,
1000
0100
0010
0001
0010
0100
1000
0100
0010
0001
0010
0100
1000
0010
0100
0001
0010
0100
1000
0010
0100
0001
0010
0100
,
1000
0010
0100
0001
0100
0010
1000
0010
0100
0001
0100
0010
1000
0100
0010
0100
0010
0001
0100
0010
1000
0010
0100
0001
,
0020
0000
0230
0000
2300
0000
3020
0000
0230
0000
0302
0000
,
0023
0000
0230
0000
0310
0001
0200
0000
0000
0300
0000
0000
,
0010
1000
0100
0010
0001
0100
0010
0100
0001
0010
0100
1000
0010
0100
0001
0010
,
0001
1000
0100
1000
0001
0100
0010
1000
0001
1000
0010
1000
0001
0010
0100
0010
,
0001
0010
0100
0010
0001
0100
0010
1000
0100
0010
0100
1000
0010
0100
0001
0010
,
0100
1000
0001
0010
0001
1000
0100
1000
0001
0010
0001
0100
0010
1000
0010
0100
,
0001
0000
0000
0001
0000
0000
0100
0000
0010
1000
0010
0100
0001
0010
0100
1000
,
0001
0000
0101
0000
0100
0010
1010
0000
1000
0000
1000
0100
0000
0100
0110
0000
,
0001
0000
1100
0000
0100
0010
0110
0000
0001
0100
0010
1010
0000
1000
1100
0000
,
0100
0000
0110
0000
0010
0001
1001
0000
1000
0010
0110
0100
0000
0001
0101
0000
,
1000
0100
0010
0001
1000
0100
0010
0001
0010
0100
1000
0001
0010
0100
1000
0001
,
1000
0000
1010
0000
0010
0100
0101
0000
0001
0000
0001
0010
0000
0010
0110
0000
,
1000
0000
0011
0000
0010
0100
0110
0000
1000
0010
0100
0101
0000
0001
0011
0000
,
0020
0000
0000
0230
0000
0000
2300
0000
3020
0000
0230
0000
0302
0000
2003
0000
,
3001
0000
0000
1000
0000
0000
0001
0000
0000
1000
0000
0000
0001
0000
0000
1000
0000
0000
0100
0000
0000
0010
0000
0000
0001
0000
0010
0000
0100
0000
1000
0000
0100
0000
0010
0000
0001
0000
0100
0000
0010
0000
1000
0000
0100
0000
0010
0000
,
0001
0000
0010
0001
0100
0010
1000
0100
1100
0000
0100
0010
0001
0010
0100
0010
,
1001
0000
0001
1000
0010
1000
0001
1000
1100
0000
1000
0001
0100
0001
0010
0001
,
0011
0000
0010
0100
1000
0100
0010
0100
1001
0000
0010
0100
0001
0010
0100
1000
,
0011
0000
0100
1000
0010
1000
0001
0100
0110
0000
0010
1010
0000
1000
1100
0000
,
1001
0000
0100
0001
0100
0010
0100
0001
0011
0000
0010
0100
1000
0100
0010
0100
,
1001
0000
1000
0001
0100
0001
1000
0001
0011
0000
0001
1000
0010
1000
0100
1000
,
1100
0000
0100
0010
0001
0010
0100
0010
1001
0000
0100
0010
1000
0100
0010
0001
,
1100
0000
0000
1000
0000
0000
0010
0000
0000
0000
0000
0000
0100
0000
0000
0001
0000
0000
0101
0000
0000
0000
0000
0000
0001
0000
0100
0000
0010
0000
1000
0000
0001
0000
0100
0000
0010
0000
1000
0000
0010
0000
0100
0000
0001
0000
1000
0000
,
0010
0100
0001
0010
0100
1000
0100
0010
0001
0100
0010
1000
0010
0100
0001
0010
,
0100
1000
0100
0010
0001
0010
0100
0010
0100
1000
0001
1000
0010
0100
0010
0100
0001
0010
0100
0010
0100
0010
0001
0100
,
0010
0000
0000
0000
0000
0000
1000
0000
0000
0100
0000
0000
0110
0000
0000
0010
0000
0000
0001
0000
0000
1000
0000
0000
0010
0000
0100
0000
0001
0000
0010
0000
0100
0000
1000
0000
0001
0000
1000
0000
0100
0000
0010
0000
0001
0000
1000
0000
,
0010
0100
0001
0100
0010
1000
0001
1000
0100
0010
0001
1000
0100
1000
0010
0100
,
0002
0000
0000
0000
0000
0000
1003
0100
0010
0100
0010
0001
1000
0010
0100
0010
0100
0001
0010
0100
1000
0010
0100
0010
,
0100
0001
1000
0100
0010
0001
0010
0001
1000
0100
0010
0001
0010
0100
1000
0001
0100
0010
1000
0100
0010
0001
0100
0010
,
0100
0000
0000
0001
0000
0000
0010
0000
0000
0100
0000
0000
0000
0000
0000
1000
0000
0000
0010
0000
0000
0100
0000
0000
0001
0000
1000
0000
0100
0000
1000
0000
0001
0000
0100
0000
0001
0000
1000
0000
0010
0000
1000
0000
0001
0000
0010
0000
,
0001
0000
0000
0010
0000
0000
0100
0000
0000
1000
0000
0000
0010
0000
0000
0100
0000
0000
0010
0000
0000
1000
0000
0000
0100
0000
0000
0000
0010
0000
0000
0000
0001
0000
0000
0000
0010
0000
0000
0000
0100
0000
0000
0000
1000
0000
0000
0000
,
0001
0010
0100
1000
0010
0100
0001
0010
0100
1000
0010
0100
0010
1000
0100
0010
,
0001
1000
0100
1000
0001
0010
0001
0100
0001
0100
0010
1000
0100
0010
0001
0100
,
0010
1000
0010
0100
0001
0010
0100
1000
0100
0010
0001
1000
0010
0100
0010
0100
0001
0010
0100
0010
0100
1000
0010
0100
,
0001
0000
0010
0000
0100
0000
0010
0000
0100
0000
1000
0000
0010
0000
0100
0000
0010
0000
1000
0000
0100
0000
0010
0000
0002
0000
0000
0000
0000
0000
0000
0000
0000
0203
0000
0000
0000
0000
0000
0000
0000
0000
0320
0000
0000
0000
0000
0000
,
2030
0000
0000
0000
0000
0000
0000
0000
3000
0000
0000
0000
1000
0100
0010
0001
0020
0000
0000
0000
0000
0000
0000
0000
0032
0000
0000
0000
0000
0000
0000
0000
,
2003
0000
0000
3020
0000
0000
0230
0000
0320
0000
0000
0230
0000
0000
0302
0000
,
1003
0001
0010
0001
1000
0010
0001
0010
0100
0001
0010
1000
0010
0001
0100
0010
,
2000
0000
0000
3200
0000
0000
0320
0000
0031
1000
1000
0010
0100
0100
0001
0010
,
0100
1000
0100
0010
0000
0001
0100
0010
1010
1000
0100
0010
0000
0100
1000
0010
,
0110
0000
0100
0000
0001
0000
0010
0000
0000
0000
0001
0000
0010
0000
0100
0000
1100
0000
1000
0000
0010
0000
0100
0000
0010
1000
0010
0100
0001
0000
0010
0000
,
0011
0000
0000
0001
0000
0000
0010
0000
0000
0100
0000
0000
0000
0000
0000
1000
0000
0000
0010
0000
0000
0100
0000
0000
0101
0000
0000
0001
0000
0000
0010
0000
0000
0100
0000
0000
0000
0000
0000
0010
0000
0000
0001
0000
1000
0000
0001
0000
,
0100
0000
0010
0000
1000
0000
0100
0000
0000
0000
1000
0000
0100
0000
0010
0000
0011
0000
0001
0100
0001
0000
0100
0000
0010
0000
0100
0000
0010
0000
1000
0000
,
0110
0000
0000
0011
0000
0000
0101
0000
0110
0000
0000
1010
0000
0000
0110
0000
,
0101
0000
0000
0011
0000
0000
0010
0001
1000
0000
0000
0000
0110
0000
0000
0000
,
0101
0000
0000
0011
0000
0000
0110
0000
1001
0000
0000
0101
0000
0000
0011
0000
,
0220
0000
0000
0000
0000
0330
0022
0033
,
0101
0000
0000
0110
0000
0000
1010
0000
1001
0000
0000
0011
0000
0000
1100
0000
,
0001
1000
0100
1000
0010
1000
0001
1000
0010
1000
0100
1000
0001
1000
0010
0100
,
0002
0000
0000
0000
0003
1000
0100
0010
0001
0010
0100
1000
0010
0100
0001
0010
,
0220
0000
0330
2200
0000
3300
2020
0000
3030
0220
0000
0330
0101
0001
0010
0100
,
1000
0001
0100
0001
0010
0001
0100
0001
1000
0010
0100
0010
1000
0010
0100
0001
,
0010
0100
1000
0100
0010
0100
1000
0001
0100
0001
0010
0001
1000
0100
0010
0001
,
0100
0010
1000
0010
0100
0001
0010
0100
1000
0001
0010
0001
0100
0010
1000
0010
,
0100
0001
0010
0100
1000
0001
0010
0001
1000
0100
1000
0010
1000
0010
0100
0001
,
0100
0001
0100
0001
0000
0000
0010
0001
0010
0001
0000
0000
1000
0100
1000
0200
,
0000
0000
0000
0000
0000
0000
0000
0000
0000
0000
0000
0000
0000
0000
0000
0000
0310
0001
0100
0000
0000
0000
0000
0000
0000
0000
0000
0000
0000
0000
0000
0000
;
