#TITLE:NetsuretsuKangei Wonderland;
#SUBTITLE:Saki ED theme;
#ARTIST:Saki, Nodoka, Yuuki, Hisa, Maki;
#TITLETRANSLIT:;
#SUBTITLETRANSLIT:;
#ARTISTTRANSLIT:;
#CREDIT:ALICE_;
#BANNER:NetsuretsuKangei Wonderland.png;
#BACKGROUND:NetsuretsuKangei Wonderland.jpg;
#LYRICSPATH:;
#CDTITLE:cdtitle.png;
#MUSIC:NetsuretsuKangei Wonderland.mp3;
#OFFSET:1.195;
#SAMPLESTART:58.500;
#SAMPLELENGTH:12.000;
#SELECTABLE:YES;
#BPMS:0.000=180.000;
#STOPS:;
#BGCHANGES:3.563=NetsuretsuKangei Wonderland.avi=1.000=0=0=1,
268.000=NetsuretsuKangei Wonderland.jpg=1.000=1=0=1,
99999=-nosongbg-=1.000=0=0=0 // don't automatically add -songbackground-
;
// cache tags:
#FIRSTBEAT:5.000;
#LASTBEAT:268.000;
#SONGFILENAME:Songs/alice 4th complete step/NetsuretsuKangei Wonderland/NetsuretsuKangei Wonderland.sm;
#HASMUSIC:1;
#HASBANNER:1;
#MUSICLENGTH:88.851;
// end cache tags

//---------------dance-single - ----------------
#NOTES:
     dance-single:
     :
     Hard:
     8:
     0.670,0.641,0.484,0.214,0.000,355.000,43.000,19.000,0.000,0.000:
0000
0000
0000
0000
,
0000
0000
0000
0000
,
0000
0000
0000
0000
,
1001
0000
1000
0000
0010
0000
0100
0001
,
0000
0001
0000
1000
0001
0010
0001
0100
,
0110
1001
0110
1001
,
2100
0000
3000
0102
0000
1003
0010
0000
,
0100
0000
0000
0100
0001
0000
1000
0000
,
0010
0000
0100
0000
1001
0000
0001
0010
,
0000
0001
0100
0001
1000
0100
1000
0100
,
0110
0000
1001
0000
0010
0100
0000
1001
,
0000
0100
0010
0100
1000
0100
1000
0010
,
0000
0001
0100
0001
1000
0010
0100
0001
,
0100
0010
0100
0010
1000
0001
0010
0001
,
0000
0100
0010
1000
0001
0010
0100
0010
,
0001
1000
0100
1000
0100
1000
0010
0100
,
0000
0001
0010
0001
1000
0010
1000
0001
,
0100
0010
0100
1000
0100
0001
1000
0001
,
0000
1000
0010
1000
0001
0100
0001
0100
,
0010
0000
0000
1000
0001
0000
1000
0000
,
0100
0000
0000
1000
0001
0000
1000
0000
,
0010
0000
0000
0100
0001
0000
1000
0000
,
0010
0000
0000
0100
0001
0000
1000
0000
,
0100
0000
0000
0010
0001
0000
0100
0000
,
0010
0000
0000
1000
0100
0000
0010
0000
,
0100
0000
0000
1000
0001
0000
0100
0000
,
1000
0010
1000
0001
0010
0001
0100
0000
,
1001
0000
1001
0000
0010
0100
0010
0002
,
0000
1003
0100
0001
0100
1000
0010
0000
,
1001
0000
1001
0000
0100
0010
0100
2000
,
0000
3001
0010
1000
0010
0001
0100
0100
,
0010
0000
0000
1000
0001
0000
0100
0000
,
0101
0001
1100
1000
,
0010
0100
0010
0100
0001
0100
0001
0100
,
0010
1000
0001
1000
0100
1000
0010
1000
,
0001
0100
1000
0100
0001
0010
0001
0010
,
0100
0000
1000
0001
1000
0001
0000
0110
,
0000
1000
0100
1000
0010
0010
0000
0110
,
0000
0001
0100
0001
0010
0010
0000
2100
,
0000
3002
0203
0310
,
1000
0000
0101
0000
0001
1000
0100
0010
,
0000
0000
0100
1000
0001
0100
1000
0100
,
0002
0000
2003
0000
3002
0000
0003
0100
,
0000
0000
0010
1000
0001
0010
1000
0010
,
0001
0000
0110
1000
0001
0100
0001
1000
,
0000
0010
0100
0001
1000
1000
0000
0001
,
0000
0100
0010
1000
0001
0001
0000
2100
,
0000
3001
0102
1003
,
1010
0000
0001
0100
1000
0100
0010
2000
,
0000
3100
0010
0100
1000
1000
0000
0002
,
0000
0103
0010
0100
0001
0001
0000
2002
,
3003
0100
0010
1000
0001
0010
1000
0100
,
0001
1100
0011
0100
,
1010
0000
1000
0000
0001
0000
0010
1000
,
0000
0010
0000
0010
0001
0100
0001
1000
,
1001
0110
1001
0110
,
2100
0000
3000
0012
0000
1003
0010
0000
,
0100
0000
0000
0100
0001
0000
1000
0000
,
0010
0000
0100
0000
1001
0000
0001
0010
,
0000
0001
0100
0001
1000
0100
1000
0100
,
0110
0000
1001
0000
0010
0100
0000
1001
,
0000
0100
0001
0100
0010
1000
0010
0100
,
0000
0001
1000
0100
0010
0001
0010
0001
,
0100
1000
0100
0001
1000
0100
0010
0001
,
1100
0000
1100
0000
0101
1000
0000
0011
,
0000
0100
0020
0000
0000
0000
0000
0000
,
0000
0000
0000
0000
,
0030
0000
0000
0000
;

//---------------dance-single - ----------------
#NOTES:
     dance-single:
     :
     Challenge:
     12:
     1.000,1.000,1.000,0.878,0.011,403.000,231.000,78.000,0.000,53.000:
0000
0000
0000
0000
,
0000
2002
0000
0000
,
0000
0000
0000
0000
0000
0000
0000
0000
0000
0000
0000
0000
0000
0000
0000
3003
,
1001
0000
0000
0000
0000
0000
1100
0011
,
0000
0000
0000
0000
0000
0000
0000
0000
1001
0000
0010
0000
1001
0000
0100
0100
,
0011
0111
1101
1110
,
1010
0000
0001
1100
0000
0010
1001
0000
,
1010
0100
0001
1100
0011
1000
0101
0010
,
1010
0001
1001
0000
0110
0000
0100
2201
,
0000
0001
0001
0010
0001
0001
0010
3310
,
2002
3003
0000
0000
2202
3303
0000
0000
0011
0000
0101
0000
1000
0000
0101
0000
,
1001
0010
1001
0010
0100
0001
1100
0010
,
0000
0010
0101
1000
0010
1000
0110
1000
,
0001
0010
0101
0010
1000
0100
1001
0010
,
0000
0010
0101
0010
1100
0001
0110
1001
,
1000
0010
1001
0010
0100
0001
1010
0001
,
0000
0010
0101
1000
0010
0100
0011
1000
,
0100
0010
1100
0010
1001
0101
0010
1001
,
0100
1010
1010
0100
0001
1010
0011
0110
,
1001
0000
0000
0100
1010
0000
1100
0000
,
1001
0000
0000
0010
0101
0000
0011
0000
,
1001
0000
0000
0100
0011
0000
1100
0000
,
0110
0000
0000
1000
0101
0000
1010
0000
,
1001
0000
0000
0010
0101
0000
1100
0000
,
1001
0000
0000
0102
1010
0000
1103
0000
,
1001
0101
0010
1100
1001
0110
1000
0010
,
0001
0110
0110
0001
1100
1100
0011
0101
,
1002
0003
0002
0003
1000
0010
0100
2001
,
0000
0100
3011
2100
0010
3101
1001
1001
,
0120
0030
0120
0030
1000
0001
0010
1002
,
0000
0100
1013
0102
1100
0013
1001
1001
,
0110
0000
0000
0100
1001
0000
0010
0000
,
1210
1000
0312
0100
,
1013
0100
1001
0010
1100
1001
0101
0010
,
1100
0001
0110
1001
0100
1000
0011
0100
,
1001
1010
0011
0101
1001
1000
0110
0100
,
2002
0000
3103
0010
0100
0010
0000
2201
,
0000
3310
0101
0010
1000
0101
1100
0022
,
0000
0133
1010
0100
1000
0021
0130
2100
,
0001
0110
3011
0100
1020
0100
0101
1030
,
1002
0013
1020
0130
1010
1010
0001
0220
,
0000
0330
1001
0010
0100
1100
0101
0010
,
2100
0010
3102
0010
2103
0100
3011
0220
,
0000
1331
1010
0001
0101
1001
0110
1000
,
0012
0100
2013
0100
3012
0010
0103
1022
,
0000
0133
1010
0100
0001
1010
0011
2200
,
0000
3310
0101
0010
1002
0213
1300
0120
,
1001
0100
0131
1000
0201
0010
1010
0301
,
2001
0000
3100
0000
0201
0000
0310
0000
2002
3003
2002
3000
0103
0000
2020
0000
,
0000
3030
0011
0100
1010
1100
1001
0022
,
0000
0133
1010
0100
0011
1010
1001
2200
,
0000
3310
0101
0010
1100
0001
0110
1001
,
1200
0010
0011
1300
1002
0010
0110
1103
,
1001
0000
0000
0000
0000
0000
0101
1010
,
0000
0000
0000
0000
0000
0000
0000
0000
1001
0000
0100
0000
1001
0000
0010
0010
,
0101
1101
1110
0111
,
1001
0000
0010
0101
0000
0010
1100
0000
,
1010
0100
0001
1100
0011
1000
0101
0010
,
1010
0001
1001
0000
0110
0000
0100
2201
,
0000
3301
1001
0010
1001
1001
0010
0110
,
2002
3003
0000
0000
2202
3303
0000
0000
0101
0000
0101
0000
1000
0000
0110
0000
,
0001
0010
1010
1100
0010
0001
0110
1001
,
0100
1010
0011
0100
0001
0010
1001
0100
,
1010
0001
0011
0100
1000
0001
0110
1001
,
2020
3030
0000
0000
2220
3330
0000
0000
0101
0000
0011
0000
1000
0000
0210
0000
,
0000
0310
2002
0000
0000
0000
0000
0000
,
0000
0000
0000
0000
,
3003
0000
0000
0000
;

//---------------dance-single - ----------------
#NOTES:
     dance-single:
     :
     Medium:
     6:
     0.545,0.679,0.428,0.248,0.000,279.000,38.000,22.000,0.000,0.000:
0000
0000
0000
0000
,
0000
0000
0000
0000
,
0000
0000
0000
0000
,
1100
0000
0000
0000
0000
0000
0001
0010
,
0000
0000
0000
0000
0001
0100
0001
0100
,
0010
1000
0001
0100
,
1001
0000
0000
1001
0000
0000
0000
0000
,
1000
0000
1100
1000
,
0001
0000
0100
0000
0010
1000
0000
0001
,
0000
0100
0010
0100
0001
1000
0001
1000
,
0010
0000
1010
0000
0100
0001
0000
0010
,
0000
1100
0010
1100
,
0000
0101
0010
0101
,
0000
1001
0010
1001
,
0000
0100
1000
0010
,
0001
1010
0100
1010
,
0000
0011
0100
0011
,
0000
0000
1001
0000
0100
0010
0000
2000
,
0000
3010
0100
0010
1000
0001
1000
0001
,
0100
0000
0000
0001
1000
0000
0001
0000
,
0010
0000
0000
0001
1000
0000
0001
0000
,
0100
0000
0000
0010
1000
0000
0001
0000
,
0100
0000
0000
0010
1000
0000
0001
0000
,
0010
0000
0000
0100
1000
0000
0010
0000
,
0100
0000
0000
0001
1000
0000
0010
0000
,
0100
0001
1000
0001
,
1000
1100
0001
0101
,
2002
0000
0000
3003
0000
0100
0010
0100
,
0000
0100
0001
1000
0100
1000
0010
0000
,
2002
0000
0000
3003
0000
0010
0100
0010
,
0000
0010
0001
1000
0100
1000
0010
0010
,
1000
0100
1000
0010
,
0100
0100
0001
0010
,
0100
1000
0100
1000
0001
0100
0001
0100
,
0010
1000
0010
1000
0001
0010
0001
0010
,
0100
1000
0010
0100
0002
0000
2003
3000
,
0110
0000
1000
0100
1000
0100
0000
0020
,
0030
0000
0001
0100
0010
1000
0000
0020
,
0030
0000
1000
0100
0010
0001
0000
0012
,
0000
0003
0100
0000
1000
0000
0010
0000
,
1010
0000
0100
0001
0010
0100
0100
2000
,
3000
1100
0010
0100
,
0001
0010
1000
0010
0001
0000
0100
0002
,
0003
0101
0010
0100
,
1000
0100
0001
0100
1000
0000
0010
0200
,
0300
0000
0001
0010
0100
1000
0000
0200
,
0300
0000
1000
0010
0100
0001
0000
2100
,
0000
3000
0010
0000
0100
0000
0001
0000
,
0011
0000
0100
1000
0010
0100
0001
2000
,
0000
3000
0101
0000
0001
1000
0000
0002
,
0000
0003
1100
0000
1000
0001
0000
0210
,
0000
0300
0001
0000
1000
0100
1000
0000
,
0110
0001
1000
0100
,
0011
0000
0000
0000
0000
0000
0100
1000
,
0000
0000
0000
0000
0010
1000
0010
1000
,
0001
1000
0010
0100
,
1001
0000
0000
2002
0000
0000
3003
0000
,
1000
0000
0101
1000
,
0001
0000
0100
0000
0010
1000
0000
0001
,
0000
0010
0100
0010
0001
1000
0001
1000
,
0010
0000
1010
0000
0100
0001
0000
0010
,
0000
0100
1000
0100
,
0001
0100
0010
1000
,
0001
0010
0100
1000
,
0001
0000
0011
0000
0010
0001
0000
0100
,
0000
0010
2002
0000
0000
0000
0000
0000
,
0000
0000
0000
0000
,
3003
0000
0000
0000
;

//---------------dance-single - ----------------
#NOTES:
     dance-single:
     :
     Easy:
     4:
     0.373,0.367,0.180,0.011,0.000,215.000,16.000,1.000,0.000,0.000:
0000
0000
0000
0000
,
0000
0000
0000
0000
,
0000
0000
0000
0000
,
1000
0100
0010
0001
,
1000
0100
0010
0001
,
1000
0010
0100
0001
,
1000
0010
0100
0001
,
1000
0000
1100
0000
,
0001
0000
0101
0000
,
1000
0010
0001
0100
,
0010
0010
0010
0010
,
1000
0100
0001
0100
,
1000
0100
0001
0100
,
1000
0001
0100
0001
,
1000
0010
0100
0001
,
1000
0010
0001
0010
,
1000
0010
0001
0010
,
1000
0001
0100
0020
,
0000
0000
0000
0030
,
1000
0000
0100
1000
,
0001
0000
0100
0001
,
1000
0000
0100
1000
,
0001
0000
0100
0001
,
1000
0000
0010
0100
,
0001
0000
0010
0100
,
1000
0010
0100
0001
,
1000
0001
1000
0001
,
1001
1001
0000
0000
,
0000
0100
0010
1000
,
1001
1001
0000
0000
,
0000
0100
0001
0010
,
1000
0000
0001
0000
,
1000
0000
0100
0000
,
0001
0010
0100
1000
,
0001
0100
0010
1000
,
0001
0010
0100
1000
,
0001
0000
0000
0000
,
0001
0010
0100
1000
,
0001
0100
0010
1000
,
0001
0010
0100
1000
,
0001
0100
0010
1000
,
0001
0010
1000
0010
,
0001
0001
0001
0000
,
1000
0010
0001
0010
,
1000
1000
1000
0000
,
1000
0100
0010
0001
,
1000
0010
0100
0001
,
1000
0100
0010
0001
,
1000
0010
0100
0001
,
1000
1000
1100
0000
,
0001
0001
0101
0000
,
0010
0010
0110
1000
,
0001
0010
0100
0010
,
1001
0100
0010
1000
,
0001
0100
0010
1000
,
0001
0010
0100
1000
,
0001
0010
0100
1000
,
0001
0000
0011
0000
,
1000
0000
1010
0000
,
1000
0100
0001
0010
,
0100
0100
0100
0100
,
1000
0010
0001
0010
,
0100
0001
0010
0001
,
1000
0010
0001
0010
,
1100
1100
1100
1100
,
1000
0001
0000
0000
;
