#TITLE:Psychopathic Party Animal;
#SUBTITLE:;
#ARTIST:Dave!;
#TITLETRANSLIT:;
#SUBTITLETRANSLIT:;
#ARTISTTRANSLIT:;
#CREDIT:;
#BANNER:Psychopathic bn.png;
#BACKGROUND:Psychopathic bg.png;
#LYRICSPATH:;
#CDTITLE:;
#MUSIC:Psychopathic Party Animal.ogg;
#OFFSET:0.238;
#SAMPLESTART:27.411;
#SAMPLELENGTH:13.688;
#SELECTABLE:YES;
#BPMS:0.000=260.000;
#STOPS:;
#BGCHANGES:;
// cache tags:
#FIRSTBEAT:8.000;
#LASTBEAT:820.000;
#SONGFILENAME:Songs/SPEEEDCOOOORE 3/Psychopathic Party Animal - [Aoreo]/Psychopathic Party Animal.sm;
#HASMUSIC:1;
#HASBANNER:1;
#MUSICLENGTH:194.307;
// end cache tags

//---------------dance-single - J. Nero----------------
#NOTES:
     dance-single:
     J. Nero:
     Challenge:
     18:
     1.000,1.000,0.494,0.319,1.000,1385.000,96.000,62.000,179.000,1.000:
0000
0000
0000
0000
,
0000
0000
0000
0000
,
1001
0001
0100
0010
,
0000
0000
0010
0000
0000
0100
0001
0010
,
0100
0000
1100
0000
,
0000
1000
0001
0000
0000
0000
1000
0000
,
1100
0000
0001
0101
,
0000
0000
1001
0000
0000
1000
0100
0010
,
0100
0000
0110
0000
,
0000
0010
0001
0000
1001
0000
1000
0000
,
0110
0000
0010
0100
,
0000
0000
0101
0000
0000
0001
0010
0100
,
0010
0000
0110
0000
,
0100
1000
0001
0000
0000
0000
0001
0000
,
0101
0000
1000
1010
,
0000
0000
0110
0000
0000
0100
0001
0010
,
0100
0000
1100
0000
,
1000
0010
0100
0000
0101
0000
0001
0000
,
0011
0010
0100
1000
,
0M10
0100
0001
1000
,
1010
0010
0100
0001
,
0M10
0100
1000
1001
,
01M1
00M0
00M0
00M0
00M0
00M0
00M0
00M0
00M0
00M0
00M0
00M0
00M0
00M0
00M0
00M0
,
00M0
00M0
00M0
00M0
00M0
00M0
00M0
00M0
00M0
00M0
00M0
00M0
00M0
00M0
00M0
00M0
,
10M0
00M0
00M0
00M0
00M0
00M0
00M0
00M0
00M0
00M0
00M0
00M0
00M0
00M0
00M0
00M0
,
00M0
00M0
00M0
00M0
00M0
00M0
00M0
00M0
00MM
00M0
00M0
00M0
0MM0
0000
0M00
0000
,
0M0M
0000
0000
0000
0M00
0000
0000
0000
0M00
0000
0000
0000
0M00
0000
0000
0000
0M00
0000
0000
0000
0M00
0000
0000
0000
0M00
0000
0000
0M00
0000
0000
0M00
0000
0000
0M00
0000
0000
0M00
0000
0000
0M00
0000
0000
0M00
0000
0000
0M00
0000
0000
,
0M00
0000
0M00
0000
0M00
0000
0M00
0000
0M00
0000
0M00
0000
0M00
0000
0M00
0000
0M00
0000
0M00
0000
0000
0000
00M0
00M0
00M0
00M0
00M0
00M0
00M0
00M0
0000
0000
,
0000
0000
0M00
0M00
0M00
0M00
0M00
0M00
0000
0000
0000
0000
0000
0000
0000
0000
0000
0000
0000
0000
0000
0000
0000
0000
0000
0000
0000
0000
0000
0000
0000
0000
,
00M0
00M0
00M0
00M0
00M0
00M0
00M0
0000
0000
0000
0000
0000
0000
0000
0000
0000
0000
0000
0000
0000
0000
0000
0000
0000
0000
0000
0000
0000
0000
0000
0000
0000
,
0000
0000
0000
0000
,
0M00
0M00
0M00
0M00
0M00
0M00
0000
0000
00M0
00M0
00M0
00M0
00M0
00M0
00M0
0000
0000
0000
0000
0000
0000
0000
0000
0000
0000
0000
0000
0000
0000
0000
0000
0000
,
0M00
0M00
0M00
0M00
0M00
0M00
0M00
0M00
0M00
0M00
0M00
0M00
0M00
0M00
0M00
0M00
0M00
0M00
0M00
0M00
0M00
0M00
0M00
0M00
,
00M0
00M0
00M0
00M0
00M0
00M0
00M0
00M0
00M0
00M0
00M0
00M0
00M0
00M0
00M0
00M0
00M0
00M0
00M0
00M0
00M0
00M0
00M0
00M0
,
1000
0000
0100
0000
1000
0000
0001
0000
0100
0000
0010
0000
0100
0000
0001
1000
,
0001
0000
1000
0000
0100
0000
0010
0000
0001
0000
1000
0000
0010
1000
0010
0100
,
0001
1000
0100
4000
3010
0100
0004
0043
,
0130
1000
0001
0100
0040
0000
0430
0000
,
0301
1000
0100
1000
0001
0010
0400
0000
,
1300
0000
0010
0000
1000
0000
0001
0000
0100
0000
0001
0000
1000
0100
1000
0000
,
0001
0100
0001
1000
0010
0100
0010
1000
0001
0010
0100
1000
0001
0010
0001
1000
,
0010
1000
0001
0100
0010
0100
0001
1000
0100
0010
0001
1000
0004
0000
0000
0003
,
1000
0000
0010
0000
0100
0000
0001
1000
0100
0000
1000
0000
0001
0000
0040
0000
,
0130
0000
1000
0000
0001
0000
0100
0000
0010
0100
0001
0100
0001
1000
0100
0010
,
0001
0000
1000
0000
0100
0000
1000
0000
0001
0000
0100
0010
0100
0000
0001
1000
,
0001
1000
0010
0100
0001
0040
0130
4000
,
3001
0000
0100
0000
0010
0000
0100
0000
0001
0000
1000
0000
0100
0010
0004
0003
,
1000
0010
0100
0001
0010
0100
1000
0001
,
0100
0001
0100
0010
1000
0001
1000
0001
0010
0100
1000
0001
1000
0100
0010
0001
,
1000
0000
0000
0000
00M0
0000
0000
0000
00M0
0000
0000
0000
00M0
0000
0000
00M0
0000
0000
00M0
0000
0000
00M0
0000
0000
,
0001
0000
1000
0000
0100
0000
1000
0000
0010
0000
0100
0000
0001
0100
0001
1000
,
0100
0000
1000
0000
0010
1000
0010
0100
0001
0000
0010
0000
0100
1000
0001
1000
,
0010
0100
0001
1000
0100
1000
0004
0000
,
0013
0000
0100
0000
1000
0000
0001
0000
0100
0000
0010
0000
0100
0001
4000
3000
,
0001
0010
0100
1000
0010
0100
0004
0000
,
1003
0100
0010
0100
1000
0040
0130
0004
,
1003
0100
1000
0001
0010
0100
1000
0001
0100
0001
1000
0100
1000
0001
0010
0100
,
1000
0001
1000
0010
0100
0010
1000
0001
1000
0100
0010
0001
1000
0100
1000
0001
,
1000
0001
0010
0100
1000
0010
0100
0001
,
1000
0000
0100
0000
0010
0000
0100
0000
1000
0000
0010
0000
0100
0001
0100
0001
,
1000
0000
0010
0000
0100
0000
0001
0000
0010
0000
0100
0000
1000
0000
0010
1000
,
0001
0000
0100
0000
0001
0000
0010
0000
0100
1000
0001
0000
1000
0001
4000
0000
,
3001
0100
0001
1000
0010
0100
0001
1000
0100
1000
0001
0010
0100
1000
0001
0100
,
0001
1000
0100
0010
0001
1000
0100
1000
0001
0100
0010
0100
0001
1000
0100
0010
,
0002
0023
0230
2300
,
3040
4030
3400
0340
,
2032
0000
0000
0000
,
0000
0000
0000
0000
,
0000
0000
0000
0000
,
3003
0000
0000
0000
,
0000
0000
0000
0000
,
0000
0000
0000
0000
,
2002
0000
0000
3003
0000
0000
0000
0000
0000
0000
0000
0000
2002
0000
0000
0000
0000
3003
0000
0000
0000
0000
0000
0000
,
2002
0000
0000
0000
0000
3003
0000
0000
2002
0000
3003
0000
0001
0000
1000
0000
,
0100
1000
0001
1000
0100
0010
0001
1000
,
0100
0000
1000
0000
0001
0000
0100
0000
0010
0000
1000
0000
0010
1000
0001
0100
,
0001
1000
0001
1000
0010
0100
0001
1000
,
0001
0000
0010
0000
0100
1000
0001
1000
0001
0000
0100
0000
0001
0000
1000
0100
,
0010
0001
1000
0010
0100
0010
1000
0001
,
0100
0000
0001
0000
1000
0000
0100
0000
0010
0000
0001
0000
1000
0001
0100
0001
,
1000
0001
0010
0100
1000
0001
0100
0010
,
1000
0000
0001
0000
1000
0010
1000
0010
0200
0000
0000
0000
0000
0300
0000
0000
,
0001
0010
0001
1000
0100
0010
0100
1000
,
0001
1000
0010
0100
0001
0010
0400
0000
,
1300
0001
1000
0010
0100
0001
0010
0100
,
1000
0000
0001
0000
0100
0001
0100
0001
2000
0000
3000
0000
2000
0000
3000
0000
,
0001
0100
0001
0010
0100
1000
0001
1000
,
0100
0000
0000
0000
0000
0000
0000
0000
1000
0000
0000
0000
0000
0000
0000
0000
0001
0000
0000
0000
0000
0000
0000
0000
0100
0000
0000
0000
0000
0000
0000
0000
0100
0000
0000
0000
0000
0000
0000
0000
0000
0000
0000
0000
0000
0000
0000
0000
0004
0003
0000
0000
0000
0000
0000
0000
0004
0003
0000
0000
0000
0000
0000
0000
,
1000
0000
0001
0000
0010
0100
1000
0001
,
1000
0000
0010
0010
0100
0000
0004
0000
,
1003
0000
0010
0000
0110
0000
0100
0001
,
0010
0000
0000
0000
0100
0000
0000
0000
1100
0000
0000
0000
1000
0001
1000
0001
,
0100
0000
0000
0000
0010
0000
0000
0000
0100
0000
0001
1000
0001
0000
1000
0001
,
0100
0000
0001
0000
1000
0001
0100
0001
1000
0000
0000
0000
0004
0000
0000
0000
,
0013
0100
1100
1000
,
0001
0000
0000
0000
1000
0000
0010
0000
0100
0000
0000
0000
0001
0000
0100
0010
,
0100
0000
0001
0000
0011
0000
0010
0100
,
1000
0000
0000
0000
0000
0000
0000
0000
0000
0000
0000
0000
0001
0000
0000
0100
0000
0000
0010
0000
0000
0100
0000
0000
0001
0000
0000
0000
0000
0000
0000
0000
0010
0000
0000
0000
0000
0000
0000
0000
0100
0000
0000
0000
0000
0000
0000
0000
,
1000
0000
0000
0000
0001
0000
0000
0000
1001
0000
0000
0000
1000
0000
0001
0100
,
0010
0000
0000
0000
1000
0000
0000
0000
1001
0000
0000
0000
0001
1000
0100
0010
,
0001
0100
0101
0004
,
0103
0000
0001
0010
0100
0000
4000
0000
,
3001
0100
0001
0010
0100
1000
0010
1000
,
0001
0100
0001
1000
0010
0100
0001
1000
0001
1000
0100
0010
0100
1000
0001
0010
,
0100
1100
1001
0101
,
0110
0000
1010
0000
1001
0000
0001
0010
,
0100
1100
1001
0011
,
0110
0000
0000
0000
1100
0000
0000
0000
1000
0001
0100
0001
1000
0010
0100
0001
,
1000
1010
0110
0101
,
1001
0000
1000
0010
0100
0000
0001
0010
,
0200
1300
0020
0130
,
0101
0000
0000
0000
0011
0000
0000
0000
0010
0000
0100
0000
1000
0001
1000
0010
,
0100
0101
1001
1010
,
0110
0000
0000
0000
0101
0000
0000
0000
1001
0000
0000
0000
1000
0100
1000
0001
,
0100
0101
0011
0110
,
1100
0000
0000
0000
1000
0000
0001
0100
0040
0030
0000
0000
0400
0000
0000
0300
,
0001
0000
0100
0000
0001
0000
1000
0000
0100
0000
0010
0000
0001
0000
1000
0100
,
1000
0001
0100
0010
0100
0001
4000
0000
,
3001
0100
0001
1000
0010
0100
0001
1000
0001
1000
0100
1000
0001
0010
0100
1000
,
0001
1000
0010
0100
0001
1000
0100
0010
0001
0000
0000
0000
0001
0000
0000
0000
,
1000
0100
1000
0001
0100
0001
1000
0001
0100
0010
0100
0001
1000
0001
1000
0100
,
1000
0001
0010
0001
1000
0100
0010
0001
1000
0100
0010
0100
1000
0001
0010
0100
,
1000
0001
0100
0010
0100
0001
1000
0010
1000
0001
0100
0010
1000
0001
0100
0001
,
2000
3000
0002
0003
0200
0300
0020
0030
,
1000
0100
1000
0001
0100
0001
1000
0001
0100
0010
0100
0001
1000
0100
1000
0001
,
0010
0100
1000
0001
0100
0010
1000
0001
1000
0100
0010
0001
1000
0001
1000
0010
,
0100
0001
1000
0100
1000
0001
0010
0001
1000
0100
0010
0001
1000
0010
1000
0001
,
1000
0001
0100
0001
2000
3000
0020
0030
,
1000
0010
0100
0001
0100
0001
1000
0010
0100
0001
1000
0001
0100
0001
1000
0001
,
0010
0100
1000
0001
0100
0001
1000
0100
0010
0000
0001
0000
0100
0000
0001
0000
,
1000
0100
1000
0001
0010
0100
1000
0001
1000
0010
0100
0001
4000
0000
0000
3000
,
0002
0023
0230
2300
,
3001
0100
0001
1000
0010
0100
0010
1000
0001
1000
0001
0100
0010
1000
0001
1000
,
0100
1000
0001
0010
0001
1000
0100
0010
0001
1000
0001
0100
0010
0100
0001
1000
,
0100
1000
0001
0010
0100
1000
0001
0100
0010
0100
0001
1000
0100
0010
0001
1000
,
0002
0000
0003
0000
0000
0000
0000
0000
0000
0000
0000
0000
1000
0001
1000
0001
,
0100
0001
0010
0100
1000
0001
1000
0010
,
0100
0001
1000
0100
0010
0100
1000
0001
,
1000
0010
0100
0001
1000
0001
0010
0100
,
2000
3000
2020
3030
0220
0330
0202
0303
,
0001
0010
0100
1000
0010
0100
0001
1000
,
0100
0000
0010
0000
0100
0000
1000
0000
0001
0100
0001
1000
0100
0010
0001
1000
,
0002
0000
0000
0000
0000
0000
0000
0000
0000
0000
0000
0000
0000
0000
0000
0000
0000
0000
0000
0000
0000
0000
0000
0003
2002
0000
0000
0000
0000
0000
0000
0000
0000
0000
0000
0000
0000
0000
0000
0000
0000
0000
0000
0000
0000
0000
0000
3003
,
2002
0000
0000
0000
0000
0000
0000
0000
0000
0000
0000
0000
0000
0000
0000
0000
0000
0000
0000
0000
0000
0000
0000
3003
2002
0000
0000
0000
0000
0000
0000
0000
0000
0000
0000
0000
0000
0000
0000
0000
0000
0000
0000
0000
0000
0000
0000
3003
,
1000
0100
1000
0001
0010
0100
1000
0010
,
0100
0001
1000
0001
0010
0100
1000
0001
,
0100
0010
0100
0001
1000
0100
0010
0001
,
0200
0300
0202
0303
2020
3030
2002
3003
,
0001
0100
0010
0100
0001
0010
0100
1000
,
0010
0000
0100
0000
0001
0000
1000
0000
0010
1000
0001
0100
0001
1000
0100
0010
,
0002
0000
0000
0000
0000
0000
0000
0000
0000
0000
0000
0000
0000
0000
0000
0000
0000
0000
0000
0000
0000
0000
0000
0003
2002
0000
0000
0000
0000
0000
0000
0000
0000
0000
0000
0000
0000
0000
0000
0000
0000
0000
3003
0000
0000
0000
0000
0000
,
2002
0000
0000
0000
0000
3003
0000
0000
2002
0000
0000
3003
0000
0000
0000
0000
,
1000
0100
1000
0001
,
0010
0100
1000
0001
,
0100
0010
0100
0001
,
1000
0001
0010
0100
,
1000
0001
0100
0010
,
1000
0100
0010
0100
,
1000
0001
1000
0010
,
0100
0001
1000
0100
,
1000
0001
1001
1000
,
0010
0100
0110
0010
,
1000
0001
0011
0010
,
0100
1000
1001
0001
,
1000
0100
1000
0001
0010
0100
1000
0001
1000
0010
0100
0010
1000
0001
0100
0001
,
1000
0001
0010
0100
1000
0001
1000
0100
0010
0001
1000
0010
0100
0001
1000
0001
,
1000
0000
0000
0000
,
1111
0000
0000
0000
,
1000
0010
0100
0001
,
0010
0000
0100
0000
1000
0000
0001
0001
,
0010
0100
1000
1000
,
1000
0000
0001
0000
0100
0000
0010
0000
0100
0001
1000
0001
0010
0100
1000
0001
,
1000
0001
0100
0010
,
1000
0000
0001
0000
0010
0010
0100
0100
,
1000
0001
0100
0100
,
0100
0001
0010
0100
1000
0001
1000
0010
,
0100
0001
1000
0100
,
1000
0000
0000
0000
0010
0000
0000
0000
0100
0000
0000
0000
0001
0000
1000
0100
,
0010
0001
0010
0010
,
0010
0000
0100
0000
1000
0000
0001
0000
0100
0000
0010
0000
1000
0000
0001
0010
,
0100
1000
0010
0100
,
0001
1000
0100
1000
,
2002
3003
0000
0000
0000
0000
0000
0000
0001
0000
0000
0000
0000
0000
0000
0000
,
1000
0000
1000
1000
,
0001
0100
0001
1000
0010
0100
0001
1000
0001
0100
0010
0100
0001
1000
0010
1000
,
0001
0100
0001
1000
0100
1000
0001
0010
0001
1000
0100
0010
0001
1000
0001
0100
,
0010
0100
0001
1000
0100
0010
0100
1000
0001
0100
0001
1000
0100
1000
0001
0010
,
0100
0010
0001
1000
0001
0100
0001
1000
0010
0100
0001
1000
0010
1000
0001
1000
,
0100
0010
0001
1000
0100
1000
0001
0100
0001
1000
0001
0010
0100
1000
0001
0100
,
0001
1000
0001
0100
0001
1000
0100
1000
0001
0100
0010
1000
0001
0010
0001
1000
,
0100
1000
0001
0100
0001
1000
0010
0100
0010
1000
0001
0100
0001
1000
0010
0100
,
0010
1000
0001
0010
0100
1000
0001
0100
0001
0000
0000
0000
0000
0000
0000
0000
,
1000
0010
1000
0001
0100
0001
1000
0100
1000
0001
0010
0100
1000
0001
0100
0001
,
1000
0010
0100
0001
1000
0010
0100
0001
1000
0100
0010
0001
1000
0100
1000
0001
,
0010
0100
1000
0001
1000
0010
1000
0001
0100
0001
1000
0001
0100
0010
0100
0001
,
1000
0100
1000
0001
0010
0001
1000
0100
0010
0100
1000
0001
0100
0001
1000
0100
,
1000
0001
0010
0100
1000
0001
0100
0001
1000
0010
0100
0001
1000
0100
1000
0001
,
1000
0100
0010
0001
1000
0001
0100
0010
1000
0001
0100
0001
1000
0100
0010
0001
,
4000
0000
0000
0000
,
3004
0043
0130
0100
,
2002
0000
0000
0000
,
0000
0000
0000
0000
,
0000
0000
0000
0000
,
0000
0000
0000
0000
,
0000
0000
0000
0000
,
3003
0000
0000
0000
;

//---------------dance-single - J. Nero----------------
#NOTES:
     dance-single:
     J. Nero:
     Hard:
     18:
     1.000,1.000,0.494,0.319,1.000,1385.000,96.000,62.000,177.000,1.000:
0000
0000
0000
0000
,
0000
0000
0000
0000
,
1001
0001
0100
0010
,
0000
0000
0010
0000
0000
0100
0001
0010
,
0100
0000
1100
0000
,
0000
1000
0001
0000
0000
0000
1000
0000
,
1100
0000
0001
0101
,
0000
0000
1001
0000
0000
1000
0100
0010
,
0100
0000
0110
0000
,
0000
0010
0001
0000
1001
0000
1000
0000
,
0110
0000
0010
0100
,
0000
0000
0101
0000
0000
0001
0010
0100
,
0010
0000
0110
0000
,
0100
1000
0001
0000
0000
0000
0001
0000
,
0101
0000
1000
1010
,
0000
0000
0110
0000
0000
0100
0001
0010
,
0100
0000
1100
0000
,
1000
0010
0100
0000
0101
0000
0001
0000
,
0011
0010
0100
1000
,
0M10
0100
0001
1000
,
1010
0010
0100
0001
,
0M10
0100
1000
1001
,
01M1
00M0
00M0
00M0
00M0
00M0
00M0
00M0
00M0
00M0
00M0
00M0
00M0
00M0
00M0
00M0
,
00M0
00M0
00M0
00M0
00M0
00M0
00M0
00M0
00M0
00M0
00M0
00M0
00M0
00M0
00M0
00M0
,
10M0
00M0
00M0
00M0
00M0
00M0
00M0
00M0
00M0
00M0
00M0
00M0
00M0
00M0
00M0
00M0
,
00M0
00M0
00M0
00M0
00M0
00M0
00M0
00M0
00M0
00M0
00M0
00M0
0MM0
0000
0M00
0000
,
0M00
0000
0000
0000
0M00
0000
0000
0000
0M00
0000
0000
0000
0M00
0000
0000
0000
0M00
0000
0000
0000
0M00
0000
0000
0000
0M00
0000
0000
0M00
0000
0000
0M00
0000
0000
0M00
0000
0000
0M00
0000
0000
0M00
0000
0000
0M00
0000
0000
0M00
0000
0000
,
0M00
0000
0M00
0000
0M00
0000
0M00
0000
0M00
0000
0M00
0000
0M00
0000
0M00
0000
0M00
0000
0M00
0000
0000
0000
00M0
00M0
00M0
00M0
00M0
00M0
00M0
00M0
0000
0000
,
0000
0000
0M00
0M00
0M00
0M00
0M00
0M00
0000
0000
0000
0000
0000
0000
0000
0000
0000
0000
0000
0000
0000
0000
0000
0000
0000
0000
0000
0000
0000
0000
0000
0000
,
00M0
00M0
00M0
00M0
00M0
00M0
00M0
0000
0000
0000
0000
0000
0000
0000
0000
0000
0000
0000
0000
0000
0000
0000
0000
0000
0000
0000
0000
0000
0000
0000
0000
0000
,
0000
0000
0000
0000
,
0M00
0M00
0M00
0M00
0M00
0M00
0000
0000
00M0
00M0
00M0
00M0
00M0
00M0
00M0
0000
0000
0000
0000
0000
0000
0000
0000
0000
0000
0000
0000
0000
0000
0000
0000
0000
,
0M00
0M00
0M00
0M00
0M00
0M00
0M00
0M00
0M00
0M00
0M00
0M00
0M00
0M00
0M00
0M00
0M00
0M00
0M00
0M00
0M00
0M00
0M00
0M00
,
00M0
00M0
00M0
00M0
00M0
00M0
00M0
00M0
00M0
00M0
00M0
00M0
00M0
00M0
00M0
00M0
00M0
00M0
00M0
00M0
00M0
00M0
00M0
00M0
,
1000
0000
0100
0000
1000
0000
0001
0000
0100
0000
0010
0000
0100
0000
0001
1000
,
0001
0000
1000
0000
0100
0000
0010
0000
0001
0000
1000
0000
0010
1000
0010
0100
,
0001
1000
0100
4000
3010
0100
0004
0043
,
0130
1000
0001
0100
0040
0000
0430
0000
,
0301
1000
0100
1000
0001
0010
0400
0000
,
1300
0000
0010
0000
1000
0000
0001
0000
0100
0000
0001
0000
1000
0100
1000
0000
,
0001
0100
0001
1000
0010
0100
0010
1000
0001
0100
0001
0100
0010
1000
0001
1000
,
0100
0010
0100
1000
0001
0010
0100
1000
0001
1000
0100
0010
0004
0000
0000
0003
,
1000
0000
0010
0000
0100
0000
0001
1000
0100
0000
1000
0000
0001
0000
0040
0000
,
0130
0000
1000
0000
0001
0000
0100
0000
0010
0100
0001
0100
0001
1000
0100
0010
,
0001
0000
1000
0000
0100
0000
1000
0000
0001
0000
0100
0010
0100
0000
0001
1000
,
0001
1000
0010
0100
0001
0040
0130
4000
,
3001
0000
0100
0000
0010
0000
0100
0000
0001
0000
1000
0000
0100
0010
0004
0003
,
1000
0010
0100
0001
0010
0100
1000
0001
,
0100
0001
0100
0010
1000
0001
1000
0001
0010
0100
1000
0001
1000
0100
0010
0001
,
1000
0000
0000
0000
00M0
0000
0000
0000
00M0
0000
0000
0000
00M0
0000
0000
00M0
0000
0000
00M0
0000
0000
00M0
0000
0000
,
0001
0000
1000
0000
0100
0000
1000
0000
0010
0000
0100
0000
0001
0100
0001
1000
,
0100
0000
1000
0000
0010
1000
0010
0100
0001
0000
0010
0000
0100
1000
0001
1000
,
0010
0100
0001
1000
0100
1000
0004
0000
,
0013
0000
0100
0000
1000
0000
0001
0000
0100
0000
0010
0000
0100
0001
4000
3000
,
0001
0010
0100
1000
0010
0100
0004
0000
,
1003
0100
0010
0100
1000
0040
0130
0004
,
1003
0100
1000
0001
0010
0100
1000
0001
0100
0001
1000
0100
1000
0001
0010
0100
,
1000
0001
1000
0001
0100
0010
1000
0001
1000
0001
0100
0010
0100
0001
1000
0001
,
1000
0001
0010
0100
1000
0010
0100
0001
,
1000
0000
0100
0000
0010
0000
0100
0000
1000
0000
0010
0000
0100
0001
0100
0001
,
1000
0000
0010
0000
0100
0000
0001
0000
0010
0000
0100
0000
1000
0000
0010
1000
,
0001
0000
0100
0000
0001
0000
0010
0000
0100
1000
0001
0000
1000
0001
4000
0000
,
3001
0100
0001
1000
0010
0100
0001
1000
0001
0100
0001
0100
0010
1000
0001
1000
,
0001
0010
0001
1000
0100
0010
0001
1000
0001
1000
0100
0010
0100
1000
0001
1000
,
0002
0023
0230
2300
,
3040
4030
3400
0340
,
2032
0000
0000
0000
,
0000
0000
0000
0000
,
0000
0000
0000
0000
,
3003
0000
0000
0000
,
0000
0000
0000
0000
,
0000
0000
0000
0000
,
2002
0000
0000
3003
0000
0000
0000
0000
0000
0000
0000
0000
2002
0000
0000
0000
0000
3003
0000
0000
0000
0000
0000
0000
,
2002
0000
0000
0000
0000
3003
0000
0000
2002
0000
3003
0000
0001
0000
1000
0000
,
0100
1000
0001
1000
0100
0010
0001
1000
,
0100
0000
1000
0000
0001
0000
0100
0000
0010
0000
1000
0000
0010
1000
0001
0100
,
0001
1000
0001
1000
0010
0100
0001
1000
,
0001
0000
0010
0000
0100
1000
0001
1000
0001
0000
0100
0000
0001
0000
1000
0100
,
0010
0001
1000
0010
0100
0010
1000
0001
,
0100
0000
0001
0000
1000
0000
0100
0000
0010
0000
0001
0000
1000
0001
0100
0001
,
1000
0001
0010
0100
1000
0001
0100
0010
,
1000
0000
0001
0000
1000
0010
1000
0010
0200
0000
0000
0000
0000
0300
0000
0000
,
0001
0010
0001
1000
0100
0010
0100
1000
,
0001
1000
0010
0100
0001
0010
0400
0000
,
1300
0001
1000
0010
0100
0001
0010
0100
,
1000
0000
0001
0000
0100
0001
0100
0001
2000
0000
3000
0000
2000
0000
3000
0000
,
0001
0100
0001
0010
0100
1000
0001
1000
,
0100
0000
0000
0000
0000
0000
0000
0000
1000
0000
0000
0000
0000
0000
0000
0000
0001
0000
0000
0000
0000
0000
0000
0000
0100
0000
0000
0000
0000
0000
0000
0000
0100
0000
0000
0000
0000
0000
0000
0000
0000
0000
0000
0000
0000
0000
0000
0000
0004
0003
0000
0000
0000
0000
0000
0000
0004
0003
0000
0000
0000
0000
0000
0000
,
1000
0000
0001
0000
0010
0100
1000
0001
,
1000
0000
0010
0010
0100
0000
0004
0000
,
1003
0000
0010
0000
0110
0000
0100
0001
,
0010
0000
0000
0000
0100
0000
0000
0000
1100
0000
0000
0000
1000
0001
1000
0001
,
0100
0000
0000
0000
0010
0000
0000
0000
0100
0000
0001
1000
0001
0000
1000
0001
,
0100
0000
0001
0000
1000
0001
0100
0001
1000
0000
0000
0000
0004
0000
0000
0000
,
0013
0100
1100
1000
,
0001
0000
0000
0000
1000
0000
0010
0000
0100
0000
0000
0000
0001
0000
0100
0010
,
0100
0000
0001
0000
0011
0000
0010
0100
,
1000
0000
0000
0000
0000
0000
0000
0000
0000
0000
0000
0000
0001
0000
0000
0100
0000
0000
0010
0000
0000
0100
0000
0000
0001
0000
0000
0000
0000
0000
0000
0000
0010
0000
0000
0000
0000
0000
0000
0000
0100
0000
0000
0000
0000
0000
0000
0000
,
1000
0000
0000
0000
0001
0000
0000
0000
1001
0000
0000
0000
1000
0000
0001
0100
,
0010
0000
0000
0000
1000
0000
0000
0000
1001
0000
0000
0000
0001
1000
0100
0010
,
0001
0100
0101
0004
,
0103
0000
0001
0010
0100
0000
4000
0000
,
3001
0100
0001
0010
0100
1000
0010
1000
,
0001
0100
0001
1000
0010
0100
0001
1000
0001
1000
0100
0010
0100
1000
0001
0010
,
0100
1100
1001
0101
,
0110
0000
1010
0000
1001
0000
0001
0010
,
0100
1100
1001
0011
,
0110
0000
0000
0000
1100
0000
0000
0000
1000
0001
0100
0001
1000
0010
0100
0001
,
1000
1010
0110
0101
,
1001
0000
1000
0010
0100
0000
0001
0010
,
0200
1300
0020
0130
,
0101
0000
0000
0000
0011
0000
0000
0000
0010
0000
0100
0000
1000
0001
1000
0010
,
0100
0101
1001
1010
,
0110
0000
0000
0000
0101
0000
0000
0000
1001
0000
0000
0000
1000
0100
1000
0001
,
0100
0101
0011
0110
,
1100
0000
0000
0000
1000
0000
0001
0100
0040
0030
0000
0000
0400
0000
0000
0300
,
0001
0000
0100
0000
0001
0000
1000
0000
0100
0000
0010
0000
0001
0000
1000
0100
,
1000
0001
0100
0010
0100
0001
4000
0000
,
3001
0100
0001
1000
0010
0100
0001
1000
0001
1000
0100
1000
0001
0010
0100
1000
,
0001
1000
0100
0010
0001
1000
0100
1000
0001
0000
0000
0000
0001
0000
0000
0000
,
1000
0010
1000
0001
0100
0001
1000
0001
0100
0010
0100
0001
1000
0001
1000
0100
,
1000
0001
0100
0001
1000
0010
0100
0001
1000
0001
1000
0100
0010
0100
1000
0001
,
0010
0100
1000
0001
0010
0001
1000
0100
1000
0001
0010
0100
1000
0001
1000
0001
,
0200
0300
0002
0003
0020
0030
0200
0300
,
1000
0001
0010
0001
1000
0100
1000
0001
0010
0100
1000
0001
0010
0100
1000
0001
,
1000
0010
0100
0001
0100
0010
1000
0001
1000
0100
0010
0001
1000
0001
1000
0010
,
0100
0001
0100
0010
1000
0001
1000
0010
0100
0010
1000
0001
0100
0001
1000
0001
,
1000
0001
0100
0001
2000
3000
0020
0030
,
1000
0010
0100
0001
0100
0001
1000
0010
0100
0010
1000
0001
1000
0001
0010
0100
,
1000
0001
1000
0100
0010
0100
1000
0001
1000
0000
0010
0000
0100
0000
0001
0000
,
1000
0100
1000
0001
0010
0100
1000
0001
1000
0010
0100
0001
4000
0000
0000
3000
,
0002
0023
0230
2300
,
3001
0100
0001
1000
0010
0100
0010
1000
0001
1000
0001
0100
0010
1000
0001
1000
,
0100
0010
0100
1000
0001
1000
0001
0100
0010
0100
0001
1000
0010
1000
0001
1000
,
0100
1000
0001
0010
0001
1000
0100
0010
0001
1000
0001
0010
0100
1000
0001
1000
,
0002
0000
0003
0000
0000
0000
0000
0000
0000
0000
0000
0000
1000
0001
1000
0001
,
0100
0001
0010
0100
1000
0001
1000
0010
,
0100
0001
1000
0100
0010
0100
1000
0001
,
1000
0010
0100
0001
1000
0001
0010
0100
,
2000
3000
2020
3030
0220
0330
0202
0303
,
0001
0010
0100
1000
0010
0100
0001
1000
,
0100
0000
0010
0000
0100
0000
1000
0000
0001
0100
0001
1000
0100
0010
0001
1000
,
0002
0000
0000
0000
0000
0000
0000
0000
0000
0000
0000
0000
0000
0000
0000
0000
0000
0000
0000
0000
0000
0000
0000
0003
2002
0000
0000
0000
0000
0000
0000
0000
0000
0000
0000
0000
0000
0000
0000
0000
0000
0000
0000
0000
0000
0000
0000
3003
,
2002
0000
0000
0000
0000
0000
0000
0000
0000
0000
0000
0000
0000
0000
0000
0000
0000
0000
0000
0000
0000
0000
0000
3003
2002
0000
0000
0000
0000
0000
0000
0000
0000
0000
0000
0000
0000
0000
0000
0000
0000
0000
0000
0000
0000
0000
0000
3003
,
1000
0100
1000
0001
0010
0100
1000
0010
,
0100
0001
1000
0001
0010
0100
1000
0001
,
0100
0010
0100
0001
1000
0100
0010
0001
,
0200
0300
0202
0303
2020
3030
2002
3003
,
0001
0100
0010
0100
0001
0010
0100
1000
,
0010
0000
0100
0000
0001
0000
1000
0000
0010
1000
0001
0100
0001
1000
0100
0010
,
0002
0000
0000
0000
0000
0000
0000
0000
0000
0000
0000
0000
0000
0000
0000
0000
0000
0000
0000
0000
0000
0000
0000
0003
2002
0000
0000
0000
0000
0000
0000
0000
0000
0000
0000
0000
0000
0000
0000
0000
0000
0000
3003
0000
0000
0000
0000
0000
,
2002
0000
0000
0000
0000
3003
0000
0000
2002
0000
0000
3003
0000
0000
0000
0000
,
1000
0100
1000
0001
,
0010
0100
1000
0001
,
0100
0010
0100
0001
,
1000
0001
0010
0100
,
1000
0001
0100
0010
,
1000
0100
0010
0100
,
1000
0001
1000
0010
,
0100
0001
1000
0100
,
1000
0001
1001
1000
,
0010
0100
0110
0010
,
1000
0001
0011
0010
,
0100
1000
1001
0001
,
1000
0100
1000
0001
0010
0100
1000
0001
1000
0010
0100
0010
1000
0001
0100
0001
,
1000
0001
0010
0100
1000
0001
1000
0100
0010
0001
1000
0010
0100
0001
1000
0001
,
1000
0000
0000
0000
,
1111
0000
0000
0000
,
1000
0010
0100
0001
,
0010
0000
0100
0000
1000
0000
0001
0001
,
0010
0100
1000
1000
,
1000
0000
0001
0000
0100
0000
0010
0000
0100
0001
1000
0001
0010
0100
1000
0001
,
1000
0001
0100
0010
,
1000
0000
0001
0000
0010
0010
0100
0100
,
1000
0001
0100
0100
,
0100
0001
0010
0100
1000
0001
1000
0010
,
0100
0001
1000
0100
,
1000
0000
0000
0000
0010
0000
0000
0000
0100
0000
0000
0000
0001
0000
1000
0100
,
0010
0001
0010
0010
,
0010
0000
0100
0000
1000
0000
0001
0000
0100
0000
0010
0000
1000
0000
0001
0010
,
0100
1000
0010
0100
,
0001
1000
0100
1000
,
2002
3003
0000
0000
0000
0000
0000
0000
0001
0000
0000
0000
0000
0000
0000
0000
,
1000
0000
1000
1000
,
0001
0100
0001
1000
0010
0100
0001
0100
0001
1000
0010
0100
0001
0100
0010
1000
,
0010
1000
0001
0100
0001
1000
0001
1000
0010
0100
0001
1000
0001
0100
0010
1000
,
0001
1000
0100
1000
0001
0010
0001
1000
0100
0010
0001
1000
0100
1000
0001
0010
,
0100
0010
0001
1000
0100
0010
0001
1000
0100
0010
0001
1000
0100
1000
0001
1000
,
0001
0100
0001
1000
0010
0100
0010
1000
0001
0100
0001
1000
0010
1000
0010
0100
,
0001
1000
0001
0100
0001
1000
0010
0100
0001
1000
0010
0100
0001
0100
0001
1000
,
0001
1000
0100
1000
0001
0010
0100
1000
0001
1000
0001
0010
0001
1000
0100
0010
,
0001
1000
0100
0010
0001
1000
0100
1000
0001
0000
0000
0000
0000
0000
0000
0000
,
1000
0010
1000
0001
0100
0001
1000
0001
1000
0010
0100
0010
1000
0001
0100
0010
,
1000
0001
0100
0010
1000
0010
0100
0001
1000
0001
0100
0001
1000
0010
1000
0001
,
1000
0001
0010
0001
1000
0100
1000
0001
0010
0100
1000
0001
0010
0100
0010
0001
,
1000
0100
0010
0001
1000
0100
0010
0001
1000
0100
1000
0001
0010
0001
1000
0001
,
1000
0010
1000
0001
0100
0010
0100
0001
1000
0010
0100
0001
1000
0010
0100
0001
,
1000
0001
0010
0100
1000
0001
0010
0001
1000
0100
1000
0001
0010
0100
1000
0001
,
4000
0000
0000
0000
,
3004
0043
0130
0100
,
2002
0000
0000
0000
,
0000
0000
0000
0000
,
0000
0000
0000
0000
,
0000
0000
0000
0000
,
0000
0000
0000
0000
,
3003
0000
0000
0000
;
