#TITLE:Tribal Revival;
#SUBTITLE:(In The Beginning);
#ARTIST:Prophecy;
#TITLETRANSLIT:;
#SUBTITLETRANSLIT:;
#ARTISTTRANSLIT:;
#CREDIT:;
#BANNER:Tribal Revival.png;
#BACKGROUND:Tribal Revival-bg.png;
#LYRICSPATH:;
#CDTITLE:!tear-cdtitle.png;
#MUSIC:Prophecy - Tribal Revival.mp3;
#OFFSET:-0.083;
#SAMPLESTART:75.250;
#SAMPLELENGTH:12.500;
#SELECTABLE:YES;
#BPMS:0.000=140.000;
#STOPS:;
#BGCHANGES:;
// cache tags:
#FIRSTBEAT:0.000;
#LASTBEAT:352.000;
#SONGFILENAME:Songs/Fabulously Fresh Flock of Fantastic Files F5/(Tear) Tribal Revival/Tribal Revival.sm;
#HASMUSIC:1;
#HASBANNER:1;
#MUSICLENGTH:156.099;
// end cache tags

//---------------dance-single - ----------------
#NOTES:
     dance-single:
     :
     Hard:
     11:
     0.973,1.000,1.000,0.218,0.666,792.000,237.000,34.000,0.000,0.000:  // measure 1
1001
0000
1000
0100
1000
0000
0001
0000
0011
0000
1000
0010
0100
0010
1000
0000
,  // measure 2
0110
0000
1000
0001
1000
0000
0001
0000
0101
0000
1000
0100
0010
0001
0100
0000
,  // measure 3
0011
0000
0100
0010
0100
0000
0001
0000
1001
0000
0100
0010
0001
1000
0010
0000
,  // measure 4
1100
0000
0001
0010
0001
0000
0100
0000
0110
0000
0001
1000
0010
0100
0010
0000
,  // measure 5
0110
0000
1000
0100
1000
0000
0010
0000
1010
0000
0100
0001
0010
0001
1000
0000
,  // measure 6
0110
0000
0001
0100
0001
0000
1000
0000
1100
0000
0010
0100
0001
1000
0100
0000
,  // measure 7
0012
0000
1000
0010
0100
0000
1000
0000
0010
0000
1000
0100
1000
0010
0100
0000
,  // measure 8
1000
0000
0010
0000
0100
0000
0010
0000
1000
0000
0100
1000
0000
0100
0000
0003
,  // measure 9
1000
1100
0000
1000
1010
1000
0000
0001
,  // measure 10
0101
0001
0000
1000
1100
1000
0000
0010
,  // measure 11
0110
0010
0000
0100
0101
0100
0000
0001
,  // measure 12
1001
0001
0000
1000
1010
1000
0000
0001
,  // measure 13
0001
0000
0001
0100
0011
0000
1000
0000
1000
0000
1000
0001
1010
0000
0001
0000
,  // measure 14
0001
0000
0001
1000
0101
0000
1000
0000
1000
0000
1000
0010
1100
0000
0000
0000
,  // measure 15
2010
0010
0100
0001
0001
0001
0100
0010
,  // measure 16
0010
0000
0100
0001
0100
0000
0001
0000
0010
0000
0001
0100
0010
0100
0001
3000
,  // measure 17
1001
1001
1010
1010
0101
0101
1001
1001
,  // measure 18
0110
0110
1010
1010
1001
1001
1100
1100
,  // measure 19
0011
0011
0101
0101
1010
1010
1001
1001
,  // measure 20
0011
0011
0101
0101
1010
1010
1100
1100
,  // measure 21
1010
1010
0110
0110
1001
1001
0011
0011
,  // measure 22
1001
1001
1010
1010
0101
0101
1001
1001
,  // measure 23
1100
1100
0011
0011
0101
0101
1010
1010
,  // measure 24
1001
1001
0110
0110
1010
1010
0101
0101
,  // measure 25
0011
0000
0000
0101
0000
1001
0000
0110
,  // measure 26
1001
0000
0000
1010
0000
1100
0000
0011
,  // measure 27
1001
0000
0000
1010
0000
0101
0000
1001
,  // measure 28
0110
0000
0000
1100
0000
0101
0000
0011
,  // measure 29
1001
0000
0100
0000
0010
0000
1001
0000
0100
0000
1001
0000
0010
0000
1001
0100
,  // measure 30
1001
0100
0010
1001
0100
1001
0010
1001
,  // measure 31
1000
0000
0100
0000
0010
0000
0001
0000
1000
0000
0100
0000
0010
0000
0001
0000
1000
0000
0100
0000
0010
0000
0001
0000
1000
0000
0100
0000
0010
0000
0001
0100
,  // measure 32
0010
1000
0100
0010
0001
0100
0010
0000
1000
0010
0100
0001
0010
0100
1000
0000
0001
0100
0001
1000
0100
0010
0001
0000
1000
0100
1000
0001
0100
0010
0100
0000
,  // measure 33
1001
0100
0011
1000
0110
0001
1100
0010
,  // measure 34
0101
0010
1001
0100
1010
0100
0011
1000
,  // measure 35
0110
0001
1010
0100
0011
1000
0110
0001
,  // measure 36
1010
0100
1001
0010
1100
0001
0110
1000
,  // measure 37
0011
1000
0110
0001
1010
0100
0011
1000
,  // measure 38
0110
0001
1100
0010
1001
0100
0011
1000
,  // measure 39
0110
0001
1010
0100
1001
0010
1100
0001
,  // measure 40
1010
0100
1001
0100
0011
1000
0110
0001
,  // measure 41
1100
0000
0000
0001
1000
0100
0010
0001
0000
0000
0000
0000
0000
0000
0000
0000
,  // measure 42
1100
0000
1000
1100
0000
0000
1100
0000
0000
0000
0000
0000
0000
0000
0000
0000
,  // measure 43
1010
0000
0000
0001
0100
0010
1000
0100
0000
0000
0000
0000
0000
0000
0000
0000
,  // measure 44
0011
0000
0001
0011
0000
0000
0011
0000
0000
0000
0000
0000
0000
0000
0000
0000
,  // measure 45
0101
0000
0000
1000
0010
0100
0001
1000
0000
0000
0000
0110
0000
0000
0110
0000
,  // measure 46
0000
0000
0000
0100
0001
1000
0100
0010
0000
0000
0000
0110
0000
0000
0110
1000
,  // measure 47
0001
0010
0100
1000
0001
0010
0100
1000
0001
0010
0100
1000
0001
0000
0010
0000
,  // measure 48
0001
0100
0001
0100
0001
0100
0001
0100
0001
0100
0001
0100
0001
0100
0001
0100
0001
0100
0001
0100
0001
0100
0001
0100
0001
0100
0001
0100
0001
0100
0001
0100
,  // measure 49
1001
0000
0000
1000
0000
0001
0010
0000
0001
1000
0000
0010
0000
0100
0001
0000
,  // measure 50
1100
0000
0000
0000
0000
0000
0001
0000
0000
0000
1000
0000
0010
0000
0000
0000
1000
0000
0100
0000
0000
0000
0010
0000
0000
0000
0001
0000
0100
0000
0001
0010
,  // measure 51
1100
0000
0000
1000
0000
0010
0100
0000
0001
1000
0000
0100
0000
0010
0001
0000
,  // measure 52
0110
0000
0000
0000
0000
0000
0001
0000
0000
0000
1000
0000
0100
0000
0000
0000
0010
0000
0001
0000
0000
0000
1000
0000
0000
0000
0010
0000
0100
0000
0001
0010
,  // measure 53
1100
0000
0000
0001
0000
1000
0010
0000
1000
0100
0000
0010
0000
0001
0100
0000
,  // measure 54
0110
0000
0000
0000
0000
0000
0001
0000
0000
0000
1000
0000
0001
0000
0000
0000
0100
0000
0010
0000
0000
0000
1000
0000
0000
0000
0001
0000
0010
0000
0100
1000
,  // measure 55
0110
0000
0000
0000
0000
0000
0001
0000
0000
0000
0100
0000
0010
0000
0000
0000
1000
0000
0100
0000
0000
0000
0010
0000
0000
0000
0001
0000
1000
0000
0001
0100
,  // measure 56
1001
0000
0000
0100
0000
0010
1000
0000
0001
0010
0000
0100
0000
1000
0010
0000
,  // measure 57
2000
0000
0100
0000
0100
0000
0100
3000
0020
0000
0001
0000
0001
0000
0001
0030
,  // measure 58
0200
0000
0010
0000
0010
0000
0010
0300
2000
0000
0001
0000
0001
0000
0001
3000
,  // measure 59
0200
0000
0010
0000
0010
0000
0010
0300
2000
0000
0100
0000
0100
0000
0100
3000
,  // measure 60
0020
0000
0001
0000
0001
0000
0001
0030
2000
0000
0001
0000
0001
0000
0001
3000
,  // measure 61
0200
0000
0001
0000
0001
0000
0001
0300
2000
0000
0010
0000
0010
0000
0010
3000
,  // measure 62
2000
0000
0100
0000
0100
0000
0100
3000
0020
0000
0100
0000
0100
0000
0100
0030
,  // measure 63
2000
0000
0001
0000
0001
0000
0001
3000
0200
0000
0010
0000
0010
0000
0010
0300
,  // measure 64
0200
0000
0001
0000
0001
0000
0001
0300
2000
0000
0100
0000
0100
0000
0100
3000
,  // measure 65
0110
0000
0000
0001
0000
1000
0010
0000
1000
0001
0000
0100
0000
0010
1000
0000
,  // measure 66
0011
0000
1000
0000
0000
0000
0001
0000
0000
0000
0100
0000
0010
0000
0000
0000
1000
0000
0001
0000
0000
0000
0010
0000
0000
0000
0100
0000
1000
0000
0001
0010
,  // measure 67
1100
0001
0000
1000
0000
0010
0100
0000
0001
0010
0000
0100
0000
1000
0010
0000
,  // measure 68
1100
0001
0000
1000
0000
0010
0100
0000
0001
1000
0000
0010
0000
0100
0001
0000
,  // measure 69
1010
0001
0000
0100
0000
0010
1000
0000
0100
0010
0000
0001
0000
1000
0100
0000
,  // measure 70
0011
0000
0100
0000
0000
0000
0010
0000
0000
0000
0100
0000
0001
0000
0000
0000
1000
0000
0100
0000
0000
0000
0010
0000
0000
0000
0001
0000
0100
0000
0010
0100
,  // measure 71
1001
0000
0100
0000
0000
0000
0010
0000
0000
0000
0001
0000
0100
0000
0000
0000
0010
0000
1000
0000
0000
0000
0100
0000
0000
0000
1000
0000
0010
0000
1000
0100
,  // measure 72
0011
1000
0000
0010
0000
0100
0001
0000
1000
0010
0000
0100
0000
0001
0010
0000
,  // measure 73
0200
0000
1000
0000
1000
0000
1000
0300
0020
0000
0100
0000
0100
0000
0100
0030
,  // measure 74
0002
0000
1000
0000
1000
0000
1000
0003
0200
0000
0001
0000
0001
0000
0001
0300
,  // measure 75
0002
0000
0100
0000
0100
0000
0100
0003
2000
0000
0010
0000
0010
0000
0010
3000
,  // measure 76
0200
0000
0001
0000
0001
0000
0001
0300
2000
0000
0100
0000
0100
0000
0100
3000
,  // measure 77
0020
0000
0100
0000
0100
0000
0100
0030
2000
0000
0001
0000
0001
0000
0001
3000
,  // measure 78
0200
0000
0010
0000
0010
0000
0010
0300
2000
0000
0100
0000
0100
0000
0100
3000
,  // measure 79
0002
0000
0100
0000
0100
0000
0100
0003
2000
0000
0010
0000
0010
0000
0010
3000
,  // measure 80
0002
0000
0010
0000
0010
0000
0010
0003
0200
0000
1000
0000
1000
0000
1000
0300
,  // measure 81
1001
1001
0110
0110
1010
1010
1100
1100
,  // measure 82
0011
0011
1001
1001
1010
1010
0101
0101
,  // measure 83
1100
1100
1010
1010
0101
0101
1001
1001
,  // measure 84
0011
0011
1001
1001
0101
0101
1010
1010
,  // measure 85
1100
1100
0011
0011
1001
1001
0101
0101
,  // measure 86
1010
1010
1100
1100
1010
1010
0101
0101
,  // measure 87
1001
1001
0110
0110
1010
1010
0101
0101
,  // measure 88
1100
1100
0011
0011
1001
0100
0010
0000
,  // measure 89
1001
0000
0000
0000
;
