#TITLE:Illumination of the Sky;
#SUBTITLE:EXoduz Violation;
#ARTIST:Phantasma;
#TITLETRANSLIT:;
#SUBTITLETRANSLIT:;
#ARTISTTRANSLIT:;
#CREDIT:;
#BANNER:../Banner.png;
#BACKGROUND:../Background.png;
#LYRICSPATH:;
#CDTITLE:;
#MUSIC:illumination_of_the_sky.ogg;
#OFFSET:-0.140;
#SAMPLESTART:66.020;
#SAMPLELENGTH:12.000;
#SELECTABLE:YES;
#BPMS:0.000=102.000;
#STOPS:;
#BGCHANGES:;
// cache tags:
#FIRSTBEAT:0.000;
#LASTBEAT:196.000;
#SONGFILENAME:Songs/EXoduz Violation/Illumination of the Sky/Illumination.sm;
#HASMUSIC:1;
#HASBANNER:1;
#MUSICLENGTH:118.698;
// end cache tags

//---------------dance-single - ----------------
#NOTES:
     dance-single:
     :
     Challenge:
     15:
     1.000,1.000,0.211,0.042,1.000,1203.000,25.000,5.000,0.000,1.000:

1000
0001
1000
0010
0100
0001
0010
0001
1000
0010
0100
0010
0100
0001
0010
0100
,
1000
0001
0010
0100
0010
0001
1000
0010
0100
0001
1000
0001
0010
0100
0010
0001
,
1000
0010
0100
0010
1000
0100
0010
0100
1000
0001
1000
0001
1000
0001
0010
0001
,
1000
0001
0100
0001
1000
0001
0010
0001
1000
0001
0010
0100
0010
0001
1000
0010
,
0100
0010
1000
0100
0010
0001
0010
0001
1000
0100
0010
0100
1000
0001
1000
0010
,
0100
0010
0100
0001
0010
0100
0010
0001
1000
0010
1000
0001
1000
0100
1000
0010
,
0100
0010
1000
0001
1000
0010
1000
0100
0010
0001
1000
0100
0010
0100
1000
0001
,
1000
0001
0010
0100
0010
0001
1000
0010
0100
0010
0100
0001
0010
0100
1000
0001
,
0200
0310
0100
0020
1030
0100
0010
0001
1000
0100
0010
0100
1000
0001
0100
0010
,
0100
0001
0010
0100
1000
0001
0010
0100
1000
0001
1000
0010
0100
0001
1000
0001
,
0100
0001
0010
0001
0100
0001
0010
0100
0010
0001
1000
0010
1000
0001
1000
0100
,
1000
0001
1000
0001
1000
0010
0100
0010
0100
0001
0010
0001
1000
0010
1000
0100
,
0010
0100
1000
0010
0100
0001
0010
0100
0010
0001
1000
0001
1000
0010
0100
0001
,
0010
0100
0010
0001
1000
0001
1000
0010
1000
0100
0010
0100
1000
0010
0100
0001
,
0010
0001
1000
0010
0100
0001
0010
0100
1000
0001
0010
0001
1000
0001
0100
0001
,
0010
0100
1000
0001
1000
0001
1000
0010
0100
0001
0010
0100
0010
0001
1000
0010
,
0100
0001
0100
0001
0010
0100
1000
0001
1000
0100
0010
0100
1000
0010
0100
0010
0100
0001
0010
0100
0010
0001
1000
0001
1000
0010
1000
0100
0010
0100
1000
0010
,
0100
0010
0100
0001
0100
0001
0010
0001
1000
0010
1000
0100
0010
0100
1000
0010
0100
0010
0100
0001
0010
0100
1000
0001
1000
0001
1000
0100
0010
0100
1000
0010
,
0100
0010
0100
0001
0010
0100
1000
0001
1000
0010
0100
0001
0010
0100
1000
0001
1000
0010
0100
0001
0010
0100
1000
0001
1000
0010
0100
0010
1000
0100
0010
0100
,
1000
0001
1000
0001
1000
0100
0010
0100
1000
0010
0100
0010
0100
0001
0100
0001
0010
0100
0010
0001
1000
0010
0100
0010
1000
0100
1000
0001
1000
0010
1000
0100
,
1000
0001
1000
0010
0100
0010
0100
0001
0010
0100
1000
0001
1000
0001
1000
0010
1000
0100
0010
0001
0100
0001
0010
0100
0010
0001
1000
0001
1000
0010
0100
0001
,
0010
0100
1000
0001
1000
0001
1000
0010
0100
0010
1000
0100
0010
0100
1000
0001
1000
0001
1000
0010
1000
0001
0010
0001
1000
0100
0010
0100
1000
0010
0100
0010
,
0100
0001
1000
0001
1000
0100
0010
0100
1000
0010
0100
0001
0010
0100
0010
0001
1000
0001
1000
0010
0100
0010
0100
0001
0010
0100
1000
0001
1000
0001
1000
0001
,
1000
0100
0010
0100
1000
0010
0100
0010
0100
0010
0100
0010
0100
0001
0100
0001
0100
0010
1000
0010
1000
0100
0010
0001
1000
0100
0010
0100
1000
0010
0100
0000
,
0110
0000
0100
0001
1000
0001
1000
0100
0010
0100
1000
0010
0100
0010
0100
0001
0010
0100
0010
0001
1000
0010
0100
0010
0100
0001
0010
0100
1000
0001
1000
0010
,
1000
0001
1000
0100
0010
0001
1000
0010
0100
0010
0100
0010
1000
0100
0010
0001
1000
0001
1000
0100
0010
0100
1000
0010
0100
0001
0010
0100
1000
0001
0010
0100
,
0010
0001
1000
0010
0100
0010
0100
0001
0100
0010
1000
0010
1000
0100
0010
0001
1000
0100
0010
0100
1000
0001
1000
0001
1000
0010
0100
0010
0100
0001
0100
0010
,
1000
0001
0100
0010
1000
0001
1000
0100
0010
0100
1000
0010
0100
0001
0100
0001
0010
0100
1000
0001
1000
0010
1000
0001
1000
0100
0010
0100
1000
0010
0100
0001
,
0010
0100
0010
0001
1000
0001
1000
0001
0010
0001
0010
0100
0010
0001
1000
0010
0100
0001
1000
0010
0100
0010
0100
0010
0100
0001
0010
0100
1000
0001
0010
0100
,
0010
0001
1000
0010
1000
0100
1000
0001
1000
0100
1000
0010
0100
0010
0100
0001
0010
0100
1000
0001
0010
0100
0010
0001
1000
0001
1000
0001
1000
0100
0010
0100
,
1000
0010
0100
0001
0010
0100
0010
0100
1000
0001
1000
0001
1000
0010
0100
0001
0010
0100
0010
0001
1000
0001
1000
0010
0100
0010
1000
0100
1000
0010
0100
0010
,
0100
0001
0100
0001
0010
0100
0010
0001
1000
0010
0100
0010
1000
0100
0010
0001
1000
0100
0010
0100
1000
0010
0100
0010
0100
0001
0010
0100
1000
0001
0010
0000
,
1100
0000
0100
0010
0001
1000
0001
1000
0100
0010
0100
1000
0010
1000
0100
0010
0001
0010
0001
1000
0010
1000
0100
0010
0100
1000
0010
0100
0001
0010
0100
0000
,
0110
0000
0000
0000
0010
0001
1000
0010
0100
0001
0010
0100
0010
0100
0010
1000
0100
0010
0100
1000
0010
0100
0001
0010
0001
1000
0001
0100
0001
0010
0100
0000
,
1100
0000
0000
0000
0100
1000
0001
1000
0001
0010
0100
0010
0001
1000
0001
0100
0001
0010
0001
0100
0001
0010
0100
1000
0010
0100
0010
0100
0001
0010
0100
0000
,
0110
0000
0000
0000
0100
0001
1000
0010
0100
0010
0100
0001
0100
0001
0010
0100
0010
0001
0100
0010
1000
0100
0010
0100
1000
0010
0100
0001
0010
0100
1000
0000
,
1100
0000
0000
0000
0010
0100
1000
0001
1000
0001
1000
0010
0100
0001
0010
0100
0010
0001
1000
0001
1000
0010
1000
0100
1000
0010
0100
0010
1000
0100
0010
0000
,
1100
0000
0000
0000
0010
0001
0100
0001
0010
0001
0100
0001
0010
0100
1000
0001
0010
0001
1000
0010
0100
0010
1000
0100
0010
0100
1000
0010
0100
0001
0010
0000
,
0110
0000
0000
0000
0100
0001
0100
0001
1000
0010
0100
0010
1000
0100
0010
0100
1000
0010
0100
0001
0010
0001
1000
0001
0100
0001
0010
0001
1000
0001
0100
0000
,
0101
0000
0000
0000
0010
0100
1000
0001
1000
0001
0010
0100
0010
0001
1000
0001
1000
0010
1000
0100
0010
0001
1000
0001
0100
0001
0010
0001
0010
0100
1000
0000
,
1100
0000
0000
0000
0100
1000
0001
1000
0001
1000
0010
1000
0001
1000
0100
1000
0010
0100
0010
0100
0001
0010
0100
0010
0001
1000
0001
0100
0001
0010
0100
0000
,
0110
0000
0000
0000
1000
0001
1000
0001
1000
0010
0100
0010
0100
0001
0010
0100
0010
0001
1000
0010
0100
0010
1000
0100
0010
0100
1000
0010
0100
0001
0010
0000
,
0011
0000
0000
0000
0010
0100
1000
0001
1000
0010
0100
0001
0010
0100
0010
0001
1000
0001
1000
0010
0100
0010
1000
0100
0010
0100
1000
0010
0100
0001
0010
0000
,
0110
0000
0000
0000
0100
1000
0001
1000
0001
1000
0010
0100
0001
0010
0100
1000
0001
1000
0001
0010
0100
0010
0001
1000
0010
0100
0010
0100
0001
0010
0100
0000
,
1100
0000
0000
0000
1000
0001
1000
0001
1000
0100
0010
0100
1000
0001
1000
0010
0100
0001
0100
0010
0100
0001
0010
0100
0010
0001
1000
0001
1000
0010
0100
0000
,
0101
0000
0000
0000
0001
0010
0100
1000
0001
1000
0100
0010
0100
1000
0010
0100
0010
0100
0001
0100
0010
1000
0100
0010
0001
1000
0100
0010
0100
1000
0001
0000
,
1001
0000
0000
0000
0001
1000
0001
1000
0100
0010
0100
1000
0010
0100
0001
0010
0100
0010
0100
1000
0001
1000
0001
1000
0010
0100
0001
0010
0100
0000
1000
0000
,
1100
0100
0110
0010
0101
0100
0110
0010
1010
1000
1100
0100
0101
0010
0110
0100
,
2202
0000
0000
0000
,
3303
0000
0000
0000
;
