#TITLE:Endless Possibility;
#SUBTITLE:Sonic Unleashed;
#ARTIST:Bowling for Soup;
#TITLETRANSLIT:;
#SUBTITLETRANSLIT:;
#ARTISTTRANSLIT:;
#CREDIT:Owem;
#BANNER:../banner.png;
#BACKGROUND:../bg.png;
#LYRICSPATH:;
#CDTITLE:../cdtitleowem.png;
#MUSIC:Sonic Unleashed - Endless Possibility.ogg;
#OFFSET:-0.095;
#SAMPLESTART:18.512;
#SAMPLELENGTH:29.999;
#SELECTABLE:YES;
#BPMS:0.000=208.500;
#STOPS:;
#BGCHANGES:;
// cache tags:
#FIRSTBEAT:16.000;
#LASTBEAT:856.125;
#SONGFILENAME:Songs/Owem's Simfiles 08 (not release)/Endless Possibility - [Owem]/Endless Possibility.sm;
#HASMUSIC:1;
#HASBANNER:1;
#MUSICLENGTH:248.712;
// end cache tags

//---------------dance-single - 12/4/15-8-8/15-31/4/----------------
#NOTES:
     dance-single:
     12/4/15-8-8/15-31/4/:
     Challenge:
     18:
     1.000,1.000,0.177,0.261,1.000,2714.000,44.000,65.000,2.000,0.000:

0000
0000
0000
0000
,
0000
0000
0000
0000
,
0000
0000
0000
0000
,
0000
0000
0000
0000
,
1000
0100
0010
0001
1000
0001
0100
0010
,
1000
0010
0100
0001
1000
0100
1000
0100
,
0010
0001
1000
0100
1000
0001
0100
0010
,
1000
0000
0001
0000
0010
0000
0100
1000
0001
0000
1000
0000
0010
0000
1000
0000
,
0001
0010
0100
1000
0001
0100
0010
1000
0010
0100
0001
1000
0010
1000
0100
0010
,
0001
1000
0100
1000
0010
0100
0001
1000
0010
1000
0001
0100
0010
0100
0001
1000
,
0010
1000
0100
1000
0001
0010
0001
0100
0010
1000
0001
0100
0001
1000
0100
0010
,
0001
1000
0100
1000
0010
0100
0001
0100
0010
1000
0100
1000
0001
0010
0100
1000
,
0001
1000
0010
0100
0001
1000
0010
1000
0100
0010
0001
1000
0010
1000
0001
0100
,
0010
0100
0001
1000
0010
0100
0001
0010
0001
1000
0100
0010
0100
1000
0001
0010
,
0001
1000
0010
1000
0001
0100
0010
1000
0001
0100
0001
1000
0100
0010
0100
1000
,
0001
0100
0001
1000
0010
0100
0001
1000
0100
0010
0001
0000
0100
0010
0100
0010
,
1000
0001
0100
0010
1000
0001
0010
0001
0100
0010
1000
0001
0010
0001
1000
0100
,
0010
0100
1000
0001
0010
0001
1000
0100
1000
0001
0100
0010
1000
0001
0100
0001
,
1000
0100
0010
0001
0100
0001
1000
0010
0100
0001
1000
0010
1000
0001
0100
0010
,
0100
0001
1000
0100
0010
0100
1000
0001
0010
0001
1000
0001
0100
0010
2000
0000
,
0000
3004
0100
0000
0010
0000
2003
3040
,
0100
0000
1000
0000
0100
0000
1030
4000
,
0001
0000
0100
0000
0010
0000
0100
3400
,
0010
0000
0000
0000
1000
0000
0000
0000
0010
0000
0000
0000
0310
0000
0001
1000
,
0001
0100
0010
1000
0010
0100
0001
1000
0010
1000
0001
1000
0100
0010
0001
1000
,
0100
1000
0010
0100
0001
1000
0010
1000
0100
0010
0001
1000
0100
1000
0001
0010
,
0001
0100
0010
1000
0001
0100
0010
0100
0001
1000
0010
1000
0100
0010
0001
1000
,
0100
1000
0001
0010
0001
1000
0100
0010
0100
1000
0001
1000
0010
0100
0001
0100
,
0010
1000
0010
0100
0001
1000
0100
0110
,
0010
0001
1000
0001
0100
0010
1000
1100
,
0100
0010
0001
1000
0010
0100
0001
1001
,
1000
0000
0100
0000
0010
0000
0001
0000
1000
0000
0010
0000
1000
0100
0010
0001
,
1000
0010
0100
0001
1000
0100
1000
0001
0100
0010
1000
0001
0100
0001
1000
0100
,
0010
0100
1000
0001
0010
0001
1000
0100
1000
0001
0100
0001
1000
0010
0100
0001
,
0100
0010
1000
0001
0010
0001
1000
0100
1000
0001
0100
0010
1000
0001
0010
0001
,
1000
0100
0010
0100
1000
0001
0100
0001
1000
0010
0100
0001
1000
0100
1000
0001
,
0100
0010
0100
0001
1000
0010
1000
0001
0100
0010
0100
0001
1000
0100
1000
0001
,
0010
0100
1000
0001
0010
0001
1000
0100
0010
0100
1000
0001
1000
0010
0100
0001
,
1000
0010
1000
0001
0100
0010
0100
0001
1000
0100
0010
0100
1000
0001
0010
0001
,
0100
0010
1000
0001
0100
0010
0100
0001
1000
0100
0010
0001
1000
0000
0010
0000
,
0100
0001
1000
0010
1000
0001
0100
0010
0100
0001
1000
0100
0010
0100
1000
0001
,
0010
0001
1000
0100
0010
0100
1000
0001
1000
0010
0100
0001
1000
0100
1000
0001
,
0100
0010
0100
0001
1000
0010
0100
0001
0100
0010
1000
0001
0100
0001
0010
0100
,
1000
0001
0010
0001
1000
0100
0010
0001
1000
0100
1000
0001
0100
0010
1000
0001
,
0100
0010
0100
0001
1000
0100
1000
0001
0100
0010
0100
0001
1000
0100
1000
0001
,
0010
0100
1000
0001
1000
0010
0100
0001
1000
0100
0010
0100
1000
0001
0010
0001
,
0100
0010
1000
0001
0100
0010
0100
0001
1000
0100
0010
0001
1000
0100
1000
0010
,
0200
0000
0000
0300
0002
0000
1003
0010
0100
0000
0010
0000
1000
0000
0001
0100
,
0010
1000
0001
0100
0010
0100
0001
1000
0010
1000
0100
0010
0001
1000
0100
1000
,
0001
0100
0001
0010
0100
1000
0001
0100
0010
1000
0001
1000
0100
0010
0001
1000
,
0100
1000
0010
0100
0001
1000
0100
1000
0001
0010
0001
0100
0010
1000
0001
0100
,
0010
0100
0001
1000
0100
1000
0001
0010
0001
1000
0100
0010
0100
1000
0001
0100
,
0001
1000
0010
0100
0001
1000
0100
0010
0001
1000
0100
1000
0001
0010
0001
1000
,
0100
1000
0001
0100
0010
1000
0001
0100
0001
1000
0100
0010
0001
1000
0100
1000
,
0001
0100
0010
1000
0001
0100
0001
0010
0100
1000
0001
0010
0001
1000
0100
0010
,
0100
1000
0001
0100
0010
1000
0001
0100
0001
1000
0100
0010
0001
0000
1000
0000
,
0020
0000
0000
0000
0130
0001
1000
0010
1000
0100
0010
0001
1000
0100
1000
0001
,
0100
0010
1000
0001
0100
0001
0010
0100
1000
0001
0010
0001
1000
0100
0010
0100
,
1000
0001
0100
0001
1000
0010
0100
0001
0100
0010
1000
0001
0100
0001
0010
0100
,
1000
0001
0010
0001
0100
0010
1000
0001
0100
0010
0100
0001
1000
0010
1000
0100
,
0010
0001
1000
0100
1000
0001
0010
0001
0100
0010
1000
0001
0100
0010
0100
0001
,
1000
0010
1000
0100
1000
0001
0010
0001
0100
0010
1000
0001
0100
0010
0100
0001
,
1000
0010
1000
0100
0010
0001
1000
0100
1000
0001
0100
0010
1000
0001
0010
0001
,
1000
0100
1000
0001
0010
0100
1000
0010
1000
0001
1000
0001
0100
0010
0100
0001
,
1000
0000
0010
0000
0100
0000
0101
0000
0001
0000
1000
0000
1010
0000
0010
1000
,
0001
0000
0010
0000
0100
0000
1100
0000
1000
0000
0010
0000
0110
0000
0100
0001
,
1000
0000
0100
0000
0010
0000
0011
0000
0001
0000
1000
0000
1010
0000
0010
0100
,
0001
0000
1000
0000
0100
0000
0110
0000
0010
0000
0001
0000
1000
0001
1000
0001
,
1000
0000
0100
0000
0010
0000
0011
0000
0001
0000
1000
0000
1010
0000
0010
0100
,
0001
0000
1000
0000
0100
0000
0110
0000
0010
0000
0001
0000
1001
0000
0001
0100
,
0010
0000
1000
0000
0010
0000
0110
0000
0100
0000
0001
0000
1000
0010
1000
0010
,
1000
0000
0001
0000
1000
0000
0100
0010
0001
0000
1000
0000
0010
0000
0100
0000
,
0001
1000
0100
1000
0010
0100
0001
1000
0100
1000
0001
0010
0100
1000
0001
1000
,
0010
0100
0001
1000
0010
1000
0001
0100
0010
1000
0001
0100
0010
0100
0001
1000
,
0010
1000
0100
0010
0001
1000
0100
1000
0001
0010
0001
1000
0100
0010
0100
1000
,
0001
0100
0001
1000
0100
0010
0001
1000
0100
1000
0001
0100
0010
1000
0001
0100
,
0010
0100
0001
1000
0100
1000
0001
0010
0100
1000
0001
1000
0010
0100
0001
1000
,
0100
1000
0001
0100
0010
0100
0001
1000
0010
1000
0100
0010
0001
1000
0100
1000
,
0001
0010
0001
1000
0100
0010
0100
1000
0001
1000
0010
0100
0001
1000
0100
1000
,
0001
0010
0100
1000
0001
1000
0010
0100
0001
1000
0010
1000
0100
0000
0010
0000
,
0001
1000
0100
1000
0010
0100
0001
1000
0100
1000
0001
0100
0001
0010
0100
1000
,
0001
0010
0001
1000
0100
1000
0010
0100
0001
1000
0001
0100
0010
1000
0001
0100
,
0001
0010
0100
1000
0001
0010
0001
1000
0100
0010
0100
1000
0001
1000
0010
0100
,
0001
1000
0100
1000
0001
0010
0100
1000
0001
0010
0001
1000
0100
1000
0001
0100
,
0010
1000
0001
0100
0010
0100
0001
1000
0010
1000
0100
0010
0001
1000
0100
1000
,
0001
0010
0001
0100
0010
1000
0001
0100
0001
1000
0100
0010
0100
1000
0001
1000
,
0010
0100
0001
1000
0100
1000
0001
0010
0100
1000
0001
1000
0100
1000
0001
0100
,
0010
1000
0001
0010
0100
0000
1000
0001
1000
0000
0100
0000
0010
0000
0001
0000
,
0100
0010
1000
0001
0100
0010
0100
0001
1000
0100
1000
0001
0010
0100
1000
0001
,
0010
0001
1000
0100
0010
0001
1000
0100
1000
0001
0100
0010
1000
0001
0100
0001
,
1000
0100
0010
0001
1000
0100
1000
0010
0100
0001
1000
0100
1000
0001
0100
0010
,
1000
0001
0100
0010
0100
0001
1000
0100
1000
0001
0010
0100
1000
0001
0010
0001
,
0100
0010
1000
0001
0100
0010
0100
0001
1000
0100
0010
0001
1000
0100
1000
0001
,
0100
0010
1000
0001
0100
0001
1000
0100
0010
0100
1000
0001
0100
0001
1000
0010
,
0100
0001
1000
0100
1000
0001
0010
0001
0100
0010
1000
0001
0100
0010
0100
0001
,
1000
0100
0010
0001
1000
0100
1000
0001
0100
0010
0100
0001
1000
0000
0100
0000
,
0010
0001
1000
0001
0100
0010
1000
0010
0100
0001
1000
0100
0010
0100
1000
0001
,
0100
0010
0100
0001
1000
0010
1000
0100
0010
0001
1000
0100
1000
0001
0100
0010
,
1000
0001
0100
0001
1000
0100
0010
0100
1000
0001
0010
0001
1000
0100
1000
0001
,
0100
0010
1000
0001
0100
0010
0100
0001
1000
0100
0010
0100
1000
0001
0100
0001
,
0010
0100
1000
0001
0010
0001
1000
0100
1000
0010
0100
0001
1000
0001
0100
0010
,
1000
0001
0100
0001
1000
0100
0010
0100
1000
0001
0100
0001
1000
0100
0010
0001
,
0100
0010
1000
0001
0100
0010
0100
0001
1000
0010
1000
0100
0010
0001
1000
0100
,
1000
0001
0010
0001
0100
0010
1000
0001
0100
0010
0100
0001
1000
0100
0010
0001
,
1000
0100
1000
0001
0100
0010
1000
0001
0100
0001
1000
0100
0010
0001
1000
0100
,
1000
0010
0100
0001
1000
0010
1000
0100
0010
0001
1000
0100
1000
0001
0100
0010
,
1000
0001
0100
0001
1000
0100
0010
0100
1000
0001
0010
0001
1000
0100
1000
0001
,
0100
0010
1000
0001
0100
0010
0100
0001
1000
0100
0010
0100
1000
0001
0100
0001
,
0010
0100
1000
0001
0010
0001
1000
0100
1000
0010
0100
0001
1000
0001
0100
0010
,
1000
0001
0100
0001
1000
0100
0010
0100
1000
0001
0100
0001
1000
0100
0010
0001
,
0100
0010
1000
0001
0100
0010
0100
0001
1000
0010
1000
0100
0010
0001
1000
0100
,
1000
0001
0010
0001
0100
0010
1000
0001
0100
0010
0100
0001
1000
0100
0010
0001
,
1000
0100
1000
0001
0100
0010
1000
0001
0100
0001
1000
0100
0010
0001
1000
0100
,
1000
0010
0100
0001
1000
0100
0010
0001
1000
0100
1000
0001
0100
0010
1000
0001
,
0100
0010
0100
0001
1000
0100
0010
0100
1000
0001
0010
0001
1000
0100
1000
0001
,
0100
0010
1000
0001
0100
0010
0100
0001
1000
0100
0010
0001
1000
0100
1000
0001
,
0010
0001
0100
0010
1000
0001
0100
0010
0100
0001
1000
0100
0010
0001
1000
0100
,
1000
0001
0010
0001
0100
0010
1000
0001
0100
0010
1000
0001
0100
0001
0010
0100
,
1000
0001
0010
0001
1000
0100
0010
0001
1000
0100
1000
0001
0100
0010
1000
0001
,
0010
0100
1000
0001
0100
0010
0100
0010
0100
0000
0001
0000
1000
0000
0100
0000
,
0020
0000
0031
0000
1001
0000
1000
0010
,
0100
0000
0101
0000
0001
0000
0001
0000
1001
0000
0000
0000
1000
0000
0100
0010
,
0001
1000
1020
0000
0130
0001
1000
1010
,
0000
1001
0001
0010
0110
0000
0100
0000
,
1000
1100
0100
0010
0011
0000
1001
1001
,
1000
0010
0000
0100
0101
0000
0001
1001
,
1000
0200
0310
0011
0000
0001
2001
0000
,
3010
0000
0100
0000
0001
0000
1000
0100
1000
0000
0010
0000
0100
0000
0001
0000
,
2000
0000
0000
3010
0100
0000
0001
0000
,
0102
0103
0000
0010
1000
0000
0001
0000
,
2001
0000
3100
0010
0001
0000
1000
0000
,
0020
0130
0001
1000
0100
0000
0010
0000
,
0002
0003
0200
0300
0020
0030
1000
0100
,
0020
0030
0001
0400
0000
0000
0320
0000
,
2030
0000
0000
0000
3002
0000
0000
0000
0023
0000
0000
0030
0200
0000
0300
0000
,
2000
0000
3000
0000
0020
0000
0230
0000
0301
1000
0001
0000
0100
0010
0100
0010
,
0100
0001
1000
0010
1000
0100
0010
0001
1000
0100
1000
0001
0100
0010
1000
0001
,
0100
0001
0010
0100
1000
0001
0010
0001
1000
0100
0010
0001
1000
0100
1000
0010
,
0100
0001
1000
0100
1000
0001
0100
0010
1000
0001
0100
0001
0010
0100
1000
0001
,
0010
0001
1000
0100
0010
0100
1000
0001
1000
0010
0100
0010
1000
0001
0100
0001
,
0010
0000
0100
0000
0000
0000
2100
0000
0000
0000
0000
3000
0000
0000
0010
0000
,
0100
0010
1000
0002
0000
0000
0013
0100
,
2000
0000
0000
3000
0010
0000
0100
0000
0002
0000
1003
0000
0200
0000
0000
0000
,
0310
0000
0002
0000
1003
0100
1000
0100
1000
0000
0010
0000
0100
0000
0001
0000
,
1000
0100
0010
0001
1000
0001
0100
0010
1000
0001
0100
0001
1000
0100
0010
0001
,
1000
0100
1000
0010
0100
0001
1000
0100
1000
0001
0010
0001
0100
0010
1000
0010
,
0100
0001
1000
0100
0010
0001
1000
0100
1000
0001
0100
0010
0100
0001
1000
0100
,
0010
0001
1000
0100
1000
0001
0100
0010
1000
0001
1000
0001
0100
0010
1000
0010
,
1000
0000
0000
0000
0001
0000
0100
0000
0010
0000
0100
0000
0001
1000
0001
1000
,
0001
0000
0010
0000
0100
1000
0001
1000
0010
0000
0100
0000
0001
0000
1000
0000
,
0200
0000
0000
0000
0310
0001
1000
0001
0100
0010
1000
0001
0100
0001
1000
0100
,
0010
0001
1000
0100
1000
0010
0100
0001
1000
0100
1000
0001
0010
0001
1000
0100
,
0010
0001
1000
0100
1000
0001
0100
0010
1000
0001
0100
0010
0100
0001
1000
0100
,
0010
0100
1000
0001
0010
0001
0100
0010
1000
0001
0100
0010
0100
0001
1000
0010
,
1000
0001
1000
0100
0010
0001
1000
0100
1000
0010
0100
0001
1000
0100
1000
0001
,
0010
0100
1000
0001
0010
0001
1000
0100
0010
0100
1000
0001
1000
0010
0100
0001
,
1000
0010
1000
0001
0100
0010
1000
0001
0100
0001
1000
0100
0010
0001
1000
0100
,
1000
0010
0100
0001
1000
0100
1000
0001
0010
0100
1000
0001
0100
0000
0010
0000
,
1000
0001
1000
0100
0010
0001
1000
0100
1000
0010
1000
0001
1000
0001
0100
0001
,
0010
0100
1000
0001
1000
0100
0010
0001
1000
0100
1000
0001
0100
0010
1000
0001
,
0100
0010
0100
0001
1000
0010
1000
0100
0010
0001
1000
0100
1000
0001
0100
0010
,
1000
0001
0100
0010
1000
0001
0100
0001
1000
0100
0010
0100
1000
0001
0100
0001
,
1000
0100
0010
0100
1000
0001
1000
0010
0100
0001
1000
0001
0010
0100
1000
0001
,
0010
0001
1000
0010
0100
0001
1000
0010
1000
0100
0010
0001
1000
0100
1000
0001
,
0100
0010
1000
0010
0100
0001
1000
0100
1000
0001
0010
0001
1000
0100
0010
0100
,
1000
0001
1000
0010
0100
0001
1000
0100
0010
0000
0001
0000
1000
0000
0001
0000
,
0400
0320
0230
0302
,
1003
0100
0020
0000
0032
0000
2003
0000
,
3400
2300
3020
0230
,
0302
0000
0000
0003
1000
0000
0200
0000
1300
0000
0020
0000
0130
0000
0002
0000
,
1000
0000
0000
0000
2000
0000
0000
3000
1000
0000
0000
0000
1003
0000
0010
0000
,
0100
0000
0001
1000
0001
0010
0000
0100
,
1000
0001
0100
0000
0110
0000
0010
1000
,
0002
0103
0100
0010
1000
0001
1000
0000
,
1MM2
0000
0023
0000
0230
0000
2300
3010
,
0100
0001
2000
3100
0020
0032
2003
0040
,
3000
0030
0200
0000
0302
0000
2003
0000
,
3200
0000
0310
0002
0000
2003
0000
3020
,
0000
0130
0000
0001
0101
0000
0100
0010
,
1000
0010
0110
0000
0100
0001
1000
0001
,
0011
0000
0000
0000
0020
0000
0000
0130
1000
0000
0001
0000
1000
0000
0000
0000
,
0010
0100
0001
1000
1000
0010
0010
0100
,
0200
0000
0301
0000
1000
0100
0010
0001
0100
0001
1000
0100
1000
0001
0100
0010
,
1000
0001
0100
0001
1000
0100
0010
0100
1000
0001
0010
0001
1000
0100
1000
0001
,
0100
0010
1000
0001
0100
0010
0100
0001
1000
0100
0010
0100
1000
0001
0100
0001
,
0010
0100
1000
0001
0010
0001
1000
0100
1000
0010
0100
0001
1000
0001
0100
0010
,
1000
0001
0100
0001
1000
0100
0010
0100
1000
0001
0100
0001
1000
0100
0010
0001
,
0100
0010
1000
0001
0100
0010
0100
0001
1000
0010
1000
0100
0010
0001
1000
0100
,
1000
0001
0010
0001
0100
0010
1000
0001
0100
0010
0100
0001
1000
0100
0010
0001
,
1000
0100
1000
0001
0100
0010
1000
0001
0100
0001
1000
0100
0010
0001
1000
0100
,
1000
0010
0100
0001
1000
0010
1000
0100
0010
0001
1000
0100
1000
0001
0100
0010
,
1000
0001
0100
0001
1000
0100
0010
0100
1000
0001
0010
0001
1000
0100
1000
0001
,
0100
0010
1000
0001
0100
0010
0100
0001
1000
0100
0010
0100
1000
0001
0100
0001
,
0010
0100
1000
0001
0010
0001
1000
0100
1000
0010
0100
0001
1000
0001
0100
0010
,
1000
0001
0100
0001
1000
0100
0010
0100
1000
0001
0100
0001
1000
0100
0010
0001
,
0100
0010
1000
0001
0100
0010
0100
0001
1000
0010
1000
0100
0010
0001
1000
0100
,
1000
0001
0010
0001
0100
0010
1000
0001
0100
0010
0100
0001
1000
0100
0010
0001
,
1000
0100
1000
0001
0100
0010
1000
0001
0100
0001
1000
0100
0010
0001
1000
0100
,
1000
0010
0100
0001
1000
0100
0010
0001
1000
0100
1000
0001
0100
0010
1000
0001
,
0100
0010
0100
0001
1000
0100
0010
0100
1000
0001
0010
0001
1000
0100
1000
0001
,
0100
0010
1000
0001
0100
0010
0100
0001
1000
0100
0010
0001
1000
0100
1000
0001
,
0010
0001
0100
0010
1000
0001
0100
0010
0100
0001
1000
0100
0010
0001
1000
0100
,
1000
0001
0010
0001
0100
0010
1000
0001
0100
0010
1000
0001
0100
0001
0010
0100
,
1000
0001
0010
0001
1000
0100
0010
0001
1000
0100
1000
0001
0100
0010
0100
0001
,
1000
0100
0010
0001
1000
0100
1000
0001
0100
0010
1000
0001
0100
0001
1000
0100
,
0010
0001
1000
0010
1000
0001
0100
0010
1000
0001
0010
0100
1000
0001
0010
0001
,
1000
0100
0010
0001
1000
0001
0100
0010
,
1000
0001
0100
0001
1000
0001
1000
0100
,
0010
0001
1000
0100
1000
0010
0100
0001
,
1000
0100
1000
0001
1000
0010
0100
0001
,
1000
0100
0010
0001
1000
0001
0100
0001
,
1000
0010
0100
0001
1000
0001
0100
0010
,
1000
0001
1000
0010
1000
0010
0100
0010
,
0100
0001
0100
0001
1000
0010
1000
0002
,
0000
0003
0000
0000
0000
0000
0000
0000
0000
0000
0000
0000
0000
0000
0000
0000
0000
0000
0000
0000
0000
0000
0000
0000
0000
0000
0000
0000
0000
0000
0000
0000
;
