#TITLE:Toy Stage;
#SUBTITLE:;
#ARTIST:Capcom;
#TITLETRANSLIT:;
#SUBTITLETRANSLIT:;
#ARTISTTRANSLIT:;
#CREDIT:;
#BANNER:TOYBN.png;
#BACKGROUND:TOYBG.png;
#LYRICSPATH:;
#CDTITLE:CDtitle1.png;
#MUSIC:08_toy_stage.mp3;
#OFFSET:-0.350;
#SAMPLESTART:9.440;
#SAMPLELENGTH:12.000;
#SELECTABLE:YES;
#BPMS:0.000=105.800;
#STOPS:;
#BGCHANGES:;
// cache tags:
#FIRSTBEAT:0.000;
#LASTBEAT:119.750;
#SONGFILENAME:Songs/KBU/Toy Stage (DAshoe)/Toy Stage.sm;
#HASMUSIC:1;
#HASBANNER:1;
#MUSICLENGTH:84.617;
// end cache tags

//---------------dance-single - Blank----------------
#NOTES:
     dance-single:
     Blank:
     Hard:
     11:
     1.000,1.000,1.000,0.685,1.000,388.000,210.000,58.000,0.000,10.000:
1100
1000
1100
0011
0000
0101
0000
0011
0000
0011
1100
0100
1010
1000
1001
0000
,
0011
0001
0011
1100
0000
1010
0000
1100
0000
1100
0011
0010
0101
0001
1001
0000
,
1010
0100
1010
0101
0000
1001
0000
0101
0000
0101
0110
0010
0110
0100
1001
0000
,
0101
0010
0101
1010
0000
1001
0000
1010
0000
1010
0110
0100
0110
0010
1001
0000
,
1010
0101
0011
0101
0000
1010
0100
1010
0101
0011
1001
0101
0010
1010
1001
1010
,
1100
1010
0100
0011
0101
1001
0100
1010
1001
0101
0000
0101
0101
0011
0101
1001
,
2000
3200
0320
0032
0023
0230
2300
3020
0000
0032
0203
0320
2030
3200
0320
0032
,
0000
0000
0003
0002
0000
0000
0000
0000
0003
0002
0000
0000
0000
0000
0000
0023
0000
0000
0230
0000
0000
0302
0000
0000
0023
0000
0000
2030
0000
0000
3200
0000
0000
0320
0000
0000
0030
0000
0000
0001
0000
0000
0110
0000
0000
0100
0000
0000
,
1000
0100
0011
1000
0100
0010
1100
0010
0001
0010
1100
0001
0000
0001
0110
0100
,
1000
0000
0100
0000
0011
0000
1000
0000
0100
0000
0010
0000
0101
0000
0010
0000
0100
0000
1000
0000
0011
0000
0100
0000
0000
0000
0010
0000
0010
0100
0010
0100
,
0011
0000
0000
0101
0000
0000
1001
0000
0000
0000
0000
0000
0110
0000
0000
0000
0000
0000
1001
0000
0000
0000
0000
0000
1000
0100
0010
0001
2000
0000
0000
0000
0000
0000
3000
0000
0000
0000
0000
0110
0000
0000
0110
0000
0000
0101
0000
0000
,
1001
1001
1001
1001
0101
0011
1100
1010
2002
0000
0000
0000
0000
0000
3003
0000
,
1000
1000
0000
0010
0000
0001
0000
0001
0010
0100
1000
0010
0000
0010
0001
1000
,
0011
0000
0000
0011
0000
0000
0000
0000
0000
0011
0000
0000
0000
0000
0000
0011
0000
0000
0000
0000
0000
0011
0000
0000
0000
0000
0000
1001
0000
0000
0000
0000
0000
1001
0000
0000
1100
0000
0000
0000
1010
0000
0000
0000
0101
0000
0000
0000
,
2012
0010
0010
0000
0000
0100
0000
3103
0010
1100
0110
0011
0110
1100
0110
0011
,
0011
0001
0011
1100
0000
1010
0000
1100
0000
1100
0011
0010
0101
0001
1001
0000
,
1100
1000
1100
0011
0000
0101
0000
0011
0000
0011
1100
0100
1010
1000
1001
0000
,
0101
0010
0101
1010
0000
1001
0000
1010
0000
1010
0110
0100
0110
0010
1001
0000
,
1010
0100
1010
0101
0000
1001
0000
0101
0000
0101
0110
0010
0110
0100
1001
0000
,
0101
1010
1100
1010
0000
0101
0010
0101
1010
1100
1001
1010
0100
0101
1001
0101
,
0011
0101
0010
1100
1010
1001
0010
0101
1001
1010
0000
1010
1010
1100
1010
1001
,
0002
0203
2300
3020
2030
3200
0302
2003
0000
3020
0230
2300
3002
0203
2300
3020
,
0000
0000
0030
0020
0000
0000
0000
0000
0030
0020
0000
0000
0000
0000
0000
2030
0000
0000
3200
0000
0000
0320
0000
0000
2030
0000
0000
3002
0000
0000
0203
0000
0000
2300
0000
0000
3000
0000
0000
1000
0000
0000
0110
0000
0000
0010
0000
0000
,
0001
0010
1100
0001
0010
0100
0011
0100
1000
0100
0011
1000
0000
1000
0110
0010
,
0001
0000
0010
0000
1100
0000
0001
0000
0010
0000
0100
0000
1010
0000
0100
0000
0010
0000
0001
0000
1100
0000
0010
0000
0000
0000
0100
0000
0100
0010
0100
0010
,
1100
0000
0000
1010
0000
0000
1001
0000
0000
0000
0000
0000
0110
0000
0000
0000
0000
0000
1001
0000
0000
0000
0000
0000
0001
0010
0100
1000
0002
0000
0000
0000
0000
0000
0003
0000
0000
0000
0000
0110
0000
0000
0110
0000
0000
1010
0000
0000
,
1001
1001
1001
1001
1010
1100
0011
0101
2002
0000
0000
0000
0000
0000
3003
0000
,
0001
0001
0000
0100
0000
1000
0000
1000
0100
0010
0001
0100
0000
0100
1000
0001
,
1100
0000
0000
1100
0000
0000
0000
0000
0000
1100
0000
0000
0000
0000
0000
1100
0000
0000
0000
0000
0000
1100
0000
0000
0000
0000
0000
1001
0000
0000
0000
0000
0000
1001
0000
0000
0011
0000
0000
0000
0101
0000
0000
0000
1010
0000
0000
0000
,
2102
0100
0100
0000
0000
0010
0000
3013
0100
0011
0110
1100
0110
0011
0110
1100
;
