#TITLE:Get on Beat;
#SUBTITLE:(WILD STYLE);
#ARTIST:Lion Musashi;
#TITLETRANSLIT:;
#SUBTITLETRANSLIT:;
#ARTISTTRANSLIT:;
#CREDIT:;
#BANNER:GOBWS.png;
#BACKGROUND:GOBWS-bg.png;
#LYRICSPATH:;
#CDTITLE:Jimbo.png;
#MUSIC:Get on Beat (WILD STYLE).mp3;
#OFFSET:0.000;
#SAMPLESTART:31.665;
#SAMPLELENGTH:14.300;
#SELECTABLE:YES;
#DISPLAYBPM:134.000;
#BPMS:0.000=143.101,3.000=134.000;
#STOPS:;
#BGCHANGES:;
// cache tags:
#FIRSTBEAT:3.000;
#LASTBEAT:255.000;
#SONGFILENAME:Songs/Fabulously Fresh Flock of Fantastic Files F5/(Jimbo) GET ON BEAT (WILD STYLE)/Get On Beat (WILD STYLE).sm;
#HASMUSIC:1;
#HASBANNER:1;
#MUSICLENGTH:121.443;
// end cache tags

//---------------dance-single - ----------------
#NOTES:
     dance-single:
     :
     Hard:
     12:
     1.000,1.000,1.000,0.082,1.000,734.000,187.000,10.000,0.000,0.000:

0000
0000
0000
0000
0000
0000
0000
0000
0000
0000
0000
0000
1001
0100
0010
0101
,
0000
1000
1000
0000
1010
0100
0001
0110
0000
0010
0010
0000
0101
0010
1000
1001
,
0000
1000
1000
0000
1100
0010
0001
0110
0000
0001
0101
0000
0010
1000
0101
1010
,
0000
1000
1000
0001
1000
0001
1000
0001
1000
0100
0010
0001
0100
0001
1000
0100
,
0010
0100
1000
0001
0110
0001
1000
0010
0101
0010
1000
0100
1001
0000
0100
0001
,
1000
0001
0100
1010
0001
0000
0001
0100
0010
1000
0100
1010
0001
0000
0100
0010
,
1000
0100
1000
0101
0010
0000
0001
0100
1000
0100
0001
1010
0101
0000
1000
0001
,
1000
0010
0100
1010
1001
0000
0001
1000
0100
0010
0001
0100
0001
1000
0001
1000
,
0001
1000
0001
1000
0100
0010
0100
0010
0100
0010
0100
0010
1001
0000
0100
0010
,
0101
0000
1000
0100
0011
0000
1001
0000
0101
0000
1010
0000
0110
0000
0001
0100
,
1001
0000
1000
0001
0110
0000
0010
1001
0100
0000
0011
0000
0110
0000
1000
1000
,
1100
0000
0001
0001
0101
0000
1001
0000
1010
0000
0100
0010
0000
0010
0100
0000
,
0101
0000
0010
1000
0000
1010
0101
0000
0110
0000
0010
0100
1001
0000
0010
1000
,
0101
0010
1000
0001
0110
0000
1000
0100
0011
0100
0001
1000
0110
0000
0100
0001
,
1010
0100
0001
1000
0101
0000
0010
0001
1100
0001
0010
0100
0011
0000
0100
0010
,
1001
0100
0001
0100
1010
0000
1000
0010
0101
0010
1000
0100
0011
0000
0100
0001
,
1001
0100
0010
0001
1100
0001
0010
0100
1000
0100
0010
0001
1000
0001
1000
0001
,
1000
0001
1000
0001
1100
0001
1000
0001
0100
0010
1000
0100
1001
0000
0100
0010
,
1000
0001
0010
0100
1000
0100
0010
0001
0100
0010
1010
0000
0110
0000
1010
0100
,
0001
1000
0010
0100
0001
1000
0001
1000
0010
0100
0101
0000
0110
0000
1001
0100
,
0010
0001
0010
0001
1100
0010
0100
0001
0100
0010
1000
0010
1000
0010
1000
0010
,
1100
0010
1000
0010
0100
0001
0100
0001
1010
0001
0100
0001
0110
0000
0010
1000
,
1010
0000
0001
0100
0101
0000
1000
0100
1010
0000
0001
1100
0010
0000
0100
0010
,
0110
0000
1000
0011
0100
0000
0110
1000
0001
0000
0010
0100
1001
0000
0010
1000
,
0101
0010
1000
0010
0101
0010
1000
0100
0011
0100
0010
0000
0110
0000
1001
0100
,
0010
0001
0010
0100
1000
0010
1000
0100
0010
0100
1000
0001
0000
0000
0220
0000
,
0000
0000
0000
0330
0000
2002
0000
0000
0000
3003
0101
0000
1001
0000
0100
0000
,
0010
0000
1000
0001
0100
0000
0001
0000
0011
0000
1000
0010
0100
0000
0010
0000
,
0101
0000
1000
0001
0101
0000
0010
0000
0110
0000
1000
0010
1010
0000
0100
0000
,
1001
0000
0100
0010
0110
0000
1000
0000
0110
0000
0001
0100
2001
0000
0100
0000
,
0010
0000
3001
1000
2100
0000
0010
0000
0001
0000
3100
0010
0011
0000
1000
0000
,
0101
0000
0010
1000
0101
0000
0010
0000
0110
0000
1000
0100
0110
0000
0011
0000
,
0110
0000
1000
0001
0110
0000
1010
0000
0101
0000
1000
1000
0110
0001
0000
0000
,
1010
0001
0000
0000
0100
0010
0000
0000
1100
0001
0000
0000
1000
0000
1010
0000
,
0100
0000
0101
0000
1000
0000
1100
0000
0001
0000
0101
0010
1001
0000
1100
0000
,
0011
0000
1000
0001
0100
0000
1001
0000
1010
0000
0100
0010
1001
1001
1001
1001
,
1001
1001
1001
1001
1001
1001
1001
1001
1001
1001
1001
1001
0220
0000
0000
0000
,
0000
0000
0000
0330
0001
0000
0000
1000
0110
0000
0100
0000
1001
0000
0000
0100
,
0010
0000
0000
0010
0001
0000
0000
0001
0100
0000
0000
0100
0010
0000
0000
0010
,
1000
0000
0000
0001
0100
0000
0000
1000
0100
0000
0000
0010
0001
0000
0000
0100
,
0010
0000
0000
1000
0001
0000
0000
0001
1000
0000
0000
0001
1000
0010
1000
0010
,
1000
0010
1000
0010
0100
0001
0100
0001
0100
0001
0100
0001
1010
0000
1000
0100
,
1000
0000
0010
0100
0010
0000
1000
0001
0100
0000
0001
0010
0100
0000
1000
0100
,
0010
0000
0001
0100
0010
0000
1000
1000
0001
0000
0100
0100
0010
0000
1000
0010
,
0101
0000
0001
0010
1100
0000
0001
0100
1010
0000
0100
0010
1001
0100
0010
0001
,
0100
0001
0100
0001
0100
0010
1000
0100
0010
0001
1000
0001
0110
0000
1010
0000
,
0001
0101
0010
0110
1000
1010
0100
1001
,
0100
1010
0100
0101
0010
1001
0100
1100
,
1000
0101
0010
0110
0001
1100
0010
0110
,
1000
0000
0011
0000
0001
0000
1100
0000
0010
0000
0011
0000
1001
0000
0100
0010
,
1000
0000
0001
0100
0010
0000
1000
0100
0010
0000
0001
1000
0001
0000
0100
0010
,
0100
0000
0001
1000
0100
0000
1000
0100
1000
0000
0001
0100
0001
0000
1000
1000
,
1000
0000
0010
0010
0010
0000
0100
0100
0100
0000
0001
0001
1000
0000
0101
0000
,
0000
0000
0101
0000
1000
0000
0001
0100
0010
0000
0110
0000
1001
0000
1000
0100
,
1000
0010
1000
0001
0110
0000
0010
1000
0100
0001
0100
1000
0011
0000
0100
0001
,
0010
0100
1000
0100
1010
0000
0001
0100
0010
1000
0010
0100
1001
0000
1000
0010
,
0100
0001
0010
0100
1001
0000
0010
1000
0100
0010
0001
1000
0110
0000
0001
1000
,
0001
1000
0001
0100
1010
0000
0010
0100
0001
1000
0001
0100
1010
0000
0100
0010
,
1001
0100
0010
1001
0100
0000
0010
1000
0101
0010
1000
0101
0010
0000
0010
1000
,
0101
0010
1000
0110
0001
0000
0100
0001
1100
0001
0010
1100
0011
0000
0001
0100
,
1010
0001
0100
1010
0101
0000
1000
0001
0110
0001
1000
0100
0011
1000
0001
1000
,
0001
1000
0001
0100
0010
1000
0100
0010
0001
0100
0010
0110
2002
0000
0000
0000
,
0000
0000
0000
0000
,
0000
0000
0000
3003
;
