#TITLE:革命;
#SUBTITLE:-Advanced Piano Step-;
#ARTIST:dj TAKA Feat. Naoki;
#TITLETRANSLIT:Kakumei;
#SUBTITLETRANSLIT:;
#ARTISTTRANSLIT:;
#CREDIT:;
#BANNER:kakumei.png;
#BACKGROUND:kakumei-bg.png;
#LYRICSPATH:;
#CDTITLE:!djnaux.png;
#MUSIC:DDRMAX2_-_Kakumei.mp3;
#OFFSET:-1.671;
#SAMPLESTART:43.332;
#SAMPLELENGTH:12.000;
#SELECTABLE:YES;
#BPMS:0.000=147.900,28.250=100.000,33.750=147.900;
#STOPS:;
#BGCHANGES:;
// cache tags:
#FIRSTBEAT:0.000;
#LASTBEAT:254.000;
#SONGFILENAME:Songs/Community Keyboard Megapack - Volume 1/(Taren) Kakumei/kakumei3.sm;
#HASMUSIC:1;
#HASBANNER:1;
#MUSICLENGTH:111.444;
// end cache tags

//---------------dance-single - ----------------
#NOTES:
     dance-single:
     :
     Hard:
     10:
     1.000,0.969,0.224,0.000,1.000,875.000,25.000,0.000,0.000,0.000:
1000
1010
0000
1010
1000
1010
0000
1010
,
1000
0000
1010
0000
0000
0000
1010
0000
1000
0000
1010
0000
1000
0000
0010
0100
,
0001
0011
0000
0011
0001
0011
0000
0011
,
0001
0011
0000
0011
0001
0011
0001
0110
,
1001
0000
0010
0001
0100
0010
1000
0100
0010
0001
0010
0100
1000
0001
0010
0100
,
1000
0100
1000
0100
0010
0001
0010
0100
1000
0001
0010
0100
1000
0001
0010
0100
,
0010
0100
1000
0100
0010
0100
1000
0001
0100
0010
1000
0100
0010
0001
0100
0010
,
1000
0100
0010
0001
0100
0010
1000
0100
0010
0001
1000
0100
0010
0001
0010
0100
,
1001
0000
0000
0000
0100
0000
0000
0010
0000
0000
0000
0001
0000
0000
1000
0000
0100
0000
0010
0000
0001
0000
0010
0000
0100
0000
1000
0000
0100
0000
0010
0000
,
0001
0010
0100
1000
0100
0010
0001
0010
0100
1000
0001
0010
0100
0000
0000
1000
,
0001
0000
0100
0010
1000
0100
0010
0000
0001
0010
0100
1000
0001
0000
0000
0001
,
1000
0000
0100
0010
0001
0010
0100
1000
0100
0010
0001
0100
0010
0000
0000
1000
,
0001
0000
0100
0010
1000
0100
0010
0001
0010
0100
1000
0100
0010
0000
0000
0001
,
1000
0000
0100
0010
0001
1000
0100
0010
0100
1000
0100
0010
0001
0010
0100
1000
,
0110
0000
0010
1000
0100
0010
0001
0010
0100
1000
0100
0010
0001
0000
0000
1000
,
0100
0000
0000
0001
0010
0100
1000
0100
0010
0100
1000
0001
0100
0010
1000
0100
,
0010
1000
0100
0010
0001
1000
0100
0010
0001
1000
0100
0010
0001
1000
0100
0010
,
0001
0010
0100
1000
0001
0010
0100
1000
0001
0010
0100
1000
0001
0000
0000
0100
,
0010
0000
1000
0100
0010
0001
0010
0100
1000
0001
0100
0010
1000
0000
0000
0100
,
0001
1000
0100
0010
0001
0100
0010
1000
0100
0010
0001
0100
0010
0000
0000
1000
,
0100
0000
0010
0001
0100
0010
1000
0100
0010
0001
0100
0010
1000
0000
0000
0100
,
1000
0000
0100
0010
0001
0000
1000
0001
0001
0000
1000
0000
0001
0000
1000
0000
,
1000
0000
0100
0010
0001
0000
0100
0010
1000
0000
0100
0010
0001
0000
0100
0010
,
1000
0001
1000
0001
1000
0001
1001
0001
,
1001
0000
0000
0000
0001
0000
0010
0000
0100
0000
1000
0000
0100
0000
0010
0000
0001
0000
0000
0010
0100
0000
1000
0000
0100
0000
0000
0000
0000
0000
0010
0000
,
0001
0000
0001
0010
0100
1000
0001
0010
0100
1000
0001
0010
0100
1000
0001
0010
,
1100
0000
1000
0100
0010
0001
0010
0100
1000
0100
0010
0001
0010
0000
0000
0100
,
1000
0000
1000
0100
0010
0001
1000
0100
0010
0001
1000
0100
0010
0000
0000
0001
,
1000
0100
0010
0100
1000
0001
0010
0100
0010
0001
1000
0100
0010
0000
0000
0001
,
1000
0000
0001
0100
0010
1000
0100
0010
0001
0100
0010
1000
0100
0000
0000
0010
,
0001
0000
0100
0010
0001
0010
0100
1000
0001
0010
0100
1000
0001
0000
0000
0010
,
1000
0000
0100
1000
0010
0100
0001
0010
0100
1000
0100
0010
0001
0000
0000
0100
,
0010
0000
1000
0100
0010
0001
0010
0100
0010
0001
0100
0010
1000
0001
0100
0010
,
1000
0100
0010
0001
0010
0100
0010
0100
1000
0100
0010
0001
1000
0100
0010
0001
,
1001
1000
0100
0010
0001
1000
0100
0010
0100
1000
0001
0010
0100
0010
0001
1000
,
0100
0010
0001
1000
0010
0100
0001
1000
0100
0010
0001
0010
0100
1000
0100
0010
,
0001
1000
0010
0100
0001
0100
0010
1000
0100
0010
0001
0010
0100
1000
0100
0010
,
0001
1000
0100
0010
0001
1000
0010
0100
0001
0010
0100
1000
0100
0000
0000
0010
,
0001
0000
1000
0100
0010
0001
0100
0001
0010
0100
1000
0100
0010
0001
0010
0001
,
0100
0010
1000
0100
0010
0100
1000
0001
0010
0100
1000
0010
0100
0000
0000
0001
,
1000
0100
0010
0001
0100
0010
1000
0100
0010
0001
0100
0010
1000
0100
0010
0001
,
0100
0010
1000
0010
0100
0010
1000
0100
0010
0001
0100
0010
1000
0000
0000
0100
,
1000
0010
0100
0001
1000
0010
0100
0001
1000
0010
0100
0001
1000
0010
0100
0001
,
0010
0100
1000
0001
0010
0100
1000
0001
1000
0100
0010
0001
1000
0100
0010
0001
,
1000
0100
0010
0001
0010
0100
1000
0100
0010
0001
0010
0100
1000
0100
0010
0000
,
0000
0000
0001
0010
0100
1000
0001
0010
0100
1000
0001
0010
0100
0000
0000
1000
,
0100
0000
0010
0001
0100
0010
1000
0100
0010
0001
1000
0100
0010
0000
0000
0001
,
1000
0000
0100
0010
0001
0100
0010
1000
0100
0010
0001
0100
0010
0000
0000
1000
,
0001
0000
0100
0010
0001
0010
0100
1000
0100
0010
0001
0010
0100
0000
0000
1000
,
0010
0000
0100
0001
0010
0100
1000
0010
0100
0001
0010
0100
1000
0100
0010
0001
,
1000
0000
0100
0010
0001
0010
0100
0010
0001
0010
0100
0010
0001
0010
0100
1000
,
0010
0100
0001
0010
0100
1000
0010
0100
0001
1000
0100
0010
0001
0010
0100
1000
,
0100
0010
0001
0010
0100
1000
0100
0010
0001
1000
0100
0010
0001
0100
0010
1000
,
0100
0010
0001
0010
0100
1000
0100
0010
0100
1000
0100
0010
0001
0010
0100
0010
,
0001
0010
0100
1000
0100
0010
0001
0100
0010
1000
0010
0100
0010
1000
0100
0010
,
0001
1000
0100
0010
0001
1000
0001
0100
0001
0010
0100
1000
0100
1000
0010
1000
,
0100
0010
0001
0100
0010
1000
0100
0010
0001
1000
0100
0010
0001
0010
0100
1000
,
0100
0010
0001
1000
0100
0010
0001
0010
0100
1000
0100
0010
0001
0100
0010
1000
,
0100
0001
0010
0001
0100
0001
0010
0001
0100
0001
0010
0001
0100
0001
0010
0001
,
1000
0100
0010
0100
1000
0100
0010
0100
1000
0100
0010
0100
1000
0100
0010
0100
,
1000
0001
0100
0010
1000
0000
0010
0100
0001
1000
0100
0010
0001
0000
0100
0010
,
1000
0100
0010
0001
1000
0000
0000
0010
0100
0001
1000
0100
1000
0000
0010
0100
,
0001
1000
0100
0010
0001
0000
1000
0100
0010
0001
0100
0010
1000
0000
0010
0100
,
0001
0000
0100
0000
0010
0000
1001
1001
1001
0000
0000
0000
0000
0000
0000
0000
;
