#TITLE:Yura-Yura Sweet Genocide;
#SUBTITLE:feat. t+pazolite;
#ARTIST:Kobaryo;
#TITLETRANSLIT:;
#SUBTITLETRANSLIT:;
#ARTISTTRANSLIT:;
#CREDIT:;
#BANNER:yurayura-bn.png;
#BACKGROUND:yurayura-bg.png;
#LYRICSPATH:;
#CDTITLE:;
#MUSIC:12 Yura-Yura Sweet Genocide [feat. t+pazolite].ogg;
#OFFSET:-0.148;
#SAMPLESTART:128.456;
#SAMPLELENGTH:12.000;
#SELECTABLE:YES;
#BPMS:0.000=260.000;
#STOPS:;
#BGCHANGES:;
// cache tags:
#FIRSTBEAT:36.000;
#LASTBEAT:686.000;
#SONGFILENAME:Songs/SPEEEDCOOOORE 4/Yura-Yura Sweet Genocide - [Rynker]/yurayura.sm;
#HASMUSIC:1;
#HASBANNER:1;
#MUSICLENGTH:163.278;
// end cache tags

//---------------dance-single - Rynker----------------
#NOTES:
     dance-single:
     Rynker:
     Challenge:
     21:
     1.000,1.000,0.116,0.533,1.000,1241.000,19.000,87.000,0.000,0.000:
0000
0000
0000
0000
,
0000
0000
0000
0000
,
0000
0000
0000
0000
,
0000
0000
0000
0000
,
0000
0000
0000
0000
,
0000
0000
0000
0000
,
0000
0000
0000
0000
,
0000
0000
0000
0000
,
0000
0000
0000
0000
,
2000
0000
3002
0000
,
0203
0000
0320
0000
,
2030
0000
3020
0000
,
0230
0000
0302
0000
,
2003
0000
0000
3000
2000
0000
0000
0000
,
3020
0000
0230
0000
,
0320
0000
2030
0000
,
3002
0000
0000
0003
0000
0000
0000
0000
,
1000
0001
0100
0010
1000
0100
0010
0001
,
0000
1000
0001
0100
0010
0100
0001
0000
,
1000
0000
0100
0010
0001
0000
1000
0000
0001
0000
0100
0000
0010
0000
1000
0000
,
0000
0000
0010
0000
0100
0000
0001
0000
1000
0000
0100
0010
0001
0000
1000
0000
,
0010
0100
0001
1000
0100
0010
0100
1000
,
0000
0001
0100
0010
0100
0001
1000
0000
,
0100
0000
0010
0001
1000
0000
0001
0000
0100
0000
0010
0000
1000
0000
0001
0000
,
0000
0000
1000
0000
0100
0000
0010
0000
0100
0000
1000
0001
0100
0000
0001
0000
,
0010
0100
1000
0001
0100
0010
0100
0001
,
0000
1000
0100
0010
0100
1000
0001
0000
,
0100
0000
0010
1000
0001
0000
1000
0000
0100
0000
0010
0000
0001
0000
1000
0000
,
0000
0000
0001
0000
0100
0000
0010
0000
0100
0000
0001
1000
0100
0000
1000
0000
,
0010
0100
0001
1000
0100
0010
0100
1000
,
0000
0001
0100
0010
0100
0001
1000
0000
,
0100
0000
0010
0001
1000
0000
0001
0000
0100
0000
0010
0000
1000
0000
0001
0000
,
0000
0000
1000
0000
0100
0000
0010
0000
0100
0000
1000
0001
0100
0000
0001
0000
,
0000
0000
0000
0000
,
0000
0000
0000
0000
,
1000
0010
0100
0010
1000
0001
1000
0100
0010
0001
1000
0001
0100
0010
1000
0001
,
1000
0100
0010
0001
1000
0001
0100
0001
1000
0100
0010
0001
1000
0010
1000
0001
,
1000
0100
0010
0100
1000
0001
1000
0010
0100
0001
1000
0001
0010
0100
1000
0001
,
1000
0010
0100
0001
1000
0001
0010
0001
1000
0010
0100
0001
1000
0100
1000
0001
,
1000
0100
0010
0100
1000
0001
1000
0010
0100
0001
1000
0001
0010
0100
1000
0001
,
1000
0010
0100
0001
1000
0001
0010
0001
1000
0010
0100
0001
1000
0100
1000
0001
,
1000
0010
0100
0010
1000
0001
1000
0100
0010
0001
1000
0001
0100
0010
1000
0001
,
1000
0100
0010
0001
1000
0001
0100
0001
1000
0100
0010
0001
1000
0010
1000
0001
,
1000
0001
0100
0010
1000
0001
0010
0100
1000
0001
1000
0010
0100
0001
1000
0001
,
0010
0100
1000
0001
1000
0000
0000
0000
0000
0000
0000
0000
0000
0000
0000
0000
,
0001
1000
0001
0100
0010
1000
0001
0010
0100
0010
0001
1000
0001
0100
0010
1000
,
0001
1000
0010
1000
0001
0010
0100
0010
0001
1000
0100
1000
0001
1000
0010
0100
,
0001
1000
0010
0100
0010
1000
0001
1000
0100
0010
0100
1000
0001
0010
0001
1000
,
0010
1000
0001
0100
0001
1000
0100
1000
0001
0010
0100
1000
0001
0100
0010
0100
,
0001
1000
0001
0010
0100
1000
0001
0100
0010
0100
0001
1000
0001
0010
0100
1000
,
0001
1000
0100
1000
0001
0100
0010
0100
0001
0000
1000
0000
0001
1000
0001
1000
,
0001
0000
1000
0000
0010
0000
0100
0000
0001
0000
1000
0000
,
0100
0010
0004
0000
1003
0000
0020
0000
0130
0001
1000
0100
1000
0000
0100
0000
,
0010
0001
1000
0001
0010
0001
1000
0010
0100
0010
1000
0001
0100
0001
1000
0001
,
0010
0100
1000
0001
0010
0100
0010
0001
1000
0001
0100
0010
0100
0001
1000
0010
,
1000
0001
0010
0001
1000
0100
1000
0001
0100
0001
1000
0010
0100
0001
1000
0100
,
0010
0100
1000
0001
1000
0010
0100
0001
1000
0100
0010
0100
1000
0001
0100
0010
,
1000
0001
0100
0001
1000
0000
0000
0000
0100
0000
0000
0000
0040
0000
0000
0000
,
0031
1000
0010
0000
,
0202
0000
0303
0001
1000
0000
0000
0000
,
0002
0003
0000
0000
0202
0000
0300
0000
1003
0000
0000
0000
0000
0000
0000
0000
,
2002
0000
3003
1000
0001
0000
0000
0000
,
0200
0302
1003
0000
,
2200
0000
3300
1000
0001
0000
0000
0000
,
2000
3000
0000
0000
2002
0000
3000
0000
1003
0000
0000
0000
0000
0000
0000
0000
,
0202
0000
0303
0100
0001
0000
0000
0000
,
2002
0003
3200
0300
2000
3000
0002
0003
,
0202
0000
0303
0001
1000
0000
0000
0000
,
0002
0003
0000
0000
0202
0000
0300
0000
1003
0000
0000
0000
0000
0000
0000
0000
,
2002
0000
3003
1000
0001
0000
0000
0000
,
2000
3002
1003
0000
,
2200
0000
3300
1000
0001
0000
0000
0000
,
2000
3000
0000
0000
2002
0000
3000
0000
1003
0000
0000
0000
0000
0000
0000
0000
,
0202
0000
0303
0100
0001
0000
0000
0000
,
2002
0000
0003
0000
3400
0000
0340
0000
0031
0000
0100
0000
0010
1000
0001
1000
,
0200
0300
2000
0000
,
3020
0000
0230
0000
,
0302
0000
2003
0000
,
3200
0000
0320
0000
,
0032
0000
0000
0003
0002
0000
0000
0000
,
0203
0000
0320
0000
,
2030
0000
3200
0000
,
0320
0000
0030
0000
,
0002
0000
2003
0000
,
3020
0000
0230
0000
,
0302
0000
2003
0000
,
3200
0000
0320
0000
,
0032
0000
0000
0003
0002
0000
0000
0000
,
0203
0000
0320
0000
,
2030
0000
3020
0000
,
0230
0000
0300
0000
,
0001
0000
0000
0000
,
0000
0000
0000
0000
,
0000
0000
0000
0000
,
0000
0000
0000
0000
,
0000
0000
0000
0000
,
0000
0000
0000
0000
,
0000
0000
0000
0000
,
0000
0000
0000
0000
,
0000
0000
0000
0000
,
0000
0000
0000
0000
,
0000
0000
0000
0000
,
0000
0000
0000
0000
,
0000
0000
0000
0000
,
0000
0000
0000
0000
,
0000
0000
0000
0000
,
0000
0000
0000
0000
,
1000
0001
0100
0010
1000
0100
0010
0001
,
0000
1000
0001
0100
0010
0100
0001
0000
,
1000
0000
0100
0010
0001
0000
1000
0000
0001
0000
0100
0000
0010
0000
1000
0000
,
0000
0000
0010
0000
0100
0000
0001
0000
1000
0000
0100
0010
0001
0000
1000
0000
,
0010
0100
0001
1000
0100
0010
0100
1000
,
0000
0001
0100
0010
0100
0001
1000
0000
,
0100
0000
0010
0001
1000
0000
0001
0000
0100
0000
0010
0000
1000
0000
0001
0000
,
0000
0000
1000
0000
0100
0000
0010
0000
0100
0000
1000
0001
0100
0000
0001
0000
,
0010
0100
1000
0001
0100
0010
0100
0001
,
0000
1000
0100
0010
0100
1000
0001
0000
,
0100
0000
0010
1000
0001
0000
1000
0000
0100
0000
0010
0000
0001
0000
1000
0000
,
0000
0000
0001
0000
0100
0000
0010
0000
0100
0000
0001
1000
0100
0000
1000
0000
,
0010
0100
0001
1000
0100
0010
0100
1000
,
0000
0001
0100
0010
0100
0001
1000
0000
,
0100
0000
0010
0001
1000
0000
0001
0000
0100
0000
0010
0000
1000
0000
0001
0000
,
0010
0100
1000
0010
0100
0001
0010
0100
,
1000
0010
0100
0001
,
0010
0100
1000
0100
,
0010
0001
1000
0001
,
0100
0010
1000
0010
,
0100
0001
1000
0100
,
1000
0001
0010
0100
,
1000
0001
0100
0010
,
0100
0001
1000
0100
,
0010
0001
0100
0010
1000
0010
0100
0001
,
1000
0100
0010
0100
1000
0010
0100
0001
,
0100
0010
1000
0001
0010
0100
1000
0100
,
0010
0001
0100
0010
1000
0100
1000
0001
,
0010
0100
1000
0100
0010
0001
1000
0001
0100
0010
0100
0001
1000
0100
1000
0001
,
0010
0100
1000
0001
0100
0010
1000
0010
0100
0001
1000
0100
1000
0001
0010
0100
,
1000
0000
0000
0000
,
0000
0000
0000
0000
,
0001
1000
0001
0010
0100
1000
0001
0100
0010
0100
0001
1000
0001
0010
0100
1000
,
0001
1000
0100
1000
0001
0100
0010
0100
0001
1000
0100
1000
0001
1000
0100
0010
,
0001
1000
0100
0010
0100
1000
0001
1000
0010
0100
0010
1000
0001
0100
0001
1000
,
0100
1000
0001
0010
0001
1000
0100
1000
0001
0010
0100
1000
0001
0100
0010
0100
,
0001
1000
0001
0100
0010
1000
0001
0100
0010
0100
0001
1000
0001
0100
0010
1000
,
0001
1000
0100
1000
0001
0010
0100
0010
0001
1000
0001
1000
0100
0010
0001
1000
,
0010
0100
0001
1000
0001
0100
0010
1000
0010
0100
0001
1000
0100
1000
0001
0010
,
0100
1000
0001
0100
0010
0100
0001
1000
0100
1000
0001
0010
0100
1000
0001
0100
,
0010
1000
0001
0100
0001
1000
0100
1000
0001
0010
0100
1000
0100
0010
0001
1000
,
0001
0100
0010
1000
0001
0010
0100
1000
0001
1000
0010
0100
0001
1000
0001
0010
,
0100
1000
0001
0100
0001
1000
0100
1000
0001
0010
0100
0010
0001
1000
0001
1000
,
0010
0100
0001
1000
0100
1000
0001
0010
0100
1000
0001
0100
0001
1000
0001
0100
,
0010
0100
0001
1000
0001
0010
0100
1000
0100
0010
0001
1000
0010
1000
0001
1000
,
0100
0010
0001
0010
0100
1000
0001
1000
0010
0100
0001
1000
0001
0100
0010
0100
,
0001
1000
0100
0010
0001
1000
0001
0100
0010
0100
0001
1000
0100
1000
0001
1000
,
0010
0100
0010
1000
0001
0000
0000
0000
0000
0000
0000
0000
0000
0000
0000
0000
,
1000
0100
0010
0100
1000
0001
1000
0010
0100
0001
1000
0001
0010
0100
1000
0001
,
1000
0010
0100
0001
1000
0001
0010
0001
1000
0010
0100
0001
1000
0100
1000
0001
,
1000
0010
0100
0010
1000
0001
1000
0100
0010
0001
1000
0001
0100
0010
1000
0001
,
1000
0100
0010
0001
1000
0001
0100
0001
1000
0100
0010
0001
1000
0010
1000
0001
,
1000
0100
0010
0100
1000
0001
1000
0010
0100
0001
1000
0001
0010
0100
1000
0001
,
1000
0010
0100
0001
1000
0001
0010
0001
1000
0010
0100
0001
1000
0100
1000
0001
,
0100
0000
0001
0000
0000
0100
0000
0000
0010
0000
0000
1000
0000
0000
0001
0000
,
1000
0100
0010
0000
0001
0000
1000
0000
0001
0100
0001
1000
0100
0000
1000
0000
,
0001
1000
0010
1000
0001
0010
0100
1000
0001
0100
0001
1000
0001
0100
0010
0100
,
0001
1000
0001
0010
0100
1000
0001
1000
0010
0100
0001
1000
0001
0010
0100
1000
,
0001
1000
0010
1000
0001
0010
0100
1000
0001
0100
0001
1000
0001
0010
0100
0010
,
0001
1000
0001
0100
0010
1000
0001
1000
0100
0010
0001
1000
0001
0100
0010
1000
,
0001
1000
0100
1000
0001
0100
0010
1000
0001
0010
0001
1000
0001
1000
0100
0010
,
0001
1000
0010
0100
0001
1000
0001
0010
0100
1000
0001
1000
0010
0100
0001
1000
,
0001
0000
1000
0100
1000
0000
0100
0000
0010
0000
0001
0000
4000
0000
0000
3000
,
0101
0000
0001
1000
,
2002
0000
3003
0000
;

//---------------dance-single - Rynker & Aoreo----------------
#NOTES:
     dance-single:
     Rynker & Aoreo:
     Medium:
     14:
     0.947,1.000,0.122,0.545,0.395,962.000,20.000,89.000,15.000,0.000:
0000
0000
0000
0000
,
0000
0000
0000
0000
,
0000
0000
0000
0000
,
0000
0000
0000
0000
,
0000
0000
0000
0000
,
0000
0000
0000
0000
,
0000
0000
0000
0000
,
0000
0000
0000
0000
,
0000
0000
0000
0000
,
2000
0000
3002
0000
,
0203
0000
0320
0000
,
2030
0000
3020
0000
,
0230
0000
0302
0000
,
2003
0000
0000
3000
2000
0000
0000
0000
,
3020
0000
0230
0000
,
0320
0000
2030
0000
,
3002
0000
0000
0003
0000
0000
0000
0000
,
1000
0001
0100
0010
1000
0100
0010
0001
,
0000
1000
0001
0100
0010
0100
0001
0000
,
1000
0000
0100
0010
0001
0000
1000
0000
0001
0000
0100
0000
0010
0000
1000
0000
,
0000
0000
0010
0000
0100
0000
0001
0000
1000
0000
0100
0010
0001
0000
1000
0000
,
0010
0100
0001
1000
0100
0010
0100
1000
,
0000
0001
0100
0010
0100
0001
1000
0000
,
0100
0000
0010
0001
1000
0000
0001
0000
0100
0000
0010
0000
1000
0000
0001
0000
,
0000
0000
1000
0000
0100
0000
0010
0000
0100
0000
1000
0001
0100
0000
0001
0000
,
0010
0100
1000
0001
0100
0010
0100
0001
,
0000
1000
0100
0010
0100
1000
0001
0000
,
0100
0000
0010
1000
0001
0000
1000
0000
0100
0000
0010
0000
0001
0000
1000
0000
,
0000
0000
0001
0000
0100
0000
0010
0000
0100
0000
0001
1000
0100
0000
1000
0000
,
0010
0100
0001
1000
0100
0010
0100
1000
,
0000
0001
0100
0010
0100
0001
1000
0000
,
0100
0000
0010
0001
1000
0000
0001
0000
0100
0000
0010
0000
1000
0000
0001
0000
,
0000
0000
1000
0000
0100
0000
0010
0000
0100
0000
1000
0001
0100
0000
0001
0000
,
0000
0000
0000
0000
,
1000
0000
0001
0100
0001
0000
1000
0000
0010
0000
1000
0001
1000
0000
0001
0000
,
1000
0010
1000
0100
0010
0001
1000
0001
,
0100
0000
0010
0000
0100
0000
0001
0000
1000
0000
0001
0000
0010
0100
1000
0001
,
1000
0010
0100
0001
0100
0010
1000
0100
,
0040
0000
0000
0000
0034
0000
0000
0000
1003
0100
1000
0001
0100
0000
0010
0000
,
1000
0100
1000
0010
0100
0001
1000
0001
,
0010
0000
0100
0000
1000
0000
0001
0000
0100
0000
0010
1000
0010
0000
1000
0100
,
0010
0001
0100
0001
1000
0100
0010
0001
,
1000
0000
0010
0000
0100
0000
0010
0000
1000
0000
0100
0000
0010
0001
1000
0010
,
1000
0001
0100
0010
0100
0001
1000
0010
,
1000
0010
1000
0001
0010
0100
1000
0001
1000
0010
0100
0010
1000
0001
1000
0100
,
0010
0001
0100
0001
0010
0100
1000
0001
,
0100
0000
0010
0000
0100
0000
0001
0000
1000
0000
0001
0000
0010
0100
1000
0001
,
1000
0001
0100
0001
0010
0100
1000
0001
,
0100
0000
0010
0000
0100
0000
0001
0000
1000
0000
0100
0010
0001
0000
0100
0010
,
1000
0010
0100
0001
1000
0001
0010
0001
,
0100
0000
0010
0000
1000
0000
0100
0000
0010
0000
0001
0000
1000
0001
1000
0100
,
0010
0000
0001
0000
1000
0000
0001
0000
0010
0000
0100
0000
,
1000
0001
1000
0100
0040
0030
0004
0003
1000
0010
1000
0100
0040
0030
0004
0003
,
1000
0010
1000
0100
0010
0001
0100
0001
,
1000
0000
0100
0000
0010
0000
0100
0000
1000
0000
0001
0100
0001
0000
0010
0100
,
1000
0001
1000
0010
0100
0010
1000
0100
,
0010
0000
0001
0000
0100
0000
0001
0000
1000
0000
0010
0000
0100
0010
1000
0001
,
1000
0100
0010
0001
2000
3000
0010
0000
0200
0300
0001
0000
0040
0030
0400
0300
,
1100
1000
0020
0130
,
0202
0000
0303
0001
0010
0000
0000
0000
,
0200
0300
0000
0000
2200
0000
0300
0000
3100
0000
0000
0000
0000
0000
0000
0000
,
2002
0000
3003
0001
1000
0000
0000
0000
,
0020
2030
3001
0000
,
0202
0000
0303
0100
0001
0000
0000
0000
,
0020
0030
0000
0000
0220
0000
0000
0330
0100
0000
0000
0000
0000
0000
0000
0000
,
2200
0000
3300
1000
0001
0000
0000
0000
,
2002
3003
2000
3000
0200
0300
0020
0030
,
0022
0000
0033
0001
1000
0000
0000
0000
,
0020
0030
0000
0000
0220
0000
0330
0000
0100
0000
0000
0000
0000
0000
0000
0000
,
2020
0000
3030
1000
0100
0000
0000
0000
,
0020
0032
1003
0000
,
2020
0000
3030
0010
0100
0000
0000
0000
,
0002
0003
0000
0000
2002
0000
3003
0000
1000
0000
0000
0000
0000
0000
0000
0000
,
0202
0000
0303
0100
0001
0000
0000
0000
,
2002
0000
0003
0000
3400
0000
0340
0000
0031
0000
0100
0000
0010
1000
0001
1000
,
0200
0300
2000
0000
,
3020
0000
0230
0000
,
0302
0000
2003
0000
,
3200
0000
0320
0000
,
0032
0000
0000
0003
0002
0000
0000
0000
,
0203
0000
0320
0000
,
2030
0000
3200
0000
,
0320
0000
0030
0000
,
0002
0000
2003
0000
,
3020
0000
0230
0000
,
0302
0000
2003
0000
,
3200
0000
0320
0000
,
0032
0000
0000
0003
0002
0000
0000
0000
,
0203
0000
0320
0000
,
2030
0000
3020
0000
,
0230
0000
0300
0000
,
000M
0000
M000
0000
,
0000
00M0
0000
0000
0000
0000
0M00
0000
,
0000
0000
0000
0000
0000
0000
0000
000M
0000
0000
0000
0000
0000
0000
0000
0000
,
0000
0000
0000
M000
0000
0000
0000
0000
0000
0000
0000
0000
0000
0000
0000
0000
0000
0000
0000
0000
0000
0000
0000
0000
0000
0000
0000
0000
0M00
0000
0000
0000
,
0000
0000
0000
0000
0000
0000
0000
0000
0000
0000
0000
0000
0000
00M0
0000
0000
,
0000
0000
0000
0000
0000
000M
0000
0000
,
0000
0000
0000
0000
0000
0M00
0000
0000
,
0000
0000
00M0
0000
,
0000
0000
0000
M000
0000
0000
0000
0000
,
0000
0000
0000
0000
0000
00M0
0000
0000
0000
0000
0000
0000
0000
0000
0000
0000
,
0000
0M00
0000
0000
,
0000
0000
0000
000M
0000
0000
0000
0000
,
0000
0000
0000
0000
,
0000
0000
0000
0000
,
0000
0000
0000
0000
,
0001
0000
1000
0001
1000
0000
0010
0000
0100
0000
0001
0010
0100
0000
1000
0000
,
1001
0001
0100
0010
1000
0100
0010
0001
,
0000
1000
0001
0100
0010
0100
0001
0000
,
1000
0000
0100
0010
0001
0000
1000
0000
0001
0000
0100
0000
0010
0000
1000
0000
,
0000
0000
0010
0000
0100
0000
0001
0000
1000
0000
0100
0010
0001
0000
1000
0000
,
0010
0100
0001
1000
0100
0010
0100
1000
,
0000
0001
0100
0010
0100
0001
1000
0000
,
0100
0000
0010
0001
1000
0000
0001
0000
0100
0000
0010
0000
1000
0000
0001
0000
,
0000
0000
1000
0000
0100
0000
0010
0000
0100
0000
1000
0001
0100
0000
0001
0000
,
0010
0100
1000
0001
0100
0010
0100
0001
,
0000
1000
0100
0010
0100
1000
0001
0000
,
0100
0000
0010
1000
0001
0000
1000
0000
0100
0000
0010
0000
0001
0000
1000
0000
,
0000
0000
0001
0000
0100
0000
0010
0000
0100
0000
0001
1000
0100
0000
1000
0000
,
0010
0100
0001
1000
0100
0010
0100
1000
,
0000
0001
0100
0010
0100
0001
1000
0000
,
0100
0000
0010
0001
1000
0000
0001
0000
0100
0000
0010
0000
1000
0000
0001
0000
,
0010
0100
1000
0010
0100
0001
0010
0100
,
1000
0010
0100
0001
,
0010
0100
1000
0100
,
0010
0001
1000
0001
,
0100
0010
1000
0010
,
0100
0001
1000
0100
,
1000
0001
0010
0100
,
1000
0001
0100
0010
,
0100
0001
1000
0100
,
0010
0001
0100
0010
1000
0010
0100
0001
,
1000
0100
0010
0100
1000
0010
0100
0001
,
0100
0010
1000
0001
0010
0100
1000
0100
,
0010
0001
0100
0010
1000
0100
1000
0001
,
1000
0001
1000
0100
0010
0001
1000
0001
0100
0010
0100
0001
1000
0010
0100
0001
,
1000
0001
0010
0100
1000
0001
1000
0100
0010
0100
1000
0001
1000
0010
0100
0001
,
0100
0000
0000
0000
,
0001
0000
1000
0001
1000
0000
0010
0000
0000
0000
0000
0000
0000
0000
0000
0000
,
1000
0010
1000
0100
0010
0001
1000
0001
,
0100
0000
0010
0000
0100
0000
0001
0000
1000
0000
0001
0000
0010
0100
1000
0001
,
1000
0010
0100
0001
0100
0010
1000
0100
,
0010
0000
0001
0000
0100
0000
0010
0000
1000
0000
0001
0100
0001
0000
1000
0100
,
0010
0001
0100
0001
1000
0100
0010
0001
,
1000
0000
0010
0000
0100
0000
0010
0000
1000
0000
0100
0000
0010
0001
1000
0010
,
1000
0001
0100
0010
0100
0001
1000
0010
,
1000
0000
0400
0300
1000
0000
0040
0030
0100
0001
1000
0001
0010
0000
0100
0000
,
1000
0010
0100
0010
1000
0100
0010
0001
,
1000
0000
0010
0000
0100
0000
0010
0000
1000
0000
0100
0000
0010
0001
1000
0001
,
0100
0010
1000
0100
0010
0100
1000
0001
,
0100
0000
0001
0000
1000
0000
0100
0000
0010
0000
0001
0100
0001
0000
0010
0100
,
1000
0001
0100
0010
0100
0001
1000
0100
,
0010
0000
0001
0000
0100
0000
0001
0000
1000
0000
0010
0000
1000
0001
1000
0100
,
0010
0001
0100
0010
0100
0001
1000
0100
,
0010
0100
1000
0001
1000
0010
0100
0010
1000
0001
1000
0100
0010
0001
1000
0001
,
0100
0010
0100
0001
0010
0100
1000
0001
,
1000
0000
0010
0000
0100
0000
0001
0000
1000
0000
0001
0000
0010
0100
1000
0001
,
1000
0010
0100
0001
0010
0001
1000
0010
,
1000
0000
0100
0000
0010
0000
0001
0000
1000
0000
0010
1000
0100
0000
0010
0001
,
1000
0001
0100
0001
0010
0100
0010
0001
,
1000
0000
0010
0000
1000
0000
0100
0000
0010
0000
0001
0000
1000
0001
1000
0100
,
0010
0000
0001
0000
0000
1000
0000
0000
0010
0000
0100
0000
0000
0001
0000
0000
,
1000
0010
1000
0000
0100
0000
0010
0000
0001
1000
0001
0010
0100
1000
0010
0100
,
0001
1000
0100
0010
0100
1000
0010
0100
,
0001
0000
1000
0000
0001
0000
0010
0000
0100
0000
1000
0000
0001
1000
0001
0010
,
0100
1000
0010
1000
0100
0010
0001
0100
,
0001
0000
1000
0000
0100
0000
0010
0000
0001
0000
1000
0010
1000
0000
0100
0010
,
0001
1000
0010
0100
0010
1000
0001
1000
,
0100
0000
0010
0000
0001
0000
0100
0000
0001
0000
1000
0000
0100
0010
0001
1000
,
0001
0000
1000
0100
1000
0000
0100
0000
0010
0000
0001
0000
4000
0000
0000
3000
,
0101
0000
0001
1000
,
2002
0000
3003
0000
;

//---------------dance-single - Rynker----------------
#NOTES:
     dance-single:
     Rynker:
     Hard:
     20:
     1.000,1.000,0.116,0.533,1.000,1190.000,19.000,87.000,0.000,0.000:
0000
0000
0000
0000
,
0000
0000
0000
0000
,
0000
0000
0000
0000
,
0000
0000
0000
0000
,
0000
0000
0000
0000
,
0000
0000
0000
0000
,
0000
0000
0000
0000
,
0000
0000
0000
0000
,
0000
0000
0000
0000
,
2000
0000
3002
0000
,
0203
0000
0320
0000
,
2030
0000
3020
0000
,
0230
0000
0302
0000
,
2003
0000
0000
3000
2000
0000
0000
0000
,
3020
0000
0230
0000
,
0320
0000
2030
0000
,
3002
0000
0000
0003
0000
0000
0000
0000
,
1000
0001
0100
0010
1000
0100
0010
0001
,
0000
1000
0001
0100
0010
0100
0001
0000
,
1000
0000
0100
0010
0001
0000
1000
0000
0001
0000
0100
0000
0010
0000
1000
0000
,
0000
0000
0010
0000
0100
0000
0001
0000
1000
0000
0100
0010
0001
0000
1000
0000
,
0010
0100
0001
1000
0100
0010
0100
1000
,
0000
0001
0100
0010
0100
0001
1000
0000
,
0100
0000
0010
0001
1000
0000
0001
0000
0100
0000
0010
0000
1000
0000
0001
0000
,
0000
0000
1000
0000
0100
0000
0010
0000
0100
0000
1000
0001
0100
0000
0001
0000
,
0010
0100
1000
0001
0100
0010
0100
0001
,
0000
1000
0100
0010
0100
1000
0001
0000
,
0100
0000
0010
1000
0001
0000
1000
0000
0100
0000
0010
0000
0001
0000
1000
0000
,
0000
0000
0001
0000
0100
0000
0010
0000
0100
0000
0001
1000
0100
0000
1000
0000
,
0010
0100
0001
1000
0100
0010
0100
1000
,
0000
0001
0100
0010
0100
0001
1000
0000
,
0100
0000
0010
0001
1000
0000
0001
0000
0100
0000
0010
0000
1000
0000
0001
0000
,
0000
0000
1000
0000
0100
0000
0010
0000
0100
0000
1000
0001
0100
0000
0001
0000
,
0000
0000
0000
0000
,
0000
0000
0000
0000
,
1000
0010
0100
0010
1000
0001
1000
0100
0010
0001
1000
0001
0100
0010
1000
0001
,
1000
0100
0010
0001
1000
0001
0100
0001
1000
0100
0010
0001
1000
0010
1000
0001
,
1000
0100
0010
0100
1000
0001
1000
0010
0100
0001
1000
0001
0010
0100
1000
0001
,
1000
0000
0001
0000
0100
0000
0010
0000
1000
0001
0100
0001
1000
0000
0001
0000
,
1000
0100
0010
0100
1000
0001
1000
0010
0100
0001
1000
0001
0010
0100
1000
0001
,
1000
0010
0100
0001
1000
0001
0010
0001
1000
0000
0001
0000
0100
0000
0010
0000
,
1000
0010
0100
0010
1000
0001
1000
0100
0010
0001
1000
0001
0100
0010
1000
0001
,
1000
0100
0010
0001
1000
0001
0100
0001
1000
0100
0010
0001
1000
0010
1000
0001
,
1000
0001
0100
0010
1000
0001
0010
0100
1000
0001
1000
0010
0100
0010
1000
0001
,
0010
0100
1000
0001
1000
0000
0000
0000
0000
0000
0000
0000
0000
0000
0000
0000
,
0001
1000
0001
0100
0010
1000
0001
0010
0100
0010
0001
1000
0001
0100
0010
1000
,
0001
1000
0010
1000
0001
0010
0100
0010
0001
1000
0100
1000
0001
0000
0000
0000
,
1000
0001
0010
0100
0010
0001
1000
0001
0100
0010
0100
0001
1000
0010
1000
0001
,
0010
0001
1000
0100
1000
0001
0100
0001
1000
0000
0001
0100
0001
0000
1000
0000
,
0100
0010
0001
0010
0100
1000
0001
0100
0010
0100
0001
1000
0001
0010
0100
1000
,
0001
1000
0100
1000
0001
0100
0010
0100
0001
0000
1000
0000
0001
1000
0001
1000
,
0001
0000
0010
0000
0100
0000
1000
0000
0001
0000
0100
0000
,
0010
1000
0004
0000
1003
0000
0020
0000
0130
0001
1000
0010
1000
0000
0010
0000
,
1000
0001
1000
0100
0010
0001
1000
0010
0100
0010
1000
0001
0100
0001
1000
0001
,
0010
0100
1000
0001
0010
0100
0010
0001
1000
0000
0100
0000
0010
0000
0001
0000
,
1000
0001
0010
0001
1000
0100
1000
0001
0100
0001
1000
0010
0100
0001
1000
0100
,
0010
0100
1000
0001
1000
0010
0100
0001
1000
0100
0010
0100
1000
0001
0100
0010
,
1000
0001
0100
0001
1000
0000
0000
0000
0100
0000
0000
0000
0040
0000
0000
0000
,
0031
0100
0010
0000
,
0202
0000
0303
0001
1000
0000
0000
0000
,
0002
0003
0000
0000
0202
0000
0300
0000
1003
0000
0000
0000
0000
0000
0000
0000
,
2002
0000
3003
1000
0001
0000
0000
0000
,
0200
0302
1003
0000
,
2200
0000
3300
1000
0001
0000
0000
0000
,
2000
3000
0000
0000
2002
0000
3000
0000
1003
0000
0000
0000
0000
0000
0000
0000
,
0202
0000
0303
0100
0001
0000
0000
0000
,
2002
0003
3200
0300
2000
3000
0002
0003
,
0202
0000
0303
0001
1000
0000
0000
0000
,
0002
0003
0000
0000
0202
0000
0300
0000
1003
0000
0000
0000
0000
0000
0000
0000
,
2002
0000
3003
1000
0001
0000
0000
0000
,
2000
3002
1003
0000
,
2200
0000
3300
1000
0001
0000
0000
0000
,
2000
3000
0000
0000
2002
0000
3000
0000
1003
0000
0000
0000
0000
0000
0000
0000
,
0202
0000
0303
0100
0001
0000
0000
0000
,
2002
0000
0003
0000
3400
0000
0340
0000
0031
0000
0100
0000
0010
1000
0001
1000
,
0200
0300
2000
0000
,
3020
0000
0230
0000
,
0302
0000
2003
0000
,
3200
0000
0320
0000
,
0032
0000
0000
0003
0002
0000
0000
0000
,
0203
0000
0320
0000
,
2030
0000
3200
0000
,
0320
0000
0030
0000
,
0002
0000
2003
0000
,
3020
0000
0230
0000
,
0302
0000
2003
0000
,
3200
0000
0320
0000
,
0032
0000
0000
0003
0002
0000
0000
0000
,
0203
0000
0320
0000
,
2030
0000
3020
0000
,
0230
0000
0300
0000
,
0001
0000
0000
0000
,
0000
0000
0000
0000
,
0000
0000
0000
0000
,
0000
0000
0000
0000
,
0000
0000
0000
0000
,
0000
0000
0000
0000
,
0000
0000
0000
0000
,
0000
0000
0000
0000
,
0000
0000
0000
0000
,
0000
0000
0000
0000
,
0000
0000
0000
0000
,
0000
0000
0000
0000
,
0000
0000
0000
0000
,
0000
0000
0000
0000
,
0000
0000
0000
0000
,
0000
0000
0000
0000
,
1000
0001
0100
0010
1000
0100
0010
0001
,
0000
1000
0001
0100
0010
0100
0001
0000
,
1000
0000
0100
0010
0001
0000
1000
0000
0001
0000
0100
0000
0010
0000
1000
0000
,
0000
0000
0010
0000
0100
0000
0001
0000
1000
0000
0100
0010
0001
0000
1000
0000
,
0010
0100
0001
1000
0100
0010
0100
1000
,
0000
0001
0100
0010
0100
0001
1000
0000
,
0100
0000
0010
0001
1000
0000
0001
0000
0100
0000
0010
0000
1000
0000
0001
0000
,
0000
0000
1000
0000
0100
0000
0010
0000
0100
0000
1000
0001
0100
0000
0001
0000
,
0010
0100
1000
0001
0100
0010
0100
0001
,
0000
1000
0100
0010
0100
1000
0001
0000
,
0100
0000
0010
1000
0001
0000
1000
0000
0100
0000
0010
0000
0001
0000
1000
0000
,
0000
0000
0001
0000
0100
0000
0010
0000
0100
0000
0001
1000
0100
0000
1000
0000
,
0010
0100
0001
1000
0100
0010
0100
1000
,
0000
0001
0100
0010
0100
0001
1000
0000
,
0100
0000
0010
0001
1000
0000
0001
0000
0100
0000
0010
0000
1000
0000
0001
0000
,
0010
0100
1000
0010
0100
0001
0010
0100
,
1000
0010
0100
0001
,
0010
0100
1000
0100
,
0010
0001
1000
0001
,
0100
0010
1000
0010
,
0100
0001
1000
0100
,
1000
0001
0010
0100
,
1000
0001
0100
0010
,
0100
0001
1000
0100
,
0010
0001
0100
0010
1000
0010
0100
0001
,
1000
0100
0010
0100
1000
0010
0100
0001
,
0100
0010
1000
0001
0010
0100
1000
0100
,
0010
0001
0100
0010
1000
0100
1000
0001
,
0010
0100
1000
0100
0010
0001
1000
0001
0100
0010
0100
0001
1000
0100
1000
0001
,
0010
0100
1000
0001
0100
0010
1000
0010
0100
0001
1000
0100
1000
0001
0010
0100
,
1000
0000
0000
0000
,
0000
0000
0000
0000
,
0001
1000
0001
0010
0100
1000
0001
0100
0010
0100
0001
1000
0001
0010
0100
1000
,
0001
1000
0100
1000
0001
0100
0010
0100
0001
0000
0100
0000
0010
0000
1000
0000
,
0001
1000
0100
0010
0100
1000
0001
1000
0010
0100
0010
1000
0001
0100
0001
1000
,
0100
1000
0001
0010
0001
1000
0100
1000
0001
0000
0100
0001
0100
0000
0010
0000
,
1000
0001
1000
0100
0010
0001
1000
0100
0010
0100
1000
0001
1000
0100
0010
0001
,
1000
0001
0100
0001
1000
0010
0100
0010
1000
0001
1000
0001
0100
0000
0000
0000
,
0010
0100
0001
1000
0001
0100
0010
1000
0010
0100
0001
1000
0100
1000
0001
0010
,
0100
1000
0001
0100
0010
0100
0001
1000
0100
1000
0001
0010
0100
1000
0001
0100
,
0010
1000
0001
0100
0001
1000
0100
1000
0001
0010
0100
1000
0100
0010
0001
1000
,
0001
0100
0010
1000
0001
0010
0100
1000
0001
1000
0010
0100
0001
0000
0000
0000
,
0100
0001
1000
0100
1000
0001
0100
0001
1000
0010
0100
0010
1000
0001
1000
0001
,
0010
0100
1000
0001
0100
0001
1000
0010
0100
0000
0001
0100
0001
0000
0100
0000
,
0001
0100
0001
1000
0001
0010
0100
1000
0100
0010
0001
1000
0010
1000
0001
1000
,
0100
0010
0001
0010
0100
1000
0001
1000
0010
0100
0001
1000
0001
0000
0000
0000
,
1000
0001
0100
0010
1000
0001
1000
0100
0010
0100
1000
0001
0100
0001
1000
0001
,
0010
0100
0010
0001
1000
0000
0000
0000
0000
0000
0000
0000
0000
0000
0000
0000
,
0001
0100
0010
0100
0001
1000
0001
0010
0100
1000
0001
1000
0010
0100
0001
1000
,
0001
0010
0100
1000
0001
1000
0010
1000
0001
0010
0100
1000
0001
0000
0000
0000
,
1000
0010
0100
0010
1000
0001
1000
0100
0010
0001
1000
0001
0100
0010
1000
0001
,
1000
0100
0010
0001
1000
0001
0100
0001
1000
0000
0010
1000
0001
0000
0010
0000
,
0001
0100
0010
0100
0001
1000
0001
0010
0100
1000
0001
1000
0010
0100
0001
1000
,
0001
0010
0100
1000
0001
1000
0010
1000
0001
0010
0100
1000
0001
0100
0001
1000
,
0100
0000
1000
0000
0000
0100
0000
0000
0010
0000
0000
0001
0000
0000
1000
0000
,
0001
0100
0010
0000
1000
0000
0001
0000
1000
0100
1000
0001
0100
0000
0001
0000
,
1000
0001
0010
0001
1000
0010
0100
0001
1000
0100
1000
0001
1000
0100
0010
0100
,
1000
0001
1000
0010
0100
0001
1000
0001
0010
0100
1000
0001
1000
0000
0000
0000
,
0001
1000
0010
1000
0001
0010
0100
1000
0001
0100
0001
1000
0001
0010
0100
0010
,
0001
1000
0001
0100
0010
1000
0001
1000
0100
0000
1000
0001
0100
0000
0010
0000
,
1000
0001
0100
0001
1000
0100
0010
0001
1000
0010
1000
0001
1000
0001
0100
0010
,
1000
0001
0010
0100
1000
0001
1000
0010
0100
0001
1000
0100
0010
0001
1000
0001
,
1000
0000
0001
0100
0001
0000
0100
0000
0010
0000
1000
0000
0004
0000
0000
0003
,
1100
0000
1000
0001
,
2002
0000
3003
0000
;
