#TITLE:Teenage Mutant Ninja Turtles;
#SUBTITLE:- Turtles In A Halfshell;
#ARTIST:Family Home Entertainment;
#TITLETRANSLIT:;
#SUBTITLETRANSLIT:;
#ARTISTTRANSLIT:;
#CREDIT:;
#BANNER:tmnt-bn.png;
#BACKGROUND:tmnt.png;
#LYRICSPATH:;
#CDTITLE:;
#MUSIC:tmnt.mp3;
#OFFSET:-0.130;
#SAMPLESTART:32.475;
#SAMPLELENGTH:12.000;
#SELECTABLE:YES;
#BPMS:0.000=185.500;
#STOPS:;
#BGCHANGES:;
// cache tags:
#FIRSTBEAT:4.000;
#LASTBEAT:179.000;
#SONGFILENAME:Songs/Anime Songs/tmnt/tmnt.sm;
#HASMUSIC:1;
#HASBANNER:1;
#MUSICLENGTH:61.257;
// end cache tags

//---------------dance-single - ----------------
#NOTES:
     dance-single:
     :
     Easy:
     5:
     0.480,0.657,0.686,0.163,0.000,154.000,42.000,10.000,0.000,0.000:  // measure 1
0000
0000
0000
0000
,  // measure 2
1000
0100
0010
0001
,  // measure 3
0001
0100
1000
0010
,  // measure 4
0010
0100
1000
0001
,  // measure 5
0100
1000
0001
0010
,  // measure 6
1000
0001
0100
0010
,  // measure 7
1000
0100
0010
0001
,  // measure 8
0110
1001
0110
1001
,  // measure 9
0000
1100
0011
0000
,  // measure 10
0010
0010
0100
0100
,  // measure 11
1000
0100
0010
0001
,  // measure 12
0220
0000
0000
0330
,  // measure 13
0010
0100
0010
0100
,  // measure 14
0010
1000
1000
0010
,  // measure 15
0100
0001
0001
0100
,  // measure 16
2002
0000
0000
3003
,  // measure 17
1010
0000
0011
0000
,  // measure 18
1001
0000
0110
0000
,  // measure 19
1000
0100
0010
0001
,  // measure 20
0001
0010
0100
1000
,  // measure 21
1010
0011
1001
0000
,  // measure 22
0100
1000
0001
0010
,  // measure 23
0010
0100
1000
0001
,  // measure 24
0001
0100
1000
0010
,  // measure 25
1000
0010
0010
1000
,  // measure 26
0010
0001
0100
1000
,  // measure 27
1000
0001
1000
0001
,  // measure 28
2020
0000
0000
3030
,  // measure 29
0010
1000
0010
1000
,  // measure 30
1001
0010
0100
1001
,  // measure 31
0100
0001
1000
0010
,  // measure 32
0202
0000
0000
0303
,  // measure 33
0110
0000
1001
0000
,  // measure 34
1000
0100
0010
0001
,  // measure 35
0100
0001
1000
0100
,  // measure 36
1000
0001
1000
1000
,  // measure 37
0110
1100
0101
1010
,  // measure 38
0011
1010
0101
1100
,  // measure 39
0110
0010
1001
0001
,  // measure 40
1100
0100
0010
0011
,  // measure 41
1001
0110
1001
0110
,  // measure 42
0110
1001
0110
1001
,  // measure 43
1000
0100
0010
0001
,  // measure 44
0010
0001
1000
0100
,  // measure 45
1000
0100
2002
3003
;

//---------------dance-single - ----------------
#NOTES:
     dance-single:
     :
     Medium:
     7:
     0.553,0.583,0.473,0.131,0.000,200.000,29.000,8.000,0.000,0.000:  // measure 1
0000
0000
0000
0000
,  // measure 2
1000
1000
0001
0001
,  // measure 3
0100
0001
0010
0001
,  // measure 4
0010
0100
1000
0001
,  // measure 5
0100
1000
0001
0010
,  // measure 6
0110
0110
1001
0110
,  // measure 7
1001
0110
0110
1001
,  // measure 8
0010
0100
1000
0001
0110
0000
1001
0000
,  // measure 9
0000
0000
1000
0100
0010
0001
0000
0000
,  // measure 10
0010
0000
0100
1000
0100
0000
0010
0000
,  // measure 11
1000
0001
0100
0000
0010
0000
0001
0000
,  // measure 12
0220
0000
0000
0330
,  // measure 13
0010
0100
1001
0110
,  // measure 14
0010
1000
0010
0000
1000
0001
0010
0000
,  // measure 15
0010
1000
0001
0000
0001
0000
0100
0000
,  // measure 16
2002
0000
0000
3003
,  // measure 17
1010
0010
0011
0001
,  // measure 18
1000
0001
1000
0000
0010
0100
0010
0000
,  // measure 19
1000
0100
0010
0001
,  // measure 20
0001
0100
0010
0000
0100
0000
1000
0000
,  // measure 21
0001
0100
1000
0000
0110
0000
0100
0000
,  // measure 22
0100
1000
0001
0010
,  // measure 23
0010
0100
1000
0001
,  // measure 24
0001
0100
1000
0010
,  // measure 25
1000
0010
0010
1000
,  // measure 26
0010
1000
0001
0000
0100
0001
1000
0000
,  // measure 27
1000
0001
0010
0100
,  // measure 28
2020
0000
0000
3030
,  // measure 29
0001
1000
0010
0001
,  // measure 30
0001
1000
0010
0000
0100
0001
1000
0000
,  // measure 31
0100
0010
0001
0000
0100
0000
0010
0000
,  // measure 32
0202
0000
0000
0303
,  // measure 33
0110
0110
1001
1001
,  // measure 34
1000
0001
0100
0000
0010
1000
0001
0000
,  // measure 35
0100
0001
1000
0100
,  // measure 36
1000
0100
0001
0000
1000
0001
1000
0000
,  // measure 37
0010
0100
0001
0000
0010
0100
0001
0000
,  // measure 38
0100
0001
1000
0000
0100
0001
1000
0000
,  // measure 39
1000
0010
1000
0000
0001
0100
0001
0000
,  // measure 40
0001
0010
1000
0000
1000
0100
0001
0000
,  // measure 41
0100
0100
0001
0000
0010
0010
1000
0000
,  // measure 42
0010
1000
1010
0000
0010
0001
0011
0000
,  // measure 43
1000
0100
1100
0000
0001
0100
0101
0000
,  // measure 44
0010
0100
1000
0001
0110
0000
1001
0000
,  // measure 45
0000
0000
1000
0001
0100
0010
0000
0000
;

//---------------dance-single - ----------------
#NOTES:
     dance-single:
     :
     Hard:
     9:
     0.779,0.656,0.653,0.065,0.000,290.000,40.000,4.000,0.000,0.000:  // measure 1
0000
0000
0000
0000
,  // measure 2
0110
1001
0110
1001
,  // measure 3
1010
0101
1010
0101
,  // measure 4
0011
1100
0011
1100
,  // measure 5
0110
1010
1001
0101
,  // measure 6
0011
0011
1100
0011
,  // measure 7
1100
0011
0011
1100
,  // measure 8
1000
0001
1000
0001
0010
0100
1000
0001
,  // measure 9
0000
0000
1000
0100
1100
0000
1100
0000
,  // measure 10
0010
0001
0100
1000
0100
0001
0010
0001
,  // measure 11
1000
0001
0100
1000
0010
0100
0001
0010
,  // measure 12
2000
0100
0001
3100
,  // measure 13
0010
1000
0100
1000
0001
1000
0010
1000
,  // measure 14
0001
0100
0001
0010
0001
1000
0001
0010
,  // measure 15
0100
1000
0100
0001
0100
0010
0100
1000
,  // measure 16
0002
1000
0100
0013
,  // measure 17
0001
1000
0010
0100
1000
0001
0100
0010
,  // measure 18
0100
0010
1000
0010
0001
1000
0100
0010
,  // measure 19
1000
0001
0100
0010
1000
0010
0001
1000
,  // measure 20
0001
0100
0010
0000
1001
0000
1000
0001
,  // measure 21
0001
0100
1000
0000
0110
0000
0100
1000
,  // measure 22
0100
0001
1000
0100
0001
1000
0010
0100
,  // measure 23
0010
0001
0100
0001
1000
0100
0001
0010
,  // measure 24
0001
1000
0100
0010
1000
0100
0010
0001
,  // measure 25
1000
0001
0010
0100
0010
0100
1000
0001
,  // measure 26
0010
1000
0001
1000
0100
0001
1000
0010
,  // measure 27
1000
0100
0001
1000
0010
0001
0010
0100
,  // measure 28
2010
0001
0100
3010
,  // measure 29
0001
0100
1000
0100
0010
0100
0001
0100
,  // measure 30
0001
1000
0010
1000
0100
0001
1000
0010
,  // measure 31
0100
0010
0001
0010
0100
1000
0010
1000
,  // measure 32
0102
1000
0010
0103
,  // measure 33
0110
0110
1001
1001
,  // measure 34
1000
0001
0100
1000
0010
1000
0001
0010
,  // measure 35
0100
1000
0001
0010
1000
0001
0100
0001
,  // measure 36
1000
0100
0001
0010
1000
0001
1000
0010
,  // measure 37
1000
0100
0001
1000
0010
0100
0001
1000
,  // measure 38
0100
0001
1000
0010
0100
0001
1000
0010
,  // measure 39
1000
0010
1000
0010
0001
0100
0001
0100
,  // measure 40
0001
0010
1000
0010
1000
0100
0001
0010
,  // measure 41
0100
0100
0001
0001
0010
0010
1000
1000
,  // measure 42
0010
1000
1100
0000
0100
0001
0011
0000
,  // measure 43
1000
0100
0011
0000
0001
0100
1010
0000
,  // measure 44
0010
0100
1000
0001
0011
0000
1100
0000
,  // measure 45
0000
0000
1000
0001
0100
0010
0000
0000
;
