#TITLE:Illness Lilin;
#SUBTITLE:;
#ARTIST:Unknown artist;
#TITLETRANSLIT:;
#SUBTITLETRANSLIT:;
#ARTISTTRANSLIT:;
#CREDIT:Braeden47;
#BANNER:../Banner.png;
#BACKGROUND:../BG.png;
#LYRICSPATH:;
#CDTITLE:../CDTitleBRAEDEN.png;
#MUSIC:Illness Lilin.ogg;
#OFFSET:0.161;
#SAMPLESTART:34.434;
#SAMPLELENGTH:24.000;
#SELECTABLE:YES;
#DISPLAYBPM:280.000;
#BPMS:0.000=280.000;
#STOPS:;
#BGCHANGES:;
// cache tags:
#FIRSTBEAT:5.000;
#LASTBEAT:552.000;
#SONGFILENAME:Songs/Index Tesseract/Illness Lilin  - [Braeden]/Illness Lilin.sm;
#HASMUSIC:1;
#HASBANNER:1;
#MUSICLENGTH:121.088;
// end cache tags

//---------------dance-double - Blank----------------
#NOTES:
     dance-double:
     Blank:
     Hard:
     1:
     0.005,0.068,0.008,0.000,0.000,1.000,1.000,0.000,0.000,1.000:
00000000
00000000
00000000
00000000
,
00000000
00000000
00000000
00000000
,
00000000
00000000
00000000
00000000
,
00000000
00000000
00000000
00000000
,
00000000
00000000
00000000
00000000
,
00000000
00000000
00000000
00000000
,
00000000
00000000
00000000
00000000
,
00000000
00000000
00000000
00000000
,
00000000
00000000
00000000
00000000
,
00000000
00000000
00000000
00000000
,
00000000
00000000
00000000
00000000
,
00000000
00000000
00000000
00000000
,
00000000
00000000
00000000
00000000
,
00000000
00000000
00000000
00000000
,
00000000
00000000
00000000
00000000
,
00000000
00000000
00000000
00000000
,
00000000
00000000
00000000
00000000
,
00000000
00000000
00000000
00000000
,
00000000
00000000
00000000
00000000
,
00000000
00000000
00000000
00000000
,
00000000
00000000
00000000
00000000
,
00000000
00000000
00000000
00000000
,
00000000
00000000
00000000
00000000
,
00000000
00000000
00000000
00000000
,
00000000
00000000
00000000
00000000
,
00000000
00000000
00000000
00000000
,
00000000
00000000
00000000
00000000
,
00000000
00000000
00000000
00000000
,
00000000
00000000
00000000
00000000
,
00000000
00000000
00000000
00000000
,
00000000
00000000
00000000
00000000
,
00000000
00000000
00000000
00000000
,
00000000
00000000
00000000
00000000
,
00000000
00000000
00000000
00000000
,
00000000
00000000
00000000
00000000
,
00000000
00000000
00000000
00000000
,
00000000
00000000
00000000
00000000
,
00000000
00000000
00000000
00000000
,
00000000
00000000
00000000
00000000
,
00000000
00000000
00000000
00000000
,
00000000
00000000
00000000
00000000
,
00000000
11110000
00000000
00000000
;

//---------------dance-single - ----------------
#NOTES:
     dance-single:
     :
     Challenge:
     18:
     1.000,1.000,0.496,0.834,1.000,1208.000,60.000,101.000,12.000,3.000:

0000
0000
0000
0000
,
0000
0000
0000
1111
0000
0000
1000
0100
0010
0001
0010
0100
,
1000
0001
0100
0010
1000
0100
0010
0001
0010
0100
1000
0001
,
0100
0010
0100
0001
1000
0100
0010
0100
1000
0001
0100
0010
,
0100
0000
0000
0000
0001
0000
0000
0000
1000
0000
0000
0000
0010
0000
0000
0100
0000
0000
0001
0000
0000
0100
0000
0000
0010
0000
0000
1000
0000
0000
0001
0000
0000
0010
0000
0000
0100
0000
0000
0000
0000
0000
0000
0000
0000
0000
0000
0000
,
0000
0000
1001
1000
0100
0010
0100
1000
,
0001
0001
0100
0010
1000
0100
0010
0010
,
0001
0100
0010
1000
0100
0100
0010
0001
,
0100
0010
1000
1000
0100
0010
0100
1000
,
0001
0001
0100
0010
1000
0100
0010
0010
,
0001
0100
0010
1000
0001
0010
0100
1000
,
0001
0100
0010
1000
0100
0010
0100
1000
,
0001
0000
1000
0000
0001
0100
0001
0100
0001
0000
1000
0010
1000
0001
0100
0000
,
0010
1000
0001
0100
0002
0000
0203
0000
0302
0000
0203
0000
0302
0000
0203
0000
,
0320
2030
3020
2030
3020
2030
3002
0203
,
0302
0203
0340
4030
3002
0203
0302
0203
,
0340
4030
3002
0203
0320
2030
3400
0340
,
0032
0000
0000
2003
0000
0000
3001
0000
0100
0000
0010
0000
1000
0000
0001
0000
0010
0000
0100
0000
1000
0000
0001
0000
,
0100
0010
0100
0001
1000
0100
0010
0100
1000
0001
0100
0010
,
0100
0001
0100
0001
0100
0010
1000
0001
0010
0100
1000
0001
,
0100
0000
0000
0000
0010
0000
0000
0000
0100
0000
0000
0000
0001
0000
0000
0100
0000
0000
0010
0000
0000
1000
0000
0000
0001
0000
0000
0010
0000
0000
0100
0000
0000
1000
0000
0000
0001
0000
0000
0100
0000
0000
0010
0000
0000
1000
0000
0000
,
0001
0000
1001
0010
0100
0100
1001
0010
,
0100
0100
0010
0001
0100
0010
1000
0000
,
0100
0100
0040
0130
0001
0200
0310
2000
,
3100
0020
0130
1000
1000
1000
0010
0010
,
2002
3003
0100
0010
0100
0010
0400
0000
,
0310
0000
0001
0001
1000
1000
0040
0000
,
0130
0000
1001
0010
0000
0100
0000
0001
,
0000
0000
1000
0000
0010
0000
0100
0001
1000
0100
0010
0100
1000
0000
0001
0000
,
0100
0000
0010
0000
1000
0000
0002
0000
0000
0023
0000
0000
0230
0000
0000
2300
0000
0000
3002
0000
0000
0203
0000
0000
,
0320
2030
3002
0203
0320
2030
3200
0320
,
0032
0203
0340
4030
3020
0430
0302
0403
,
0320
4030
3100
0100
0010
0010
0100
0100
,
1000
0010
0000
0000
1001
0100
0001
1000
,
0100
0010
0000
0100
0020
0031
1000
0000
,
0010
0000
0000
0000
0100
0000
0010
0000
1000
0100
0010
0100
1000
0000
0001
0000
,
0100
0010
1000
0001
0100
0010
1000
0001
0010
0100
1000
0001
0100
0010
1000
0100
,
0010
0001
0010
0100
1000
0010
1000
0000
0000
0010
0000
0000
0010
0000
0000
0100
0000
0000
0001
0000
0000
0001
0000
0000
,
0100
0010
1010
0100
0001
0001
0100
0010
,
1000
0001
2220
3330
0222
0333
1001
0001
,
0100
0100
0010
1000
1010
0100
0001
0100
,
0110
0000
1000
0200
0310
0002
0013
0200
,
1300
0000
0000
0000
0000
0000
0001
0000
0000
0000
0000
0000
1001
0000
0000
0000
0000
0000
0000
0000
0110
0000
0000
0000
0000
0000
0000
0000
1001
0000
0000
0000
0000
0000
0000
0000
1000
0000
0000
0100
0000
0000
0010
0000
0000
0100
0000
0000
,
0010
0001
0010
0100
1000
0000
0010
0000
0010
0000
0100
0000
0010
0000
0010
0000
,
0100
0000
0000
0000
0000
0000
0010
0000
0000
0000
0000
0000
1000
0000
0000
0100
0000
0000
0010
0000
0000
0100
0000
0000
1000
0000
0000
0001
0000
0000
0100
0000
0000
0010
0000
0000
1000
0000
0000
0000
0100
0000
0000
0000
0010
0000
0000
0000
,
0100
0000
1000
0000
0001
0000
0110
0000
0000
0100
0000
0000
0010
0000
0000
0010
0000
0000
1000
0000
0000
1000
0000
0000
,
0001
0000
0001
0000
0100
0000
0100
0000
0001
0100
0010
1000
0001
0000
0100
0000
,
0010
1000
0100
0010
0100
0010
0100
1000
0001
0100
0010
1000
0001
0000
0100
0000
,
0010
0000
0000
1000
0000
0000
0100
0000
0010
0000
0100
0000
1000
0000
0001
0000
0100
0000
0010
0000
1000
0000
0100
0000
,
0010
0000
0100
0000
1000
0000
0020
0000
0000
0100
0030
0000
0001
0000
0000
0001
0000
0000
0100
0000
0000
0100
0000
0000
,
0010
0000
0010
0000
1000
0100
0010
0001
1000
0000
0010
0000
0100
0000
0000
0000
,
0000
0000
0000
0000
0000
0000
0000
0000
1001
0000
0000
0000
0010
0000
0000
0000
0100
0000
0001
0000
0100
0000
0000
0000
0010
0000
0000
0000
1000
0100
0010
0001
,
1000
0000
0001
0000
1000
0100
0010
0001
1000
0000
0010
0000
0200
0000
0302
0000
,
0203
0310
2000
3200
2300
3200
0310
0010
,
0002
0203
0302
0203
0310
0010
2000
3200
,
2300
3200
0310
0010
0002
0203
0320
2030
,
3100
0100
0020
0032
0023
0032
0103
0100
,
0010
0000
0000
0010
0100
0010
0100
0001
0100
0010
1000
0010
,
0100
0001
0100
0010
1000
0100
0010
0100
1000
0001
0010
0100
,
1000
0001
0100
0010
0100
0001
1000
0100
0010
0100
1000
0001
,
0010
0000
0100
0000
1000
0000
0002
0000
0000
0203
0000
0000
0320
0000
0000
2030
0000
0000
3100
0000
0000
0100
0000
0000
,
1000
0001
1000
0100
0010
0100
2000
0000
,
3020
0000
0130
0001
1000
0100
0010
0100
,
1000
0001
0101
0000
0010
0000
1000
0000
,
0000
1000
0010
0100
0001
0100
0010
1000
,
0100
0010
010M
0010
0100
1000
0001
0100
,
M001
0010
0M01
1000
0010
0100
0001
1000
,
0100
0010
0110
1000
0001
0100
0010
1000
,
0100
0000
1001
0010
0100
0000
0010
0100
,
0010
0000
1001
0100
0010
1000
0100
0010
,
0100
0000
0000
1000
0000
0000
0001
0000
0000
0000
0000
0000
1000
0000
0010
0000
0100
0000
0001
0000
0000
0000
0000
0000
,
1000
0000
0000
1MM1
1000
0001
0100
0010
1000
0100
0010
0100
,
1000
0010
1000
0M1M
1000
0001
0100
0010
1000
0100
0010
0001
,
0100
0001
0100
M0M1
0100
0010
1000
0010
0100
0001
1000
0010
,
0100
0001
1000
0MM1
1000
0010
0100
0001
0010
0100
1000
0001
,
0100
0010
0100
0001
1000
0100
0010
0100
1000
0001
0100
0010
,
0100
0001
1000
0100
0010
0100
1000
0001
0010
0100
1000
0001
,
0100
0010
0100
1001
0000
0010
0000
0100
0000
0010
0000
0000
,
0000
0000
0000
1001
0100
0001
0100
0010
1000
0001
0010
0100
,
1000
0010
0100
00M1
1000
0100
0010
0100
1000
0001
0100
0010
,
1000
0001
0100
0001
1000
0100
0010
0100
1000
0001
0100
0010
,
1000
0001
0010
0100
0000
0000
1000
0000
0000
0001
0000
0000
,
1000
0000
0000
1001
0010
0100
0001
1000
0100
0010
0100
1000
,
0001
0100
0010
1000
0001
0100
0010
1000
0100
0010
0100
1000
,
0001
0010
0100
1000
0001
0100
0010
0100
0001
0010
0100
1000
,
0001
0100
0010
0100
0001
1000
0100
0010
0100
1000
0001
0100
,
0010
1000
0001
1000
0000
0000
0000
0000
0000
0000
0000
0000
,
0000
0000
1001
0001
0100
0010
1000
0100
,
0010
0010
0001
0100
0010
0100
1001
1001
,
0010
0000
0000
0100
0000
0000
0001
0000
0000
1000
0000
0000
0010
0000
0100
0000
0001
0000
0100
0000
0000
0010
0000
0000
,
1000
0001
0100
0000
0010
1000
0010
1000
0001
0100
0001
0100
0010
0100
0001
0100
,
0010
1000
0001
0100
0010
0000
0100
0000
0010
0000
0100
0000
0001
0000
0100
0000
,
0010
1000
0100
0010
0100
0010
1001
1001
,
0001
0000
0000
0000
1000
0000
0010
0000
0100
0001
0100
0000
0010
0000
1000
0000
,
0001
0100
0001
0000
1000
0010
1000
0010
1000
0010
1000
0010
1000
0000
0000
0000
,
0000
0000
1001
0010
0100
0100
0001
1000
,
0100
0100
0010
0001
0100
0100
0010
1000
,
0010
0010
0100
0001
0100
0100
0010
1000
,
0100
0010
0100
1000
0001
0100
0010
0000
,
0000
0000
0000
0000
1000
0100
0010
0100
1000
0001
0100
0010
0100
0001
1000
0100
,
0010
0100
1000
0001
0010
0100
1000
0001
0100
0010
0100
0001
1000
0100
0010
0100
,
1000
0001
0010
0100
1000
0000
0000
0000
0010
0000
0000
0000
1001
0000
0000
0000
,
0010
0000
0100
0000
0010
0000
0100
0000
0010
0000
0000
0000
1000
0001
1000
0001
,
1000
0001
1000
0001
0020
0000
0000
0000
0030
0000
0020
0000
0000
0000
0030
0000
,
0020
0000
0000
0030
0000
0000
0010
0001
0010
0100
0010
0001
,
0010
0000
0100
0000
0010
0000
0001
0000
0000
0000
0000
0000
2002
0000
0000
3003
0000
0000
0220
0000
0000
0330
0000
0000
,
2020
0000
0000
3030
0000
0000
1000
0000
0000
0000
0000
0000
0001
0000
0100
0000
0010
0000
1000
0000
0100
0000
0010
0000
,
0100
0000
1000
0000
0001
0000
0100
0000
0000
0000
0000
0000
0010
0000
0000
0100
0000
0000
0010
0000
0000
0000
0000
0000
,
0110
0000
0000
0000
0000
0000
0000
0000
0000
0000
0000
0000
1000
0000
0000
0000
0000
0000
0001
0000
0000
0100
0000
0000
0001
0000
0000
0000
0000
0000
0000
0000
0000
0000
0000
0000
1000
0000
0000
0000
0010
0000
0000
0000
0100
0000
0000
0000
,
0001
0000
1000
0000
0100
0000
0010
0000
0000
0000
0000
0000
0000
0000
0000
0110
0000
0000
0000
0000
0000
0000
0000
0000
,
1001
0000
0000
0000
0000
0000
1000
0010
0100
0001
1000
0100
,
0010
0000
0100
0000
1000
0000
0010
0000
0000
0100
0000
0000
0010
0000
0000
0100
0000
0000
0010
0000
0000
0100
0000
0000
,
0001
0000
0000
0000
0000
0000
0000
0000
0000
0000
0000
0000
0000
0000
0000
0000
0000
0000
0000
0000
0000
0000
0000
0000
0010
0000
0000
0000
0000
0000
0000
0000
0000
0000
0000
0000
0000
0000
0000
0000
0000
0000
0000
0000
0000
0000
0000
0000
1000
000F
0000
0000
0000
0000
0000
0000
0000
0000
0000
0000
0000
00F0
0000
0000
0100
0000
0000
0000
0000
0000
0000
0000
0000
000F
0000
0000
0000
0000
0000
0000
1000
0000
0000
0000
0000
00F0
0000
0000
0000
0000
0000
0000
0000
0000
0000
0000
0100
000F
0000
0000
0000
0000
0000
0000
0000
0000
0000
0000
0000
00F0
0000
0000
1000
0000
0000
0000
0000
0000
0000
0000
0000
000F
0000
0000
0000
0000
0000
0000
0100
0000
0000
0000
0000
00F0
0000
0000
0000
0000
0000
0000
0000
0000
0000
0000
1000
000F
0000
0000
0000
0000
0000
0000
0000
0000
0000
0000
0000
00F0
0000
0000
0100
0000
0000
0000
0000
0000
0000
0000
0000
000F
0000
0000
0000
0000
0000
0000
1000
0000
0000
0000
0000
00F0
0000
0000
0000
0000
0000
0000
0000
0000
0000
0000
,
0100
000F
0000
0000
0000
0000
0000
0000
0000
0000
0000
0000
0000
0000
0000
0010
1000
0000
0000
0000
0000
0000
0000
0000
0000
0000
0000
0000
0000
0000
0000
0001
0100
0000
0000
0000
0000
0000
0000
0000
0000
0000
0000
0000
0000
0000
0000
0010
1000
0000
0000
0000
0000
0000
0000
0000
0000
0000
0000
0000
0000
0000
0000
0000
0000
0000
0000
0000
0000
0000
0000
0000
0000
0000
0000
0000
0000
0000
0000
0000
0000
0000
0000
0000
0000
0000
0000
0000
0000
0000
0000
0000
0000
0000
0000
0000
1001
0000
0000
0000
0000
0000
0000
0000
0000
0000
0000
0000
0000
0000
0000
0000
0000
0000
0000
0000
0000
0000
0000
0000
0000
0000
0000
0000
0000
0000
0000
0000
0000
0000
0000
0000
0000
0000
0000
0000
0000
0000
0000
0000
0000
0000
0000
0000
0110
0000
0000
0000
0000
0000
0000
0000
0000
0000
0000
0000
0000
0000
0000
0000
0000
0000
0000
0000
0000
0000
0000
0000
0000
0000
0000
0000
0000
0000
0000
0000
0000
0000
0000
0000
0000
0000
0000
0000
0000
0000
0000
0000
0000
0000
0000
0000
,
1001
0000
0000
0000
0000
0000
1000
0010
0100
0001
1000
0100
,
0010
0000
0000
0000
0100
0000
0000
0000
1000
0000
0000
0000
0001
0000
0000
0000
0000
0000
0000
0000
0000
0000
0000
0000
1000
0000
0000
0000
0000
0000
0010
0000
0000
0000
0000
0000
0100
0000
0000
0000
0000
0000
0001
0000
0000
1000
0000
0000
,
0010
0000
0000
0000
0001
1000
0010
0000
,
0100
0000
0000
0000
0100
0000
0100
0000
0010
1000
0010
1000
0010
0000
0100
0000
,
0001
0000
0000
0010
0000
0000
0001
0000
0000
1000
0000
0000
0001
0000
0000
0000
0100
0000
0000
0000
0010
0000
0000
0000
1000
0000
0000
0000
0001
0000
0000
0000
0010
0000
0000
0000
0100
0000
0000
0000
1000
0000
0000
0000
0001
0000
0000
0000
,
0100
0000
0010
0000
1000
0000
0001
0000
0000
0000
0000
0000
0000
0000
0000
1001
0000
0000
0000
0000
0000
0000
0000
0000
,
0110
0000
0000
0000
0000
0000
1000
0010
0100
0001
1000
0100
,
0010
0100
1000
0001
0000
0000
1001
0000
0000
0010
0100
0001
,
1000
0000
0000
0000
0000
0000
0001
0100
0010
1000
0100
0010
,
0100
0000
1000
0000
0001
0000
0100
0000
0000
0000
0000
0000
0000
0000
0000
0110
0000
0000
0000
0000
0000
0000
0000
0000
,
1001
0000
0000
0000
0000
0000
0100
0010
1000
0000
0001
0000
0100
0000
0010
0000
,
1000
0001
0100
0000
0000
0110
0000
0000
,
0001
0000
0000
0001
0100
0001
0100
0010
1000
0100
0010
0100
,
1000
0000
0000
0000
0000
0000
0000
0000
0000
0000
0000
0000
0001
0000
0000
0100
0000
0000
0001
0000
0000
0100
0000
0000
0001
0000
0000
0000
0100
0000
0000
0000
0010
0000
0000
0000
1000
0000
0000
0010
0000
0000
1000
0000
0000
0010
0000
0000
,
0100
0000
0000
0000
0001
0000
0000
0000
0100
0000
0000
0000
0010
0000
0000
1000
0000
0000
0010
0000
0000
0100
0000
0000
0001
0000
0000
0000
0100
0000
0000
0000
0010
0000
0000
0000
1000
0000
0000
0001
0000
0000
0100
0000
0000
0010
0000
0000
,
0100
0000
0000
0000
0001
0000
0000
0000
0100
0000
0000
0000
0001
0000
0000
0010
0000
0000
0001
0000
0000
0010
0000
0000
0100
0000
0000
1000
0000
0000
0001
0000
0000
0100
0000
0000
0010
0000
0000
1000
0000
0000
0100
0000
0000
0010
0000
0000
,
0100
0000
0000
1000
0000
0000
0001
0000
0000
0010
0000
0000
0100
0000
0000
1000
0000
0000
0001
0000
0000
0100
0000
0000
0010
0000
0000
0000
0100
0000
0000
0000
0010
0000
0000
0000
0100
0000
0000
0000
0001
0000
0000
0000
1000
0000
0000
0000
,
0100
0000
0000
0000
0010
0000
0000
0000
0100
0000
0000
0000
0010
0000
0000
0000
0000
0000
0000
0000
0000
0000
0000
0000
0000
0000
0000
0000
0000
0000
0100
0000
0000
0000
0000
0000
0000
0000
0000
0000
0000
0000
0010
0000
0000
0100
0000
0000
,
0010
0000
0000
0000
0010
0100
0010
0000
,
0000
0000
1001
0010
0100
0001
1000
0010
,
0100
0001
1000
0100
0010
0100
1000
0001
,
0010
0100
1000
0001
0100
0010
1000
0100
,
1000
0001
0100
0010
1000
0100
0010
0100
1000
0001
0010
0100
1000
0001
0100
0010
,
1000
0100
0010
0100
2002
0000
0000
0000
0000
0000
0000
0000
0000
0000
0000
0000
,
3003
0000
0000
0000
;
