#TITLE:Kiss Me Sunlights;
#SUBTITLE:(radio edit);
#ARTIST:Zone of the Enders;
#TITLETRANSLIT:;
#SUBTITLETRANSLIT:;
#ARTISTTRANSLIT:;
#CREDIT:;
#BANNER:kissme.png;
#BACKGROUND:kissme-bg.png;
#LYRICSPATH:;
#CDTITLE:!tmm-cd.png;
#MUSIC:Kiss Me Sunlights (radio edit).mp3;
#OFFSET:-6.060;
#SAMPLESTART:59.930;
#SAMPLELENGTH:12.000;
#SELECTABLE:YES;
#BPMS:0.000=80.000,72.000=160.000,120.000=80.000,128.000=160.000,176.000=80.000,200.000=160.000;
#STOPS:;
#BGCHANGES:;
// cache tags:
#FIRSTBEAT:0.000;
#LASTBEAT:200.000;
#SONGFILENAME:Songs/Community Keyboard Megapack - Volume 3/(alexkaldara) Kiss Me Sunlights (radio edit)/file.sm;
#HASMUSIC:1;
#HASBANNER:1;
#MUSICLENGTH:124.559;
// end cache tags

//---------------dance-single - ----------------
#NOTES:
     dance-single:
     :
     Challenge:
     9:
     0.615,0.702,0.578,0.674,0.381,380.000,72.000,84.000,0.000,0.000:
1100
0110
1001
0011
0110
1100
1001
0110
,
0011
0101
1010
1100
0110
1001
0110
1100
,
0011
0110
1100
0011
1100
0110
0011
1001
,
0200
0000
0000
0301
1000
0000
0110
0000
0010
0001
1000
0010
0100
0000
0010
0000
,
0102
0000
0000
0000
0000
0023
0000
0000
0000
0000
0000
0000
0000
0000
0130
0000
0001
0000
1000
0000
0010
0000
0100
0000
0101
0000
0000
0000
0002
0000
0000
0000
,
2003
0000
0000
3020
0000
0000
0000
0030
1001
0000
0001
1000
1010
0000
0200
0000
,
0302
0000
0000
0000
0000
0000
0023
0000
0000
0000
0000
0000
0000
0000
0030
0000
1000
0001
1000
0001
1000
0001
1000
0001
1000
0000
0000
0000
0010
0000
0000
0000
,
1001
0000
0000
0001
1000
0000
0010
0000
0100
0001
0010
1000
0010
0000
0200
0000
,
0320
0000
0000
0000
0000
2030
0000
0000
0000
0000
0000
0000
0000
0000
3100
0000
0101
0000
0000
0000
0001
0000
1000
0000
0010
0000
0000
0000
0200
0000
0000
0000
,
0302
0000
0000
2003
0010
0000
0100
0000
0001
0001
0001
0000
3000
0000
0200
0000
,
0302
0000
0000
2000
0000
0000
3003
0000
0220
0000
0330
0000
2002
0000
3003
0000
,
1000
0000
0001
0100
0000
0010
1000
0000
2001
0000
3010
0011
0000
0000
1010
0000
,
0110
0000
0100
1000
0000
0001
0100
0000
2100
0000
3100
0101
0000
0000
0110
0000
,
2001
0000
0001
0001
0001
0000
0001
0000
3002
0000
0000
0000
0203
0000
0000
0000
,
0310
0000
0001
1000
0000
1000
0001
0000
0010
0000
0000
0100
0010
0000
0000
0001
,
2001
0000
0000
3200
0000
0000
0320
0000
0032
0000
1003
0001
1001
0000
0100
0000
,
1000
0000
0001
0200
0000
1000
1300
0000
0010
0000
1000
0002
0000
0100
0103
0000
,
0010
0000
1000
0200
0000
0000
0000
0010
0010
0000
0001
0000
0010
0000
1300
0000
,
0010
0000
0001
1000
2001
0000
3001
0000
,
0102
0000
1003
0000
1010
0000
0001
1000
,
0010
0000
1000
0020
0000
1000
0000
1030
,
0002
0000
0000
0000
0000
0000
0103
0000
1001
0000
0000
0000
0100
0010
0100
0010
,
0100
0000
0010
1000
0001
0000
1002
0000
,
0203
0000
0302
0000
2003
0000
3010
0001
,
2000
0000
3100
0020
0000
0000
0001
0031
,
0100
0000
0000
0000
0001
0000
0000
0000
0010
1000
0010
1000
0001
1000
0001
1000
,
0010
0000
0001
0100
0101
0000
0110
0000
,
0010
1000
0100
0000
2001
0000
0001
3100
,
0010
0000
0200
0010
0300
2000
0001
0000
,
3002
0000
0103
0020
0000
0130
0010
0000
,
2002
3003
0202
0303
2020
3030
0110
1001
,
0100
0000
0100
0000
0010
0000
0000
0000
1001
0000
0000
0000
0010
0000
0000
0000
1000
0000
0001
0000
0100
0000
0001
0000
1000
0000
0100
0000
1000
0001
1000
0001
,
0100
0000
1000
0010
1020
0000
0130
0000
,
1001
1000
0001
0000
0110
0000
2000
3002
,
0013
0000
0001
2000
0000
0100
0000
3001
,
0200
0000
0000
0000
0000
0000
1300
0000
1001
0000
0000
0000
1000
0001
1000
0001
,
2000
0000
3010
0001
0100
0000
0012
0000
,
2003
0000
3200
0000
0302
0000
0103
1000
,
0002
0000
1003
0020
0000
0000
0001
0031
,
0010
0000
0000
0000
1001
0000
0000
0000
0010
0001
0010
0001
1000
0001
1000
0001
,
0010
0000
0001
0010
1100
0000
1010
0000
,
0100
0001
1000
0000
0120
0000
0130
1000
,
0001
0000
2000
0010
3000
0002
0100
0000
,
0203
0000
1300
0020
0000
1030
0010
0010
,
2002
3003
0220
0330
0202
0303
1010
1001
,
1000
0001
0100
0010
1000
0100
0001
0100
2000
3010
0100
0001
0010
0001
0100
0010
,
1000
0100
1000
0010
0100
0001
0010
0001
0200
0310
1000
0001
0010
0001
0100
0010
,
2000
0100
3001
0100
1000
0010
0100
0001
0010
0100
1000
0001
0010
0001
0100
0010
,
2000
0001
3010
0001
0100
0010
1000
0010
0100
0001
1000
0010
0100
0001
0010
0100
,
2002
0000
0000
0000
,
3003
0000
0000
0000
;

//---------------dance-single - ----------------
#NOTES:
     dance-single:
     :
     Easy:
     4:
     0.233,0.236,0.120,0.225,0.000,160.000,15.000,28.000,0.000,0.000:
1000
0001
0100
0010
,
0100
1000
0001
0010
,
0100
0001
1000
0100
,
0010
0100
1001
1000
,
0010
0001
0110
0010
,
1000
0100
0002
0103
,
1000
0010
0200
0301
,
1001
0100
0001
0100
,
0010
1000
1001
0100
,
0010
0001
0110
0100
,
0001
1000
0002
2003
,
3010
0220
0330
0000
,
0001
2002
3003
0000
,
0100
0001
0110
1001
,
0100
0001
1000
0020
,
0130
0001
1000
0200
,
0310
0001
0020
0030
,
0100
1000
0200
0300
,
1000
0001
0100
0010
,
1000
0001
0010
0100
,
1000
0002
0000
0000
,
2003
0000
0000
3000
,
0100
0001
0010
0001
,
1000
0100
1000
0010
,
0100
0020
0000
0000
,
0230
0000
0000
0300
,
0001
1000
0010
0100
,
0001
0010
1000
0010
,
0100
0002
0000
0000
,
0103
2000
0000
0000
,
3010
0100
0001
2002
,
0000
3003
0100
0010
,
1000
0001
0100
0010
,
0100
0001
1000
0010
,
0100
2000
0000
0000
,
3020
0000
0000
0030
,
0100
0001
1000
0100
,
0001
0100
1000
0100
,
0001
0200
0000
0000
,
0302
0000
0000
0000
,
1003
0010
0001
0100
,
1000
0010
0001
0100
,
1000
0020
0000
0000
,
0130
0002
0000
0000
,
1003
0100
0010
2002
,
3003
0100
0010
0100
,
1001
0001
0010
1000
,
1001
1000
0100
0010
,
0110
0010
0001
0100
,
1001
0000
0000
0000
;

//---------------dance-single - Trick Master Oni----------------
#NOTES:
     dance-single:
     Trick Master Oni:
     Edit:
     12:
     0.859,0.983,0.827,0.153,1.000,627.000,103.000,19.000,0.000,0.000:
1001
0001
0101
0000
1010
1000
1100
0000
0110
0010
1001
0000
0101
1000
1100
0000
,
0011
0001
1010
0000
0101
0001
1010
0000
0110
0010
0011
0000
1100
0100
1001
0000
,
0110
0010
1010
0000
0101
0001
0011
0000
1100
0100
0110
0010
0011
0001
1001
1000
,
1100
0010
0001
0100
0010
1000
0100
1000
0010
0100
0001
0010
0001
0100
0010
1000
,
0100
0010
0001
0100
0010
1000
0100
0010
0011
0001
0100
1000
0100
0001
0100
1000
,
0010
0100
0001
0100
0010
1000
0001
0100
0110
0010
1000
0100
0010
0100
1000
0001
,
0100
0000
0010
0000
1000
0000
0100
0000
0010
0000
0001
0000
0100
0000
0010
0000
0001
0010
0001
0010
0100
1000
0100
1000
0010
0100
0010
0100
0001
1000
0001
1000
,
1001
0001
0100
0010
1000
0100
1000
0100
0001
0100
0001
0100
1000
0001
0010
0100
,
1000
0010
0100
0010
1000
0001
0100
0010
1010
1000
0100
0001
0100
1000
0010
0100
,
0001
0010
0001
0100
0010
0100
0001
1000
1100
0100
0010
0001
1000
0100
1000
0010
,
0100
0001
1000
0100
1000
0001
0100
0001
0201
0001
0001
0000
1000
1000
1000
0000
,
0310
0001
1000
0100
1000
0010
0100
0001
0110
0100
1000
0101
0001
0100
1000
0010
,
0100
0001
0010
0001
0100
0010
1000
0100
0110
0010
0100
0101
1000
0001
0100
0010
,
2001
0001
0001
0000
0100
0100
0100
0000
3002
1000
0100
0000
0100
1000
1000
0000
,
0103
0000
0010
0100
0210
0000
0301
1000
2002
0000
3003
0010
0202
0000
0300
0000
,
1003
0000
1100
0000
0000
0000
0010
0000
0011
0000
0000
0000
0110
0000
0000
0000
1001
0000
0000
0000
0100
0010
0100
0000
0210
0000
0000
0000
0310
0000
0000
0000
,
1010
0100
0010
0001
0101
0010
1000
0100
0110
0001
0010
1000
1010
0010
0100
1000
,
1001
0000
0001
0000
0100
0000
0010
0000
1010
0000
1000
0000
0100
0000
0010
0000
0101
0000
0001
0000
0100
0000
0010
0000
1000
0001
1000
0001
1000
0001
1000
0001
,
1001
0000
0100
0010
0100
0000
0001
0000
0011
0000
1000
0000
1200
0000
0000
0000
,
0301
0000
1000
0100
1000
0000
0010
0000
0110
0000
1000
0000
0102
0000
0000
0000
,
0103
0000
0001
1000
0001
0000
0100
0000
1100
0000
0010
0000
2001
0000
0000
0000
,
3010
0000
0001
1000
0001
0000
0100
0000
0110
0000
1000
0000
1001
0000
1000
0001
,
1001
0000
0010
1000
0100
0000
0010
0001
0100
0000
0001
0000
1001
0000
0000
0000
,
1010
0000
1000
0001
0100
0000
0100
0010
1000
0000
0100
0000
0101
0000
0000
0000
,
1100
0000
0010
0001
1000
0000
1000
0010
0100
0000
0001
0000
0101
0000
0000
0000
,
1010
0000
0100
0001
0010
0000
1000
0000
0001
0100
0010
1000
0100
1000
0010
0100
,
0101
0000
1000
0100
1000
0000
0010
0000
0100
0001
0100
0000
0010
0000
0001
0100
,
0001
0000
0010
0000
0100
1000
0100
0000
0010
0000
0100
0010
0100
0000
0001
0000
,
0010
1000
0100
0000
0010
0000
0001
1000
0100
0000
0010
0000
0001
0100
0010
0000
,
0100
0000
0010
1000
0100
0000
1000
0000
0100
0001
1000
0000
0100
0000
0010
0001
,
1001
0100
1001
0010
1001
0100
0101
0010
1100
0001
0011
0100
1100
0100
0110
0010
,
1001
0000
0100
0000
0101
0000
0100
0000
1100
0000
0100
0000
0101
0000
0100
0000
1100
0000
0001
0000
0100
0000
0010
0000
1000
0000
0100
0000
0010
0001
0100
0001
,
1001
0000
0100
0010
0001
0000
0100
0010
1000
0000
0100
0000
1001
0000
0000
0000
,
0110
0000
0001
1000
0010
0000
0100
0001
0010
0000
0001
0000
0101
0000
0000
0000
,
1100
0000
0010
1000
0001
0000
0001
1000
0100
0000
0010
0000
1010
0000
0000
0000
,
0110
0000
0001
0010
1000
0000
1000
0010
0001
0000
0001
0000
1001
0000
0000
0000
,
0110
0000
0001
1000
0100
0000
0001
1000
0010
0000
0001
0000
0110
0000
0000
0000
,
1001
0000
0100
0010
1000
0000
0001
0100
1000
0000
0100
0000
0101
0000
0000
0000
,
0011
0000
1000
0010
0100
0000
0100
0010
0001
0000
1000
0000
1010
0000
0000
0000
,
1001
0000
0100
1000
0010
0000
0010
0000
1000
0001
1000
0001
0100
0010
0100
0010
,
1001
0000
0100
0001
0100
0000
0010
0000
0100
1000
0100
0000
0001
0000
0010
0100
,
0010
0000
1000
0000
0100
0001
0100
0000
0010
0000
1000
0001
1000
0000
0100
0000
,
0010
0100
0001
0000
0010
0000
1000
0001
0100
0000
0010
0000
0100
0010
1000
0000
,
0001
0000
0010
0100
1000
0000
0100
0000
0010
0001
1000
0000
0010
0001
0100
0000
,
2100
0100
0100
0100
3020
0001
0001
0001
0230
0010
0010
0010
0302
0100
2003
0100
,
3001
0010
0001
1000
0100
1000
0010
0100
0001
0010
0001
1000
0100
1000
0010
0100
,
0001
0100
0010
1000
0100
0001
0010
0001
0100
1000
0010
1000
0100
0001
0100
1000
,
1100
0010
0011
0100
0001
0100
0010
1000
0001
0100
0010
1000
0001
0100
1000
0100
,
0101
0000
0010
0000
1010
0000
0100
0000
0001
0000
0010
0000
0001
0000
1000
0000
0100
0000
1000
0000
0001
0000
0100
0000
0001
0100
0001
0100
0010
1000
0010
1000
,
2020
0000
0000
0000
,
3030
0000
0000
0000
;

//---------------dance-single - ----------------
#NOTES:
     dance-single:
     :
     Hard:
     7:
     0.424,0.659,0.313,0.530,0.020,265.000,39.000,66.000,0.000,0.000:
2000
3200
0320
0032
0203
0320
2030
3200
,
0302
0203
2300
3020
0230
0302
0023
0032
,
0203
0320
2030
3200
0302
0203
2300
3020
,
0130
0001
1000
0010
0101
0010
1000
0100
,
0001
0010
0001
0100
1010
0100
0001
0010
,
1000
0010
0001
0100
1001
0100
1000
0100
,
0010
0001
0010
0100
2002
0000
3003
0000
,
0010
0100
0001
1000
0101
1000
0010
0100
,
0001
0010
1000
0100
0011
0100
0001
0010
,
1000
0100
1000
0001
0110
0001
1000
0010
,
0100
0001
1000
0010
2002
3003
0220
0330
,
0101
0000
0000
1001
0000
0000
0100
0000
1100
0000
0000
0011
0000
0000
0100
0000
,
0110
0000
0000
1001
0000
0000
0010
0000
0011
0000
0000
1001
0000
0000
0100
0000
,
0110
0001
1000
0010
0200
0000
0320
0000
,
1030
0100
0001
0100
1000
0010
0001
0010
,
1000
0000
0000
0100
0000
0000
0010
0000
1001
0000
0100
0000
0100
0000
0100
0000
,
0010
0001
0020
0000
0130
1000
0200
0000
,
0310
0100
2002
0000
0000
0000
3003
0000
,
0001
0000
0010
1000
0010
0000
0100
0000
,
1000
0001
0011
0100
,
0010
0000
0001
2000
0000
0000
0000
3010
,
0200
0000
0000
0301
1000
0000
0110
0000
,
0001
0000
0100
0010
0100
0000
0010
0000
,
1100
0000
0011
0000
0100
0000
0001
1000
,
0001
0000
0100
0020
0000
0000
0030
0100
,
0020
0000
0000
1030
0002
0000
0000
0003
,
0100
0000
0010
1000
0010
0000
0101
0000
,
0010
0100
0010
0000
0001
0000
1000
0100
,
1000
0000
0010
0002
0000
0000
0000
0000
,
0103
0000
0010
2000
0000
0000
3000
0000
,
0002
0000
0203
0000
2300
0000
3100
2002
,
0000
0000
0000
3003
,
1100
0000
0010
0001
0010
0000
0001
0000
,
0100
0001
1000
0000
0100
0000
1010
0000
,
0200
0000
0300
2002
0000
0000
3003
0100
,
0002
0000
0000
1003
0100
0000
0011
0000
,
0100
0000
0010
0001
0100
0000
0010
0000
,
1100
0000
0010
0000
0101
0000
0001
1000
,
0001
0000
0100
0020
0000
0000
0030
1000
,
0002
0000
0000
1003
0020
0000
0030
0000
,
1001
0000
0100
0001
0100
0000
0020
0000
,
2030
0000
3200
0000
0310
0000
0001
0010
,
0100
0000
1000
0020
0000
0000
0030
0000
,
1000
0000
0001
0200
0000
0000
0300
0000
,
0020
0000
2030
0000
3002
0000
0103
0020
,
0000
0000
0030
0000
1001
0010
1000
0100
,
0010
0001
0010
0001
1100
0010
1000
0100
,
1010
0001
0100
0010
0110
0001
1000
0100
,
0011
0100
1000
0010
0001
0010
1000
0100
,
2002
0000
0000
3003
;

//---------------dance-single - ----------------
#NOTES:
     dance-single:
     :
     Medium:
     5:
     0.341,0.357,0.169,0.514,0.008,212.000,21.000,64.000,0.000,0.000:
0001
0010
1000
0000
0010
0001
0100
0000
,
0010
0100
0001
0000
1000
0010
0100
0000
,
0010
0100
1000
0000
0001
0100
0010
0000
,
0100
0010
1001
0001
,
0100
1000
0110
0100
,
0001
0000
0010
0100
2000
0000
3010
0000
,
0001
0000
0100
1000
0020
0000
1030
0000
,
1001
0000
0010
0000
1010
0000
0010
0001
,
0100
0001
2001
3010
,
0100
0010
0001
0000
1001
0000
0010
0001
,
1000
0100
0010
0000
2000
0000
3002
0000
,
1003
0000
0000
2020
0000
0000
0000
0000
0000
0000
0000
0000
3030
0000
0000
0000
,
0100
0000
0000
0022
0000
0000
0000
0000
0000
0000
0000
0000
0033
0000
0000
0000
,
0010
0100
1000
0000
0110
0000
1001
0000
,
0010
0100
1000
0010
0001
0000
0200
0000
,
0310
0100
1000
0010
0001
0000
0020
0000
,
0130
0010
1000
0000
0200
0000
0300
0000
,
0010
0100
0001
0000
0020
0000
0030
0000
,
0001
0000
1000
0100
0010
0000
0200
0000
,
0302
0000
2003
0000
3100
0000
0010
0100
,
0001
0000
0010
2000
0000
0000
0000
0000
,
3002
0000
0200
0303
,
0010
0000
1000
0010
0100
0000
2000
0000
,
3002
0000
0023
0000
0032
0000
0103
0001
,
0010
0000
0100
2000
0000
0000
3000
0100
,
0020
0000
0002
0033
,
1001
0000
0001
0010
0100
0000
0020
0000
,
2030
0000
3002
0000
0023
0000
0130
1000
,
0010
0000
0010
0200
0000
0000
0000
0000
,
0310
0000
0100
0002
0000
0000
0003
0000
,
0200
0000
0320
0000
2030
0000
3010
2002
,
0000
0000
3003
0000
0010
0001
0100
0010
,
0001
0000
1000
0100
0010
0000
0200
0000
,
0320
2030
3002
0103
,
0010
0000
0000
0102
0000
0000
0000
0000
,
0203
0000
0020
0330
,
0010
0000
1000
0010
0001
0000
0020
0000
,
2030
3020
0032
0023
,
1030
0000
0010
0200
0000
0000
0000
0000
,
0302
0000
2000
3003
,
0001
0000
0100
0010
1000
0000
2010
0000
,
3001
0120
1030
0210
,
0301
0000
0100
0002
0000
0000
0003
0000
,
0010
0000
1000
0200
0000
0000
0300
0000
,
0002
0000
0023
0000
0230
0000
1300
2002
,
0000
3003
0010
0001
0100
0001
0010
0000
,
1001
0000
1000
0010
0100
0010
0001
0000
,
1001
0000
0001
0100
0010
0001
0100
0000
,
0110
0000
0100
0010
1000
0100
0010
0000
,
0220
0000
0000
0330
0000
0000
0000
0000
;
