#TITLE:Hardware Store;
#SUBTITLE:;
#ARTIST:"Weird Al" Yankovic;
#TITLETRANSLIT:;
#SUBTITLETRANSLIT:;
#ARTISTTRANSLIT:;
#CREDIT:;
#BANNER:hardwarestore.png;
#BACKGROUND:hardwarestore-bg.png;
#LYRICSPATH:;
#CDTITLE:;
#MUSIC:hardwarestore1.mp3;
#OFFSET:-0.332;
#SAMPLESTART:15.500;
#SAMPLELENGTH:15.600;
#SELECTABLE:YES;
#BPMS:0.000=252.800;
#STOPS:;
#BGCHANGES:;
// cache tags:
#FIRSTBEAT:32.000;
#LASTBEAT:584.000;
#SONGFILENAME:Songs/Community Keyboard Megapack - Volume 2/(SeanH) Hardware Store/hardwarestore.sm;
#HASMUSIC:1;
#HASBANNER:1;
#MUSICLENGTH:140.753;
// end cache tags

//---------------dance-single - ----------------
#NOTES:
     dance-single:
     :
     Hard:
     9:
     0.750,0.934,0.192,0.320,0.028,667.000,27.000,45.000,0.000,0.000:  // measure 1
0000
0000
0000
0000
,  // measure 2
0000
0000
0000
0000
,  // measure 3
0000
0000
0000
0000
,  // measure 4
0000
0000
0000
0000
,  // measure 5
0000
0000
0000
0000
,  // measure 6
0000
0000
0000
0000
,  // measure 7
0000
0000
0000
0000
,  // measure 8
0000
0000
0000
0000
,  // measure 9
1000
0000
0100
0000
,  // measure 10
1000
0000
0000
0000
0000
0001
0000
0000
0000
0010
0000
0000
,  // measure 11
0100
0000
0001
0000
,  // measure 12
0100
0000
0000
0000
0010
0000
0000
0000
0000
1000
0000
0000
,  // measure 13
0001
0000
0010
0000
,  // measure 14
0001
0000
0000
0000
0000
0100
0000
0000
0000
0010
0000
0000
,  // measure 15
1000
0100
0010
0001
,  // measure 16
1000
0010
0100
0001
,  // measure 17
0000
0000
1000
0100
1000
0100
0010
0001
,  // measure 18
0010
0001
0100
0010
0110
0000
1000
0001
,  // measure 19
1000
0000
0001
0000
1100
0000
0001
0010
,  // measure 20
0100
1000
0100
0010
1001
0000
0100
0001
,  // measure 21
1000
0000
0001
1000
0000
0100
0010
0100
,  // measure 22
0010
0100
0010
1001
0000
1000
0100
0010
,  // measure 23
0001
1000
0000
0001
,  // measure 24
0000
1000
0000
0110
,  // measure 25
0000
0000
1000
0000
0001
0000
1000
0100
,  // measure 26
0010
0001
1000
0100
0011
0000
1000
0000
,  // measure 27
0000
0001
0010
0100
1000
0000
1000
0001
,  // measure 28
1000
0100
0010
0001
1000
0000
0001
1000
,  // measure 29
0010
0000
0100
0001
0000
1000
0100
0010
,  // measure 30
0001
0000
0100
0010
0000
1000
0100
0010
,  // measure 31
0001
1000
0000
0001
,  // measure 32
0000
1000
0000
0110
,  // measure 33
0000
0000
1000
0000
0001
0000
0001
0010
,  // measure 34
0001
0100
0001
0000
0010
0000
1100
0001
,  // measure 35
0000
0001
0010
0100
1000
0000
0100
0010
,  // measure 36
0000
1000
0010
0100
0001
0000
1000
0100
,  // measure 37
0010
0000
0001
0010
0000
1000
0100
0010
,  // measure 38
0001
0010
0100
0000
0011
0000
1000
0100
,  // measure 39
0010
0001
0000
1000
,  // measure 40
0000
1000
0000
1001
,  // measure 41
0000
0000
0010
0100
0001
0000
0001
0010
,  // measure 42
0000
1000
0100
0010
1001
0000
0000
1000
,  // measure 43
0000
0001
0010
0100
1001
0010
0100
1000
,  // measure 44
0100
0010
0001
1000
0001
0000
1000
0100
,  // measure 45
0000
0001
0010
0001
1000
0000
0001
0010
,  // measure 46
0000
1000
0100
0010
0001
0000
1000
0010
,  // measure 47
0100
0001
0000
1001
,  // measure 48
0000
0110
0000
1001
,  // measure 49
0000
0000
2000
0000
0000
3002
0000
0000
,  // measure 50
0203
0000
0000
0320
0000
0000
1030
0000
,  // measure 51
0000
0000
0002
0000
0000
0203
0000
0000
,  // measure 52
0320
0000
0000
2030
0000
0000
3000
0000
,  // measure 53
0000
0000
1000
0000
0001
1000
0000
0000
,  // measure 54
0100
0000
0010
0100
0000
0001
0000
0000
,  // measure 55
0001
0000
0000
1000
0000
0000
2000
0000
,  // measure 56
0000
0000
3000
0000
,  // measure 57
0000
0000
1000
0000
0100
0010
0001
0010
,  // measure 58
0100
1000
0001
0100
0010
1000
0100
0010
,  // measure 59
0001
1000
0010
0100
0002
0003
2000
3000
,  // measure 60
0002
0203
0320
2030
,  // measure 61
3000
0000
0001
0110
0000
1000
0001
1000
,  // measure 62
0110
0000
1000
0100
0010
0001
1000
0100
,  // measure 63
2000
3002
0003
0220
,  // measure 64
0000
0000
0000
0000
,  // measure 65
0000
0000
0000
0000
,  // measure 66
0000
0000
0000
0330
,  // measure 67
2000
0001
0000
0001
,  // measure 68
0000
0001
0001
3001
,  // measure 69
0002
1000
0000
1000
,  // measure 70
0000
1000
1000
1003
,  // measure 71
0200
0001
0000
1000
,  // measure 72
0000
0001
0001
0301
,  // measure 73
0020
1000
0000
0001
,  // measure 74
0000
1000
1000
1030
,  // measure 75
0001
0000
0010
0000
0001
0000
1000
0100
,  // measure 76
0000
0001
0010
0000
1000
0000
0001
0000
,  // measure 77
1000
0000
0100
0000
0001
0000
0100
1000
,  // measure 78
0000
0001
0010
0000
0100
0000
0010
0000
,  // measure 79
0100
0000
0001
0000
1000
0000
0001
1000
,  // measure 80
0000
1000
0001
0000
0100
0000
0010
0000
,  // measure 81
1000
0100
0010
0001
,  // measure 82
1000
0000
0000
0000
0000
1000
0100
0000
,  // measure 83
1000
0100
1000
0100
0010
0001
0010
0001
,  // measure 84
0100
0001
1000
0010
1000
0001
0100
0010
,  // measure 85
1000
0010
0100
0001
0010
0001
0010
0100
,  // measure 86
0010
0001
1000
0010
1000
0001
0010
0100
,  // measure 87
1000
0001
0100
0010
1000
0001
1000
0010
,  // measure 88
0100
0000
0001
0000
1000
0000
0100
0000
1000
0001
1000
0000
0010
0000
0100
0000
,  // measure 89
0001
1000
0010
0100
0001
1000
0010
0100
,  // measure 90
0001
0010
0001
0010
0100
1000
0100
1000
,  // measure 91
0010
1000
0001
0100
0010
0100
0001
0010
,  // measure 92
0100
1000
0100
0001
0100
1000
0010
0001
,  // measure 93
0010
1000
0001
0010
1000
0010
0100
1000
,  // measure 94
0100
0010
1000
0010
0001
0010
0100
1000
,  // measure 95
0001
0100
0010
1000
0001
0100
1000
0100
,  // measure 96
1000
0100
0010
0001
0100
0010
1000
0100
,  // measure 97
0010
0001
1000
0100
0001
0100
1000
0010
,  // measure 98
0001
0010
1000
0001
0010
1000
0010
0001
,  // measure 99
1000
0010
0100
0001
1000
0100
1000
0001
,  // measure 100
0010
0001
1000
0010
1000
0001
0100
0001
,  // measure 101
0010
0100
1000
0001
0010
0100
1000
0010
,  // measure 102
0100
0001
1000
0100
0001
0100
0001
0100
,  // measure 103
0010
0001
1000
0100
0010
0001
1000
0001
,  // measure 104
1000
0010
0001
0010
1000
0100
1000
0001
,  // measure 105
1000
1000
0100
0100
0010
0010
0001
0001
,  // measure 106
1000
1000
0010
0010
0100
0100
0001
0001
,  // measure 107
1000
0001
1000
0001
1000
0001
1000
0001
,  // measure 108
0100
0010
0100
0010
0100
0010
0100
0010
,  // measure 109
1000
0100
1000
0100
0010
0001
0010
0001
,  // measure 110
1000
0100
0010
0001
1000
0100
0010
0001
,  // measure 111
1000
0010
0100
0001
0100
0010
1000
0001
,  // measure 112
0010
0100
1000
0010
1000
0001
0100
0010
,  // measure 113
1000
0001
0100
0010
0100
0001
1000
0100
,  // measure 114
0010
0001
0010
0001
1000
0100
1000
0100
,  // measure 115
0000
0000
2000
0000
0000
3002
0000
0000
,  // measure 116
2003
0000
0000
3002
0000
0000
1003
0000
,  // measure 117
0000
0000
0002
0000
0000
0023
0000
0000
,  // measure 118
0230
0000
0000
2300
0000
0000
3000
0000
,  // measure 119
0000
0000
0000
0001
0000
1000
0001
0000
,  // measure 120
1000
0000
0001
1000
0000
0001
0000
0000
,  // measure 121
1001
0000
0000
0110
0000
0000
2002
0000
,  // measure 122
0000
0000
0000
3003
,  // measure 123
0000
0000
0010
0000
1000
0100
0001
0100
,  // measure 124
1000
0010
0100
0001
1000
0100
0010
0001
,  // measure 125
1000
0001
1000
0100
2000
3000
0002
0003
,  // measure 126
2000
3020
0230
0302
,  // measure 127
0003
0000
0001
1100
0000
0001
0010
0100
,  // measure 128
1000
0100
1000
0001
0100
0010
1000
0001
,  // measure 129
0220
0000
0000
0000
,  // measure 130
0330
0000
2002
3003
,  // measure 131
0220
0000
0000
0000
,  // measure 132
0000
0000
0000
0000
0000
0000
0000
0330
,  // measure 133
1001
0000
1000
0000
,  // measure 134
0100
0000
0000
0000
0000
1000
0000
0000
0000
0100
0000
0000
,  // measure 135
0001
0000
0010
0000
,  // measure 136
0001
0000
0000
0000
0000
0010
0000
0000
0000
0100
0000
0000
,  // measure 137
1000
0000
0010
0000
,  // measure 138
0001
0000
0000
0000
0000
0100
0000
0000
0000
1000
0000
0000
,  // measure 139
0001
0000
0010
0000
,  // measure 140
1000
0000
0000
0000
0000
0010
0000
0000
0000
0001
0000
0000
,  // measure 141
1000
0001
1000
0001
,  // measure 142
1000
0001
1000
0001
0000
0001
1000
0000
,  // measure 143
0010
0100
0010
0100
,  // measure 144
0010
0100
0010
0100
0000
0100
0010
0000
,  // measure 145
1000
0100
0010
0001
,  // measure 146
1000
0100
0010
0001
0000
1000
0001
0000
,  // measure 147
1001
0000
0000
0000
;

//---------------dance-single - ----------------
#NOTES:
     dance-single:
     :
     Medium:
     7:
     0.606,0.830,0.107,0.291,0.025,541.000,15.000,41.000,0.000,0.000:  // measure 1
0000
0000
0000
0000
,  // measure 2
0000
0000
0000
0000
,  // measure 3
0000
0000
0000
0000
,  // measure 4
0000
0000
0000
0000
,  // measure 5
0000
0000
0000
0000
,  // measure 6
0000
0000
0000
0000
,  // measure 7
0000
0000
0000
0000
,  // measure 8
0000
0000
0000
0000
,  // measure 9
1000
0000
0100
0000
,  // measure 10
1000
0000
0000
0000
0000
0001
0000
0000
0000
0010
0000
0000
,  // measure 11
0100
0000
0001
0000
,  // measure 12
0100
0000
0000
0000
0010
0000
0000
0000
0000
1000
0000
0000
,  // measure 13
0001
0000
0010
0000
,  // measure 14
0001
0000
0000
0000
0000
0100
0000
0000
0000
0010
0000
0000
,  // measure 15
1000
0100
0010
0001
,  // measure 16
1000
0010
0100
0001
,  // measure 17
0000
0000
1000
0001
1000
0001
1000
0001
,  // measure 18
1000
0100
0010
0001
0010
0000
0001
1000
,  // measure 19
0001
0000
0100
0000
0100
0000
0001
0010
,  // measure 20
0100
1000
0001
0010
0100
0000
1000
0001
,  // measure 21
1000
0000
0001
1000
0000
0100
0010
0100
,  // measure 22
0010
0100
0010
0100
0000
1000
0100
0010
,  // measure 23
0001
1000
0000
0001
,  // measure 24
0000
1000
0000
0110
,  // measure 25
0000
0000
1000
0000
0001
0000
1000
0100
,  // measure 26
1000
0100
1000
0100
1000
0000
1000
0000
,  // measure 27
0000
0001
0010
0001
0010
0000
1000
0100
,  // measure 28
1000
0100
1000
0100
1000
0000
0001
1000
,  // measure 29
0001
0000
1000
0001
0000
1000
0100
0010
,  // measure 30
0001
0000
0100
0010
0000
1000
0100
0010
,  // measure 31
0001
1000
0000
0001
,  // measure 32
0000
1000
0000
0110
,  // measure 33
0000
0000
1000
0000
0001
0000
0001
0010
,  // measure 34
0001
0010
0001
0000
0010
0000
1000
0001
,  // measure 35
0000
0100
0010
0100
0010
0000
0100
0010
,  // measure 36
0000
1000
0010
0100
0001
0000
1000
0100
,  // measure 37
0010
0000
1000
0000
0000
1000
0010
1000
,  // measure 38
0010
1000
0010
0000
0100
0000
1000
0001
,  // measure 39
1000
0001
0000
1000
,  // measure 40
0000
1000
0000
1001
,  // measure 41
0000
0000
0010
0100
0010
0000
0100
0010
,  // measure 42
0000
1000
0100
0010
0001
0000
1000
0000
,  // measure 43
0000
0001
0010
0100
1000
0000
0000
0000
,  // measure 44
0001
1000
0001
1000
0001
0000
1000
0100
,  // measure 45
0000
0001
0010
0001
0010
0000
0001
0010
,  // measure 46
0000
1000
0100
1000
0100
0000
1000
0100
,  // measure 47
0001
1000
0000
1001
,  // measure 48
0000
0110
0000
1001
,  // measure 49
0000
0000
2000
0000
0000
3002
0000
0000
,  // measure 50
0203
0000
0000
0320
0000
0000
1030
0000
,  // measure 51
0000
0000
0002
0000
0000
0203
0000
0000
,  // measure 52
0320
0000
0000
2030
0000
0000
3000
0000
,  // measure 53
0000
0000
1000
0000
0001
1000
0000
0000
,  // measure 54
0100
0000
0010
0100
0000
0001
0000
0000
,  // measure 55
0001
0000
0000
1000
0000
0000
2000
0000
,  // measure 56
0000
0000
3000
0000
,  // measure 57
0000
0000
1000
0000
0001
0010
0100
1000
,  // measure 58
0001
0010
0100
1000
0001
1000
0001
1000
,  // measure 59
0001
1000
0001
1000
0002
0003
2000
3000
,  // measure 60
0002
0203
0320
2030
,  // measure 61
3000
0000
0010
0100
0000
0010
0100
0010
,  // measure 62
0100
0000
1000
0001
1000
0001
1000
0001
,  // measure 63
2000
3002
0003
0220
,  // measure 64
0000
0000
0000
0000
,  // measure 65
0000
0000
0000
0000
,  // measure 66
0000
0000
0000
0330
,  // measure 67
1000
0100
0000
0010
,  // measure 68
0000
1000
0001
1000
,  // measure 69
0001
0010
0000
0100
,  // measure 70
0000
1000
0001
1000
,  // measure 71
0010
0100
0000
0010
,  // measure 72
0000
0100
0010
0100
,  // measure 73
0010
1000
0000
0001
,  // measure 74
0000
1000
0100
0010
,  // measure 75
0001
0000
0010
0000
0001
0000
1000
0100
,  // measure 76
0000
1000
0100
0000
1000
0000
0001
0000
,  // measure 77
1000
0000
0100
0000
1000
0000
0001
0010
,  // measure 78
0000
0001
0010
0000
0001
0000
0010
0000
,  // measure 79
0100
0000
0001
0000
1000
0000
0001
1000
,  // measure 80
0000
0001
1000
0000
0100
0000
0010
0000
,  // measure 81
0001
0010
0100
1000
,  // measure 82
0001
0000
0000
0000
0000
1000
0100
0000
,  // measure 83
1000
1000
0001
0001
,  // measure 84
0100
0100
0010
0010
,  // measure 85
1000
0100
0010
0001
,  // measure 86
0001
0010
0100
1000
,  // measure 87
0001
0100
0001
0100
,  // measure 88
0010
1000
0010
1000
,  // measure 89
0001
0010
0100
1000
,  // measure 90
0001
0010
0001
0010
0100
1000
0100
1000
,  // measure 91
0010
1000
0001
1000
,  // measure 92
1000
0100
1000
0001
,  // measure 93
0100
0010
0010
0100
,  // measure 94
1000
0001
0001
1000
,  // measure 95
0100
0010
0001
1000
,  // measure 96
0010
1000
0001
0100
,  // measure 97
0010
1000
0001
0100
,  // measure 98
0010
0100
0010
0100
0001
1000
0001
1000
,  // measure 99
0010
0100
0001
1000
,  // measure 100
0001
0010
0100
1000
,  // measure 101
0010
0100
0001
1000
,  // measure 102
0010
1000
0010
1000
,  // measure 103
0001
0100
0001
0100
,  // measure 104
0010
0100
0010
1000
,  // measure 105
0001
1000
0001
0100
,  // measure 106
0001
0010
0100
1000
0001
0010
0100
1000
,  // measure 107
0001
0100
0010
1000
,  // measure 108
1000
0010
0100
0001
,  // measure 109
1000
1000
0100
0100
,  // measure 110
0010
0010
0001
0001
,  // measure 111
1000
0100
0010
0001
,  // measure 112
0001
0010
0100
1000
,  // measure 113
0100
0010
0100
0010
,  // measure 114
0001
1000
0001
1000
0010
0100
0010
0100
,  // measure 115
0000
0000
2000
0000
0000
3002
0000
0000
,  // measure 116
2003
0000
0000
3002
0000
0000
1003
0000
,  // measure 117
0000
0000
0002
0000
0000
0023
0000
0000
,  // measure 118
0230
0000
0000
2300
0000
0000
3000
0000
,  // measure 119
0000
0000
0000
0001
0000
1000
0001
0000
,  // measure 120
1000
0000
0001
1000
0000
0001
0000
0000
,  // measure 121
1001
0000
0000
0110
0000
0000
2002
0000
,  // measure 122
0000
0000
0000
3003
,  // measure 123
0000
0000
0010
0000
0100
0010
0100
0010
,  // measure 124
0100
0010
0100
0010
1000
0001
1000
0001
,  // measure 125
1000
0001
1000
0001
2000
3000
0002
0003
,  // measure 126
2000
3020
0230
0302
,  // measure 127
0003
0000
1000
0100
0000
1000
0100
0010
,  // measure 128
0001
1000
0100
0010
0001
1000
0001
1000
,  // measure 129
0220
0000
0000
0000
,  // measure 130
0330
0000
2002
3003
,  // measure 131
0220
0000
0000
0000
,  // measure 132
0000
0000
0000
0000
0000
0000
0000
0330
,  // measure 133
1001
0000
1000
0000
,  // measure 134
0100
0000
0000
0000
0000
1000
0000
0000
0000
0100
0000
0000
,  // measure 135
0001
0000
0010
0000
,  // measure 136
0001
0000
0000
0000
0000
0010
0000
0000
0000
0100
0000
0000
,  // measure 137
1000
0000
0010
0000
,  // measure 138
0001
0000
0000
0000
0000
0100
0000
0000
0000
1000
0000
0000
,  // measure 139
0001
0000
0010
0000
,  // measure 140
1000
0000
0000
0000
0000
0010
0000
0000
0000
0001
0000
0000
,  // measure 141
1000
0001
1000
0001
,  // measure 142
1000
0000
0000
0001
0000
0000
1000
0000
,  // measure 143
0010
0100
0010
0100
,  // measure 144
0010
0000
0000
0100
0000
0000
0010
0000
,  // measure 145
1000
0100
0010
0001
,  // measure 146
1000
0000
0000
0001
0000
0000
1000
0000
,  // measure 147
0110
0000
0000
0000
;

//---------------dance-single - ----------------
#NOTES:
     dance-single:
     :
     Easy:
     5:
     0.447,0.726,0.107,0.291,0.025,384.000,15.000,41.000,0.000,0.000:  // measure 1
0000
0000
0000
0000
,  // measure 2
0000
0000
0000
0000
,  // measure 3
0000
0000
0000
0000
,  // measure 4
0000
0000
0000
0000
,  // measure 5
0000
0000
0000
0000
,  // measure 6
0000
0000
0000
0000
,  // measure 7
0000
0000
0000
0000
,  // measure 8
0000
0000
0000
0000
,  // measure 9
1000
0000
0100
0000
,  // measure 10
1000
0000
0000
0000
0000
0001
0000
0000
0000
0010
0000
0000
,  // measure 11
0100
0000
0001
0000
,  // measure 12
0100
0000
0000
0000
0010
0000
0000
0000
0000
1000
0000
0000
,  // measure 13
0001
0000
0010
0000
,  // measure 14
0001
0000
0000
0000
0000
0100
0000
0000
0000
0010
0000
0000
,  // measure 15
1000
0000
0100
0000
,  // measure 16
0010
0000
0001
0000
,  // measure 17
0000
0100
0010
1000
,  // measure 18
0001
1000
0010
1000
,  // measure 19
0100
0001
0100
1000
,  // measure 20
0001
0010
0100
1000
,  // measure 21
0010
0000
0100
0010
0000
0100
0000
0000
,  // measure 22
0001
0000
1000
0001
0000
1000
0000
0000
,  // measure 23
0010
1000
0000
0001
,  // measure 24
0000
1000
0000
0110
,  // measure 25
0000
1000
0001
1000
,  // measure 26
0100
0010
0001
1000
,  // measure 27
0000
0001
0000
0001
0000
0000
0000
0000
,  // measure 28
1000
1000
1000
1000
,  // measure 29
1000
0000
0100
0010
0000
1000
0000
0001
,  // measure 30
0000
0000
0100
0010
0000
1000
0000
0001
,  // measure 31
0000
1000
0000
0001
,  // measure 32
0000
1000
0000
0110
,  // measure 33
0000
1000
0001
0010
,  // measure 34
0100
1000
0010
0100
,  // measure 35
0000
0001
0000
1000
0000
0000
0100
0010
,  // measure 36
0000
1000
0001
1000
0001
0000
1000
0000
,  // measure 37
0010
0000
1000
0000
0000
0001
0000
0001
,  // measure 38
0000
0001
0000
0000
0100
0000
1000
0001
,  // measure 39
1000
0001
0000
1000
,  // measure 40
0000
1000
0000
1001
,  // measure 41
0000
0010
0100
0010
,  // measure 42
0000
1000
0000
0001
0000
0000
1000
0000
,  // measure 43
0000
0001
0000
0100
0000
0000
0000
0000
,  // measure 44
0010
0000
0010
0000
0010
0000
1000
0100
,  // measure 45
0000
0001
1000
0001
1000
0000
0001
0010
,  // measure 46
0000
1000
0001
1000
0001
0000
0100
0010
,  // measure 47
0100
0001
0000
1001
,  // measure 48
0000
0110
0000
1001
,  // measure 49
0000
0000
2000
0000
0000
3002
0000
0000
,  // measure 50
0203
0000
0000
0320
0000
0000
1030
0000
,  // measure 51
0000
0000
0002
0000
0000
0203
0000
0000
,  // measure 52
0320
0000
0000
2030
0000
0000
3000
0000
,  // measure 53
0000
0000
1000
0000
0001
1000
0000
0000
,  // measure 54
0100
0000
0010
0100
0000
0001
0000
0000
,  // measure 55
0001
0000
0000
1000
0000
0000
2000
0000
,  // measure 56
0000
0000
3000
0000
,  // measure 57
0000
1000
0001
0100
,  // measure 58
0010
1000
0001
1000
,  // measure 59
0001
0000
1000
0000
0002
0003
2000
3000
,  // measure 60
0002
0203
0320
2030
,  // measure 61
3000
0000
0010
0000
0000
0010
0000
0010
,  // measure 62
0000
1000
0100
0001
,  // measure 63
2000
3002
0003
0220
,  // measure 64
0000
0000
0000
0000
,  // measure 65
0000
0000
0000
0000
,  // measure 66
0000
0000
0000
0330
,  // measure 67
1000
0100
0000
0010
,  // measure 68
0000
1000
0001
1000
,  // measure 69
0001
0010
0000
0100
,  // measure 70
0000
1000
0001
1000
,  // measure 71
0010
0100
0000
0010
,  // measure 72
0000
0100
0010
0100
,  // measure 73
0010
1000
0000
0001
,  // measure 74
0000
1000
0100
0010
,  // measure 75
0001
0010
0001
1000
,  // measure 76
0000
1000
0000
0000
1000
0000
0001
0000
,  // measure 77
1000
0100
1000
0001
,  // measure 78
0000
0001
0000
0000
0001
0000
0010
0000
,  // measure 79
0100
0001
1000
0001
,  // measure 80
0000
0001
0000
0000
0100
0000
0010
0000
,  // measure 81
0001
0010
0100
1000
,  // measure 82
0001
0000
0000
0000
0000
1000
0100
0000
,  // measure 83
1000
0000
0001
0000
,  // measure 84
0100
0000
0010
0000
,  // measure 85
1000
0000
0100
0000
,  // measure 86
0010
0000
0001
0000
,  // measure 87
1000
0000
0001
0000
,  // measure 88
0010
0000
0100
0000
,  // measure 89
0001
0000
1000
0000
,  // measure 90
0001
0010
0100
1000
,  // measure 91
0010
0000
1000
0000
,  // measure 92
0010
0000
0100
0000
,  // measure 93
0001
0000
0010
0000
,  // measure 94
1000
0000
0100
0000
,  // measure 95
0001
0000
1000
0000
,  // measure 96
0001
0000
0010
0000
,  // measure 97
0100
0000
1000
0000
,  // measure 98
0010
0100
0010
0100
,  // measure 99
0010
0000
1000
0000
,  // measure 100
0001
0000
1000
0000
,  // measure 101
0001
0000
0100
0000
,  // measure 102
0010
0000
0100
0000
,  // measure 103
0001
0000
1000
0000
,  // measure 104
0010
0000
0100
0000
,  // measure 105
0010
0000
1000
0000
,  // measure 106
0001
0100
0010
1000
,  // measure 107
0001
0000
0010
0000
,  // measure 108
1000
0000
0100
0000
,  // measure 109
1000
0000
0100
0000
,  // measure 110
0010
0000
0001
0000
,  // measure 111
0001
0000
0010
0000
,  // measure 112
0100
0000
1000
0000
,  // measure 113
0001
0000
1000
0000
,  // measure 114
1000
0100
0010
0001
,  // measure 115
0000
0000
2000
0000
0000
3002
0000
0000
,  // measure 116
2003
0000
0000
3002
0000
0000
1003
0000
,  // measure 117
0000
0000
0002
0000
0000
0023
0000
0000
,  // measure 118
0230
0000
0000
2300
0000
0000
3000
0000
,  // measure 119
0000
0000
0000
0001
0000
1000
0000
0000
,  // measure 120
1000
0000
0001
0000
0000
0001
0000
0000
,  // measure 121
1001
0000
0000
0110
0000
0000
2002
0000
,  // measure 122
0000
0000
0000
3003
,  // measure 123
0000
0010
1000
0100
,  // measure 124
1000
0100
0010
0001
,  // measure 125
0010
0000
0001
0000
2000
3000
0002
0003
,  // measure 126
2000
3020
0230
0302
,  // measure 127
0003
0000
1000
0000
0000
1000
0000
0010
,  // measure 128
0000
0100
0000
0001
0000
1000
0001
1000
,  // measure 129
0220
0000
0000
0000
,  // measure 130
0330
0000
2002
3003
,  // measure 131
0220
0000
0000
0000
,  // measure 132
0000
0000
0000
0000
0000
0000
0000
0330
,  // measure 133
1001
0000
1000
0000
,  // measure 134
0100
0000
0000
0000
0000
1000
0000
0000
0000
0100
0000
0000
,  // measure 135
0001
0000
0010
0000
,  // measure 136
0001
0000
0000
0000
0000
0010
0000
0000
0000
0100
0000
0000
,  // measure 137
1000
0000
0010
0000
,  // measure 138
0001
0000
0000
0000
0000
0100
0000
0000
0000
1000
0000
0000
,  // measure 139
0001
0000
0010
0000
,  // measure 140
1000
0000
0000
0000
0000
0010
0000
0000
0000
0001
0000
0000
,  // measure 141
1000
0001
1000
0001
,  // measure 142
1000
0000
0000
0001
0000
0000
1000
0000
,  // measure 143
0010
0100
0010
0100
,  // measure 144
0010
0000
0000
0100
0000
0000
0010
0000
,  // measure 145
1000
0100
0010
0001
,  // measure 146
1000
0000
0000
0001
0000
0000
1000
0000
,  // measure 147
0110
0000
0000
0000
;
