#TITLE:Glitter Gulch Mine;
#SUBTITLE:(Banjo Tooie);
#ARTIST:Rareware;
#TITLETRANSLIT:;
#SUBTITLETRANSLIT:;
#ARTISTTRANSLIT:;
#CREDIT:;
#BANNER:ggm.png;
#BACKGROUND:ggm-bg.png;
#LYRICSPATH:;
#CDTITLE:kykaCD.png;
#MUSIC:Glitter Gulch Mine.mp3;
#OFFSET:-1.980;
#SAMPLESTART:16.740;
#SAMPLELENGTH:14.760;
#SELECTABLE:YES;
#BPMS:0.000=130.070;
#STOPS:;
#BGCHANGES:;
// cache tags:
#FIRSTBEAT:0.000;
#LASTBEAT:256.000;
#SONGFILENAME:Songs/toune 6/Glitter Gulch Mine/tooie.sm;
#HASMUSIC:1;
#HASBANNER:1;
#MUSICLENGTH:134.956;
// end cache tags

//---------------dance-single - ----------------
#NOTES:
     dance-single:
     :
     Beginner:
     1:
     0.138,0.142,0.007,0.000,0.000,129.000,1.000,0.000,0.000,0.000:
1000
0000
1000
0000
,
0001
0000
0001
0000
,
0100
0000
0100
0000
,
0010
0000
0010
0000
,
0000
1000
0000
1000
,
0000
0001
0000
0001
,
0000
0100
0000
0100
,
0000
0010
0000
0010
,
1000
0000
0010
0000
,
0100
0000
0001
0000
,
1000
0000
0001
0000
,
0100
0000
0010
0000
,
1000
0000
0100
0000
,
1000
0000
0010
0000
,
0100
0000
0001
0000
,
0010
0000
0001
0000
,
0100
0000
0010
0000
,
1000
0000
0001
0000
,
0100
0000
0001
0000
,
1000
0000
0100
0000
,
1000
0000
0010
0000
,
0100
0000
0001
0000
,
1000
0000
0001
0000
,
0100
0000
0001
0000
,
0010
0000
0001
0000
,
0100
0000
0010
0000
,
1000
0000
0100
0000
,
0010
0000
0001
0000
,
0100
0000
0001
0000
,
1000
0000
0001
0000
,
0100
0000
0001
0000
,
1000
0000
0100
0000
,
1000
0000
0010
0000
,
0100
0000
0001
0000
,
0010
0000
0001
0000
,
0100
0000
0010
0000
,
1000
0000
0010
0000
,
0100
0000
0001
0000
,
1000
0000
0001
0000
,
0100
0000
0001
0000
,
0010
0000
0001
0000
,
0100
0000
0010
0000
,
1000
0000
0100
0000
,
0010
0000
0001
0000
,
0100
0000
0001
0000
,
1000
0000
0001
0000
,
0100
0000
0001
0000
,
1000
0000
0100
0000
,
1000
0000
0010
0000
,
0100
0000
0001
0000
,
0010
0000
0001
0000
,
0100
0000
0010
0000
,
1000
0000
0010
0000
,
0100
0000
0001
0000
,
1000
0000
0001
0000
,
0100
0000
0001
0000
,
0010
0000
0001
0000
,
0100
0000
0010
0000
,
1000
0000
0100
0000
,
0010
0000
0001
0000
,
0100
0000
0001
0000
,
1000
0000
0001
0000
,
0100
0000
0001
0000
,
1000
0000
0100
0000
,
0011
0000
0000
0000
;

//---------------dance-single - ----------------
#NOTES:
     dance-single:
     :
     Easy:
     3:
     0.231,0.261,0.022,0.000,0.000,215.000,3.000,0.000,0.000,0.000:
1000
0100
0010
0001
,
0100
0001
1000
0001
,
0100
0001
0010
0001
,
0100
0010
1000
0001
,
0100
0010
0000
1000
,
0000
0001
0000
0100
,
0000
0001
0000
1000
,
0000
0100
0000
1000
,
0010
1000
0001
1000
,
0001
0001
0001
0000
,
1000
0100
1000
0010
,
0100
0100
0100
0000
,
0001
1000
0001
1000
,
0100
0100
0100
0000
,
0010
0001
0100
0001
,
1000
1000
1000
0000
,
0010
1000
0001
0100
,
0001
0001
0001
0000
,
0100
0010
1000
0001
,
0010
0010
0010
0000
,
0001
1000
0100
1000
,
0010
0010
0010
0000
,
0100
0001
1000
0001
,
1000
1000
1000
0000
,
0001
0000
1000
1000
,
0010
0010
0010
0000
,
1000
0000
0001
0100
,
0001
0000
0000
0000
,
1000
0000
0100
1000
,
0010
0100
0001
0000
,
1000
0100
1000
0010
,
0100
0001
1000
0001
,
1000
0001
1000
0001
,
0100
0100
0100
0000
,
0010
1000
0001
0100
,
0001
0001
0001
0000
,
0100
0010
1000
0100
,
1000
1000
1000
0000
,
0001
0100
0001
0010
,
0100
0100
0100
0000
,
0010
0001
1000
0001
,
1000
0001
1000
0001
,
0000
1000
0000
0010
,
0000
0100
0000
0001
,
1000
0100
0010
0001
,
0100
0100
0100
0000
,
0010
1000
0001
0100
,
0010
0010
0010
0000
,
1000
0001
1000
0000
,
0001
0100
0001
1000
,
0100
0100
0100
0000
,
0010
0001
0100
0010
,
1000
1000
1000
0000
,
0001
1000
0001
0000
,
0100
0010
1000
0001
,
0010
0010
0010
0000
,
0001
0100
0010
1000
,
0100
0100
0100
0000
,
1000
0010
1000
0000
,
0001
0100
0001
1000
,
0100
0100
0100
0000
,
0010
0001
0100
0010
,
1000
1000
1000
0000
,
0001
1000
1001
0110
,
1001
0000
0000
0000
;

//---------------dance-single - ----------------
#NOTES:
     dance-single:
     :
     Medium:
     5:
     0.305,0.308,0.015,0.052,0.215,279.000,2.000,7.000,0.000,0.000:
1000
0000
0001
0100
0000
0000
0001
0000
1000
0100
0000
0000
,
1000
0000
0001
0100
0000
0000
0001
0000
1000
0010
0000
0000
,
1000
0000
0001
0100
0000
0000
1000
0000
0001
0010
0000
0000
,
0001
0000
1000
0010
0000
1000
0010
0000
0000
0100
0000
0000
,
0100
0000
0000
0001
0000
0001
0000
0000
0000
1000
0000
0000
,
0000
0000
0000
0010
0000
0010
0000
0000
0000
1000
0000
0000
,
0000
0000
0000
0010
0000
0010
0000
0000
0000
0100
0000
0000
,
0000
0000
0000
0001
0000
0001
0000
0000
0000
1000
0000
0000
,
0001
1000
0100
0010
,
0001
0000
1000
0001
0000
1000
0001
0000
0000
1000
0000
0000
,
0010
0100
0010
1000
,
0001
0000
0100
0001
0000
0000
1001
0000
0000
0000
0000
0000
,
0010
1000
0001
0100
,
0010
0000
1000
0010
0000
1000
0010
0000
0000
0100
0000
0000
,
0001
0010
0001
0100
,
0001
0000
1000
0001
0000
1000
0001
0000
0000
0000
0000
0000
,
1000
0010
0100
0001
,
0010
0000
0001
0010
0000
0001
0010
0000
0000
0001
0000
0000
,
1000
0100
1000
0010
,
0100
0000
0010
0100
0000
0000
0010
0000
0000
0000
0000
0000
,
1000
0001
0100
0001
,
1000
0000
0001
1000
0000
0001
1000
0000
0000
0010
0000
0000
,
0100
0010
1000
0001
,
0100
0000
0001
0100
0000
0001
0100
0000
0000
0000
0000
0000
,
0010
0000
0000
0000
0000
0000
1000
0000
0100
1000
0000
0000
,
0001
0001
2000
0000
,
3020
0000
0000
0000
0000
0000
0130
0000
0001
0100
0000
0000
,
0002
0000
0000
0000
,
2003
0000
0000
0000
0000
0000
3010
0000
0100
0010
0000
0000
,
1000
1000
0020
0000
,
1030
0000
0000
0010
0000
0000
0100
0000
0000
0001
0000
1000
,
0001
0100
0010
1000
,
0001
1000
0100
0010
,
0001
0000
1000
0001
0000
1000
0001
0000
0000
1000
0000
0000
,
0010
0100
0010
1000
,
0001
0000
0100
0001
0000
0000
1001
0000
0000
0000
0000
0000
,
0010
1000
0001
0100
,
0010
0000
1000
0010
0000
1000
0010
0000
0000
0100
0000
0000
,
0001
0010
0001
0100
,
0001
0000
1000
0001
0000
1000
0001
0000
0000
0000
0000
0000
,
1000
0000
0000
0010
0000
0100
0010
0000
0000
1000
0000
0000
,
0001
0100
0001
1000
,
0000
0000
0000
0010
0000
1000
0000
0000
0000
0001
0000
0000
,
0000
0000
0000
1000
0000
0001
0000
0000
0000
0100
0000
0000
,
0001
0000
0000
1000
0000
0000
0010
0000
0100
0010
0000
0100
,
0010
1000
0001
0000
,
1000
0000
0000
0001
0000
0000
0100
0000
0001
0100
0000
0001
,
0100
0010
1000
0000
,
0001
1000
0002
0000
,
0103
0000
0000
0010
0000
0000
0100
0000
0010
1000
0000
0010
,
1000
0001
0100
0000
,
0010
0000
0000
1000
0000
0000
0100
0000
0010
0100
0000
0010
,
0001
0100
0010
0000
,
1000
0001
1000
0000
,
0001
0000
0000
1000
0000
0000
0010
0000
0100
0010
0000
0100
,
0010
1000
0001
0000
,
1000
0000
0000
0001
0000
0000
0100
0000
0001
0100
0000
0001
,
0100
0010
1000
0000
,
0001
1000
0002
0000
,
0103
0000
0000
0010
0000
0000
0100
0000
0010
1000
0000
0010
,
1000
0001
0100
0000
,
0010
0000
0000
1000
0000
0000
0100
0000
0010
0100
0000
0010
,
0001
0100
0010
0000
,
1000
0000
0000
0001
0000
0000
1000
0000
0001
1000
0000
0001
,
1000
0000
0000
0000
;

//---------------dance-single - ----------------
#NOTES:
     dance-single:
     :
     Hard:
     7:
     0.376,0.403,0.082,0.082,0.363,333.000,11.000,11.000,0.000,0.000:
1000
0000
0001
0100
0000
0010
1000
0000
0100
1000
0000
0010
,
0100
0000
0001
0100
0000
0001
1000
0000
0100
1000
0000
0010
,
0100
0000
0010
1000
0000
0001
0100
0000
0010
1000
0000
0010
,
0100
0000
0001
1000
0000
0001
0100
0000
0000
0010
1000
0010
,
1000
0000
0001
0100
0000
0101
0000
0000
0010
1010
0000
0000
,
0010
0000
1000
0010
0000
0110
0000
0000
0010
1010
0000
0000
,
0001
0000
1000
0100
0000
0110
0000
0000
0010
0011
0000
0000
,
0001
0000
1000
0001
0000
1000
0100
0000
0000
0010
0001
1000
,
0001
0000
0000
1000
0000
0010
0100
0000
0000
0001
0000
0000
,
1000
0000
0100
1000
0000
0010
0100
0000
0000
0001
0000
0000
,
1000
0000
0000
0100
0000
0010
0001
0000
0000
0100
0000
0000
,
0010
0000
1000
0010
0000
0000
1010
0000
0000
0010
0000
0000
,
0100
0000
0000
0001
0000
0100
0010
0000
0000
1000
0000
0000
,
0010
0000
0100
0001
0000
1000
0001
0000
0000
0100
0000
0000
,
0010
0000
0000
1000
0000
0100
1000
0000
0000
0010
0000
0000
,
0100
0000
0001
0100
0000
0010
1000
0000
0000
0010
0000
0000
,
1000
0100
1000
0010
,
0100
0000
0010
1000
0000
0001
0100
0000
0000
0010
0000
0000
,
1000
0100
1000
0010
,
0100
0000
0001
1000
0000
0000
0001
0000
0000
0100
0000
0000
,
0001
1000
0100
1000
,
0010
0000
0100
0010
0000
1000
0010
0000
0000
0100
0000
0000
,
0001
1000
0001
0100
,
0010
0000
1000
0100
0000
1000
0010
0000
0000
1000
0000
0000
,
0002
0000
0000
0000
0000
0000
1003
0000
0010
0100
0000
0000
,
0010
1000
0002
0000
,
0203
0000
0000
0000
0000
0000
0310
0000
1000
0001
0000
0000
,
2000
0000
0000
0000
,
3002
0000
0000
0000
0000
0000
0103
0000
0010
1000
0000
0000
,
0010
0000
0000
0100
0000
0000
0002
0000
0000
0000
1003
0001
,
1000
0000
0000
0100
0000
0000
0010
0000
0000
0001
0000
0100
,
0010
0000
1000
0001
0000
0000
0100
0000
0000
0001
0000
0000
,
1000
0000
0000
0001
0000
0100
0010
0000
0000
1000
0000
0000
,
0001
0000
0010
0001
0000
0100
0010
0000
0000
1000
0000
0000
,
0001
0000
0000
0010
0000
0100
1000
0000
0000
0010
0000
0000
,
0100
0000
0001
0100
0000
0000
0101
0000
0000
0100
0000
0000
,
0010
0000
0000
1000
0000
0010
0100
0000
0000
0001
0000
0000
,
0100
0000
0010
1000
0000
0001
1000
0000
0000
0010
0000
0000
,
0100
0000
0000
0001
0000
0010
0001
0000
0000
0100
0000
0000
,
0010
0000
1000
0010
0000
0100
0001
0000
0000
0100
0000
0000
,
0001
0000
0000
1000
0000
0100
1000
0000
0000
0010
0000
0000
,
0100
0010
1000
0001
,
1001
0000
0000
0010
0000
0010
0100
0000
0000
0001
0000
0000
,
1000
0000
0000
0100
0000
0100
0010
0000
0000
0001
0000
0000
,
1000
0000
0000
0010
0000
0000
0100
0000
0001
1000
0000
0001
,
0100
0000
0000
0010
0000
0000
1000
0000
0000
0000
0000
0001
,
0100
0000
0000
0010
0000
0000
0100
0000
0001
1000
0000
0001
,
0010
0000
0000
0001
0000
0000
1000
0000
0000
0000
0000
0010
,
1000
0000
0000
0001
0000
0000
0200
0000
0000
0300
0000
0010
,
1000
0000
0000
0001
0000
0000
0100
0000
0001
1000
0000
0100
,
1000
0000
0000
0010
0000
0000
0100
0000
0000
0000
0000
0010
,
1000
0000
0000
0001
0000
0000
0100
0000
0010
0100
0000
0010
,
1000
0001
0100
0000
,
0010
0000
0000
1000
0000
0000
1010
0000
0000
0000
0000
1000
,
0001
0000
0000
0100
0000
0000
0001
0000
1000
0100
0000
1000
,
0010
0000
0000
0100
0000
0000
0020
0000
0000
0000
0000
1030
,
0001
0000
0000
0100
0000
0000
0001
0000
1000
0100
0000
1000
,
0010
0000
0000
0100
0000
0000
0020
0000
0000
0000
0000
0030
,
1000
0001
1000
0001
0000
0100
0010
0000
0000
0000
0000
1000
,
0001
0000
0000
0100
0000
0000
0001
0000
0010
0001
0000
0100
,
0001
0000
0000
1000
0000
0000
0020
0000
0000
0000
0000
1030
,
0100
0000
0000
1000
0000
0000
0001
0000
0001
1000
0000
1000
,
0001
0100
0002
0000
,
1003
0000
0000
0001
0000
0001
0010
0000
0010
0001
0000
0001
,
1001
0000
0000
0000
;
