#TITLE:Isolated 00 Princess;
#SUBTITLE:;
#ARTIST:LOLIPO;
#TITLETRANSLIT:;
#SUBTITLETRANSLIT:;
#ARTISTTRANSLIT:;
#CREDIT:Aoreo;
#BANNER:isolated 00 bn.png;
#BACKGROUND:isolated 00 bg.png;
#LYRICSPATH:;
#CDTITLE:;
#MUSIC:Isolated 00 Princess.ogg;
#OFFSET:0.004;
#SAMPLESTART:34.934;
#SAMPLELENGTH:12.000;
#SELECTABLE:YES;
#BPMS:0.000=240.000;
#STOPS:;
#BGCHANGES:;
// cache tags:
#FIRSTBEAT:32.000;
#LASTBEAT:603.500;
#SONGFILENAME:Songs/SPEEEDCOOOORE 3/Isolated 00 Princess - [Aoreo]/Isolated 00 Princess.sm;
#HASMUSIC:1;
#HASBANNER:1;
#MUSICLENGTH:152.000;
// end cache tags

//---------------dance-single - J. Nero----------------
#NOTES:
     dance-single:
     J. Nero:
     Challenge:
     14:
     0.915,1.000,0.092,0.474,0.589,864.000,14.000,72.000,78.000,0.000:
0000
0000
0000
0000
,
0000
0000
0000
0000
,
0000
0000
0000
0000
,
0000
0000
0000
0000
,
0000
0000
0000
0000
,
0000
0000
0000
0000
,
0000
0000
0000
0000
,
0000
0000
0000
0000
,
2000
3000
0000
0000
0000
0000
0000
0000
0000
0000
0000
0000
0000
0000
0000
0000
2000
3000
0000
0000
0000
0000
0000
0000
0000
0000
0000
0000
0000
0000
0000
0000
,
2000
3000
0000
0000
0000
0000
0000
0000
0000
0000
0000
0000
0000
0000
0000
0000
2000
3000
0000
0000
0000
0000
0000
0000
0000
0000
0000
0000
0000
0000
0000
0000
,
2000
3000
0000
0000
0000
0000
0000
0000
0000
0000
0000
0000
0000
0000
0000
0000
2000
3000
0000
0000
0000
0000
0000
0000
0000
0000
0000
0000
0000
0000
0000
0000
,
2000
3000
0000
0000
0000
0000
0000
0000
0000
0000
0000
0000
0000
0000
0000
0000
2000
3000
0000
0000
0000
0000
0000
0000
0000
0000
0000
0000
0000
0000
0000
0000
,
0002
0003
0000
0000
0000
0000
0000
0000
0000
0000
0000
0000
0000
0000
0000
0000
0002
0003
0000
0000
0000
0000
0000
0000
0000
0000
0000
0000
0000
0000
0000
0000
,
0002
0003
0000
0000
0000
0000
0000
0000
0000
0000
0000
0000
0000
0000
0000
0000
0002
0003
0000
0000
0000
0000
0000
0000
0000
0000
0000
0000
0000
0000
0000
0000
,
0002
0003
0000
0000
0000
0000
0000
0000
0000
0000
0000
0000
0000
0000
0000
0000
0002
0003
0000
0000
0000
0000
0000
0000
0000
0000
0000
0000
0000
0000
0000
0000
,
0002
0003
0000
0000
0000
0000
0000
0000
0000
0000
0000
0000
0000
0000
0000
0000
0002
0003
0000
0000
0000
0000
0000
0000
0000
0000
0000
0000
0000
0000
0000
0000
,
1001
0000
1000
0000
,
0110
0000
0100
0010
,
0100
0010
0010
0000
,
0101
0000
0001
0010
,
0110
0000
0100
0000
,
1100
0000
1000
0100
,
1000
0100
0100
0000
,
1001
0000
0001
0000
,
0101
0000
0001
0000
,
0101
0000
0001
1000
,
0001
1000
1000
0000
,
0002
0000
0000
0000
0000
0000
0000
0003
,
MMMM
0000
0000
0000
,
0000
0000
0000
0000
,
0000
0000
0000
0000
,
0000
0000
0000
0000
,
0000
0000
0000
0000
,
1000
0001
1000
0010
0100
0010
1000
0001
1000
0100
1000
0001
0010
0100
1000
0001
,
0100
0010
0100
0001
1000
0100
1000
0001
0100
0010
0100
0001
1000
0100
0010
0001
,
1000
0000
0000
0000
,
0004
0000
0000
0000
0003
0000
0000
0000
1000
0000
0000
0000
0100
0000
0000
0000
1000
0000
0000
0000
0000
0000
0000
0000
0001
0000
0000
0000
0100
0000
0000
0000
0010
0000
0000
0000
0000
0000
0000
0000
1000
0000
0000
0000
0000
0000
0000
0000
0001
0000
0000
0000
0000
0000
0000
0000
0000
0000
0000
0000
0000
0000
0000
2000
,
0000
3000
0000
0000
0000
0000
0000
0000
0100
0000
0000
0000
0000
0000
0000
0000
0010
0000
0000
0000
0000
0000
0000
0000
0001
0000
0000
0000
0000
0000
0000
0000
0100
0000
0000
0000
0001
0000
0000
0000
0100
0000
0000
0000
0010
0000
0000
0000
1000
0000
0000
0000
0001
0000
0000
0000
1000
0000
0000
0000
0100
0000
0000
0000
,
0010
0001
1000
0000
0001
0100
0010
0100
,
0004
0000
0003
0000
0000
0000
0000
0000
0004
0000
0003
0000
0000
0000
0000
0000
0010
0000
0000
0000
0000
0000
0000
0200
0000
0300
0000
0000
0000
0000
0000
0000
0000
0000
0000
0000
0000
0000
0000
0200
0000
0300
0000
0000
0000
0000
0000
0000
0000
0000
0000
0000
0000
0000
0000
0000
1000
0000
0000
0000
0000
0000
0000
0000
,
0001
0001
0001
0001
0100
0100
0100
0100
,
0001
0010
0100
1000
0001
0100
0000
0100
,
0000
0100
0010
0100
0001
0010
0100
1000
,
0001
0100
0001
0100
0000
0001
0010
0000
,
0001
0000
0010
0000
0100
0000
1000
0000
0001
0010
0001
1000
0100
0010
0100
1000
,
0001
0000
1000
0000
0100
0000
1000
0000
0001
0100
0001
0100
0001
0100
0001
0100
,
0001
1000
0010
0100
0010
0000
0010
0000
,
1000
0010
0100
0010
1000
0100
0010
0100
,
1000
0000
0000
0000
0001
0000
0100
0000
0001
1000
0100
0000
1000
0000
0001
0000
,
0100
0001
0010
0000
0100
0000
1000
0001
1000
0000
0001
0100
0001
0000
1000
0010
,
0100
0001
0010
0100
0010
0001
1000
0010
,
0200
0000
0000
0300
0000
0000
0000
0000
,
0001
0000
0000
0000
0000
0000
0000
0000
0010
0000
0000
0000
0000
0000
0000
0000
0100
0000
0000
0000
0000
0000
0000
0000
0000
0000
0000
0000
0000
0000
0000
0200
0000
0300
0000
0000
0000
0000
0000
0000
1000
0000
0000
0000
0000
0000
0000
0000
0001
0000
0000
0000
0000
0000
0000
0000
0100
0000
0000
0000
0000
0000
0000
0000
,
0010
0000
0000
0000
0000
0000
0000
0000
1000
0000
0000
0000
0000
0000
0000
0000
0001
0000
0000
0000
0000
0000
0000
0000
0000
0000
0000
0000
0000
0000
0000
0002
0000
0003
0000
0000
0000
0000
0000
0000
0010
0000
0000
0000
0000
0000
0000
0000
0100
0000
0000
0000
0000
0000
0000
0000
0000
0000
0000
0000
0000
0000
0000
0200
,
0000
0300
0000
0000
0000
0000
0000
0000
1000
0000
0000
0000
0000
0000
0000
0000
0001
0000
0000
0000
0000
0000
0000
0000
0100
0000
0000
0000
0000
0000
0000
0000
0010
0000
0000
0000
0000
0000
0000
0000
0100
0000
0000
0000
0000
0000
0000
0000
0001
0000
0000
0000
0000
0000
0000
0000
0010
0000
0000
0000
0000
0000
0000
0000
,
0100
0000
1000
0000
0001
0000
0100
0000
0001
1000
0100
1000
0001
0010
0100
1000
,
0001
0000
0400
0300
0010
0000
4000
3000
0001
0000
0100
0001
1000
0000
0001
0000
,
1000
0010
0100
0010
1000
0001
0010
0100
1000
0000
0001
0000
1000
0000
0001
0000
,
1000
0010
0100
0001
0010
0100
0010
0001
,
1000
0010
0000
0010
0000
0010
0400
0300
,
0001
0000
1000
0000
0100
0000
1000
0000
0001
0000
0000
0100
0001
0000
0100
0000
,
0001
0010
0100
1000
0000
0000
0000
0000
,
0001
0100
0010
1000
0000
0000
0000
0000
,
0001
0010
0100
1000
0010
0100
0010
0100
,
0001
1000
0100
0010
0001
1000
0100
0010
,
0001
1000
0100
0010
0001
1000
0100
0010
,
0001
1000
0001
0100
0010
0100
0001
1000
0001
0100
0010
1000
0001
1000
0010
0100
,
0004
0000
0000
0003
0M00
0000
0M00
0000
,
1001
1000
0000
0001
0100
0000
0001
0010
,
0000
0001
1000
0000
0200
0000
0300
0000
,
1000
0000
1000
0000
0001
0100
0010
0000
,
0200
0000
0000
0300
,
1001
0001
0000
1000
0000
0100
0000
1000
,
0000
0000
0001
0000
0100
0010
0100
0000
0001
0000
0000
0000
1000
0000
0000
0000
,
0200
0000
0300
0000
4000
3000
0000
0000
0002
0000
0023
0000
0230
0000
0300
0000
,
2000
0000
0000
0000
3040
0030
0400
0300
,
1001
0001
0000
1000
0100
0000
1000
0010
,
0000
1000
0001
0000
0400
0000
0000
0300
,
0101
0000
0001
0000
1000
0100
0010
0000
,
0001
1000
0001
1000
0001
1000
0001
1000
,
0100
0010
0000
0010
0000
0001
0000
1000
,
0000
0000
0000
0000
0000
0000
0000
0000
0010
0000
0000
0000
0000
0000
0000
0000
0000
0000
0000
0000
0000
0000
0000
0000
0100
0000
0000
0000
0000
0000
0000
0000
0001
0000
0000
0000
0000
0000
0000
0000
0000
0000
0000
0000
0000
0000
0000
0000
1000
0000
0000
0000
0000
0000
0000
0000
0000
0000
0000
0000
0000
0000
0000
0002
,
0M00
0003
0000
0000
0M00
0000
0000
0000
0000
0000
0000
0000
0M00
0000
0000
0000
0M00
0000
0000
0000
0M00
0000
0000
0000
0M00
0000
0000
0000
0000
0000
0000
0000
,
0M00
0M00
0000
0M00
0M00
0000
0M00
0M00
,
0M00
0M00
0M00
0M00
0M00
0M00
0M00
0000
,
0000
0000
0000
0000
,
000M
00M0
0M00
0000
1000
0010
0100
0000
,
0001
0000
0000
0000
1000
0000
0000
0000
0100
0000
0000
0000
0010
0000
0000
0000
010M
000M
000M
000M
100M
000M
0000
0000
0100
0000
0000
0000
0000
0000
0000
0000
,
1000
0000
0001
0100
0001
0000
0010
0100
1000
0000
0001
0000
1000
0000
0000
0000
,
0001
0000
0100
0000
0001
0000
1000
0010
0100
0000
0001
0000
1000
0100
1000
0100
,
0010
0000
0001
0100
0001
0000
1000
0000
0010
1000
0010
0000
0100
0000
0001
0000
,
1000
0000
0100
0000
0010
0000
0001
0000
1000
0000
0010
0000
0100
0000
0001
0100
,
0001
0000
0000
0000
0000
0000
0000
0000
1000
0000
0000
0000
0100
0000
0000
0000
1000
0000
0000
0000
0000
0000
0000
0000
0001
0000
0000
0000
0010
0000
0000
0000
0100
0000
0000
0000
0000
0000
0000
0000
1000
0000
0000
0000
0000
0000
0000
0000
0004
0000
0000
0000
0000
0000
0000
0000
0003
0000
0000
0000
0000
0000
0000
2000
,
0000
3000
0000
0000
0010
0000
0000
0000
0100
0000
0000
0000
0001
0000
0000
0000
0010
0000
0000
0000
0000
0000
0000
0000
0100
0000
0000
0000
0100
0000
0000
0000
,
1000
0000
0000
0000
0000
0000
0000
0000
0000
0000
0000
0000
0000
0000
0000
0002
0000
0003
0000
0000
0000
0000
0000
0000
0100
0000
0000
0000
0000
0000
0000
0000
0000
0000
0000
0000
0000
0000
0000
0020
0000
0030
0000
0000
0000
0000
0000
0000
0100
0000
0000
0000
0000
0000
0000
0000
0001
0000
0000
0000
0000
0000
0000
0000
,
1000
0000
0100
0000
1000
0000
0001
0000
00M0
0000
00M0
00M0
00M0
0000
0000
0000
,
1000
0100
1000
0001
0100
0010
0100
0001
,
0010
0000
0100
0000
1000
0000
0010
0000
0100
0000
0010
0000
1000
0000
0001
0100
,
0001
0000
1000
0000
0100
0010
0100
0010
0001
0000
1000
0000
0001
0000
0100
0010
,
0100
0000
0001
0000
1000
0000
0100
1000
0100
0000
0010
0000
0001
0000
0000
0000
,
1000
0000
0100
0000
0040
0000
0000
0030
0100
0000
1000
0000
0040
0000
0000
0030
,
0100
0000
0001
0100
0001
1000
0100
0000
0010
0000
0001
0000
1000
0000
0000
0000
,
0001
0010
0100
1000
0004
0000
0003
0000
1000
0000
0100
0000
0010
0000
0100
0000
,
1000
0000
1000
0000
0010
0100
0010
0100
,
0001
0000
0001
0010
0100
0100
1000
0000
,
0001
0100
0001
0100
0010
0000
0000
0000
,
1000
0000
0000
0000
0100
0000
0000
0000
1000
0000
0000
0000
0001
0000
0000
0000
0100
0000
0000
0000
0000
0000
0000
0000
0001
0000
0000
0000
0000
0000
0000
0000
0100
0000
0000
0000
0000
0000
0000
0000
0100
0000
0000
0000
0000
0000
0000
0000
0100
0000
0000
0000
0000
0000
0000
0000
0100
0000
0000
0000
0000
0000
0000
0002
,
0000
0003
0000
0000
0000
0000
0000
0000
0000
0000
0000
0000
0000
0000
0000
0000
0001
0000
0000
0000
0000
0000
0000
0000
1000
0000
0000
0000
0000
0000
0000
0000
0100
0000
0000
0000
0000
0000
0000
0000
0100
0000
0000
0000
0000
0000
0000
0000
0100
0000
0000
0000
0000
0000
0000
0000
0100
0000
0000
0000
0000
0000
0000
0000
,
1000
0001
1000
0010
0100
0000
0001
0000
1000
0100
1000
0000
0001
1000
0001
0000
,
0100
0000
0020
0030
0000
0000
0010
0000
1000
0100
1000
0100
0010
0000
0001
0000
,
1000
0010
0100
0010
1000
0001
0100
0001
1000
0000
0001
0000
0010
0000
0100
0000
,
1000
1000
0000
0100
0100
0000
2000
3000
,
0001
0000
0100
0000
0010
0000
0100
0000
0001
0000
1000
0000
0001
0010
0001
0010
,
0100
0000
1000
0000
0001
0000
0100
0000
0010
1000
0010
0100
0001
0000
1000
0000
,
0100
1000
0010
0000
1000
0000
0001
0100
0010
0000
0100
0001
0100
0000
0001
1000
,
0001
1000
0100
0010
0001
1000
0004
0003
,
1000
0010
0100
0010
1000
0001
0010
0100
,
1000
1000
1000
1000
0001
0010
0100
0000
,
1000
0010
0100
0010
1000
0001
0100
0001
1000
0010
0100
0001
1000
0001
1000
0004
,
4000
0000
0000
0000
0000
0000
0000
3003
,
1000
0001
0100
0000
0001
1000
0100
0000
,
1000
0001
0100
0000
0010
0000
0010
0000
,
1000
0100
0020
0030
0001
0100
0010
1000
,
0100
0010
0002
0003
0100
0001
2000
3000
,
0001
0100
0020
0030
1000
0100
0010
0001
,
0100
0001
1000
0010
0100
0010
2000
3000
,
0001
0010
0200
0300
1000
0010
0200
0300
,
0002
0003
0020
0030
0200
0300
2000
3000
0002
0003
2000
3000
0002
0003
0000
0000
,
1000
0000
0400
0300
0010
0000
0400
0300
1000
0000
0040
0030
0100
0000
0004
0003
,
M000
0000
0000
0000
0000
0000
0000
0000
M000
0000
0000
0000
0000
0000
0000
0000
M000
0000
0000
0000
M000
M000
M000
M000
M000
M000
M000
M000
M000
0000
0000
0000
,
0200
0000
0000
0300
0000
0000
0000
0000
0000
0000
0000
0000
0000
0000
0000
0000
0000
0000
0000
0000
0000
0000
0000
0000
0002
0000
0000
0003
0000
0000
0000
0000
0000
0000
0000
0000
0000
0000
0000
0000
0000
0000
0000
0000
0000
0000
0000
0000
0200
0000
0000
0000
0000
0000
0300
0000
0000
0000
0000
0000
0000
0000
0000
0000
0000
0000
0000
0000
0000
0000
0000
0000
0002
0000
0000
0000
0003
0000
0000
0000
0000
0000
0000
0000
0000
0000
0000
0000
0000
0000
0000
0000
0000
0000
0000
0000
2000
0000
0000
0000
3000
0000
0000
0000
0000
0000
0000
0000
0000
0000
0000
0000
0000
0000
0000
0000
0000
0000
0000
0000
0002
0000
0000
0000
0003
0000
0000
0000
0000
0000
0000
0000
0000
0000
0000
0000
0000
0000
0000
0000
0000
0000
0000
0000
2000
0000
0000
0000
0000
0000
3000
0000
0000
0000
0000
0000
0000
0000
0000
0000
0000
0000
0000
0000
0000
0000
0000
0000
0200
0000
0000
0000
0000
0000
0300
0000
0000
0000
0000
0000
0000
0000
0000
0000
0000
0000
0000
0000
0000
0000
0000
0000
,
0020
0000
0030
0000
0000
0000
0002
0000
0003
0000
0000
0000
2000
0000
0000
3000
0000
0000
0002
0000
0000
0003
0000
0000
0200
0000
0000
0000
0300
0000
0020
0000
0000
0000
0030
0000
0200
0000
0000
0000
0000
0000
0300
0000
0000
0000
0000
0000
,
0004
0000
0000
0000
0003
0000
0000
0000
1000
0000
0000
0000
0100
0000
0000
0000
0010
0000
0000
0000
0000
0000
0000
0000
0001
0000
0000
0000
0000
0000
0000
0000
0100
0000
0000
0000
0000
0000
0000
0000
0010
0000
0000
0000
0000
0000
0000
0000
0100
0000
0000
0000
0000
0000
0000
0000
0000
0000
0000
0000
0000
0000
0000
0002
,
0000
0003
0000
0000
0000
0000
0000
0000
1000
0000
0000
0000
0000
0000
0000
0000
0100
0000
0000
0000
0000
0000
0000
0000
1000
0000
0000
0000
0000
0000
0000
0000
0001
0000
0000
0000
0010
0000
0000
0000
0001
0000
0000
0000
1000
0000
0000
0000
0100
0000
0000
0000
0010
0000
0000
0000
0001
0000
0000
0000
1000
0000
0000
0000
,
0001
1000
0010
0000
0010
0100
0001
1000
,
0004
0000
0003
0000
0000
0000
0000
0000
0004
0000
0003
0000
0000
0000
0000
0000
0010
0000
0000
0000
0000
0000
0000
0200
0000
0300
0000
0000
0000
0000
0000
0000
0000
0000
0000
0000
0000
0000
0000
0200
0000
0300
0000
0000
0000
0000
0000
0000
0000
0000
0000
0000
0000
0000
0000
0000
1000
0000
0000
0000
0000
0000
0000
0000
,
0001
0000
1000
0010
0100
0000
0001
0100
0001
0000
0010
0000
0100
0000
1000
0000
,
0001
0010
0001
0010
0100
1000
0000
1000
,
0000
0001
0100
0010
0100
0001
0000
1000
,
0001
1000
0100
0010
0000
0100
0010
0000
,
0001
0010
0001
0000
0010
0100
1000
0000
0001
0100
0001
1000
0010
0100
0001
1000
,
0001
0000
0100
0000
0010
0000
1000
0000
0001
0100
0001
0100
0001
0100
0001
0100
,
0001
1000
0100
0010
0001
0000
0001
0000
,
1000
0010
1000
0001
0010
0100
1000
0001
1000
0000
0010
0000
0100
0000
0000
0000
,
0101
0000
0000
0000
0001
0000
1000
0000
0100
1000
0100
0000
0010
0000
0001
0000
,
1000
0010
1000
0000
0001
0000
1000
0010
1000
0000
0010
0100
0010
0000
1000
0001
,
1000
0001
0010
0100
1000
0001
0100
0010
,
1000
0100
0020
0030
0001
0100
0020
0030
,
0000
0000
0000
M000
M000
M000
M000
M000
M000
M000
M000
M000
M000
0000
0000
0000
,
M000
0000
0000
0000
0000
M000
0000
0000
0000
M000
M000
M000
M000
M000
M000
0000
,
0000
0000
M000
M000
M000
M000
M000
0000
0000
0000
M000
M000
M000
M000
M000
0000
;
