#TITLE:One More Lovely;
#SUBTITLE:(v2);
#ARTIST:Risk Junk;
#TITLETRANSLIT:;
#SUBTITLETRANSLIT:;
#ARTISTTRANSLIT:;
#CREDIT:;
#BANNER:OMLbn.png;
#BACKGROUND:OMLbg.png;
#LYRICSPATH:;
#CDTITLE:!othnapCD.png;
#MUSIC:35.One More Lovely.mp3;
#OFFSET:-2.040;
#SAMPLESTART:84.200;
#SAMPLELENGTH:27.980;
#SELECTABLE:YES;
#BPMS:0.000=200.001,109.000=100.000,127.000=200.000,248.000=100.000,252.000=200.000,300.000=100.000,310.000=200.001;
#STOPS:;
#BGCHANGES:;
// cache tags:
#FIRSTBEAT:0.000;
#LASTBEAT:320.000;
#SONGFILENAME:Songs/aaa cant/One More Lovely (v2)/simfile.sm;
#HASMUSIC:1;
#HASBANNER:1;
#MUSICLENGTH:115.957;
// end cache tags

//---------------dance-single - ----------------
#NOTES:
     dance-single:
     :
     Hard:
     12:
     1.000,1.000,1.000,0.172,1.000,977.000,134.000,20.000,0.000,2.000:
1000
0100
0010
0000
0101
0000
0000
0000
1010
0000
0110
0000
0001
0000
0110
0000
,
1100
0110
0101
1010
0100
0011
1000
0110
,
0011
0110
1100
0110
0001
1010
0100
1001
,
0101
0011
0110
1100
1100
0100
0110
0010
,
0011
0010
0110
1100
1001
1010
0100
0011
,
0110
0011
0110
1100
0001
0110
1000
0110
,
1001
0110
1001
1010
0100
0011
1000
0110
,
0011
0110
1001
2020
3030
0100
0100
0100
,
0100
0001
1000
0001
1000
0100
0010
0100
1001
0100
0010
0001
0100
0001
0010
0100
,
1000
0010
1000
0010
1000
0100
1000
0100
1000
0100
0010
0001
0100
0001
0010
0100
,
0010
0001
1000
0010
1000
0001
0100
0001
0010
0100
0010
0001
1000
0100
0010
0100
,
1000
0001
1000
0010
0100
0001
1000
0001
0100
0001
0010
0100
0010
0001
0010
0100
,
1000
0001
1000
0010
0100
0001
0100
0010
1100
0001
1000
0010
1000
0100
1000
0001
,
0100
0001
0010
0100
1000
0001
1000
0100
0010
0001
0010
0100
1000
0001
1000
0010
,
1000
0100
1000
0001
0100
0001
0010
0001
0100
0010
1000
0010
0100
0001
0010
0001
,
0100
0001
0010
0100
1000
0100
0010
0001
0110
0000
1000
0000
0110
0000
0001
0000
,
0110
1000
0110
0110
1100
0001
1100
0010
,
1100
0001
1100
0110
0011
0011
0011
0000
,
1100
1100
1100
0000
0110
1001
0101
1010
,
0101
0000
0011
0000
1100
0000
0110
0000
0011
0100
1000
0001
1000
0001
1000
0010
,
1000
0100
1000
0010
0100
0001
0100
0001
0010
0001
0100
0010
1000
0100
0010
0001
,
1000
0010
1000
0100
1000
0001
1000
0010
0100
0001
0100
0001
0010
0001
0100
0010
,
1000
0001
1000
0001
0100
0001
0100
0010
1000
0010
1000
0010
1000
0100
1000
0100
,
1000
0100
0010
0001
1000
0001
0010
0100
1000
0001
1000
0100
0010
0001
1000
0010
,
1000
0100
1000
0001
0100
0001
0100
0010
1000
0100
1000
0010
0100
0001
0010
0001
,
0100
0001
0010
0100
1000
0100
0010
0001
0100
0001
0100
0010
1000
0100
0010
0001
,
1000
0001
0010
0100
1000
0001
1000
0001
0100
0001
0010
0001
0010
0001
0010
0001
,
0010
0100
1000
0001
1000
0000
0100
0000
0000
0000
0000
0000
1000
0000
0001
0000
,
1000
0010
0100
0100
0000
0000
0001
0100
,
1000
0010
1000
0001
0000
0000
0010
0100
,
0010
0000
0001
0000
0100
0000
1000
0000
0000
0000
0000
0000
1000
0000
0100
0100
,
0000
0000
1000
0000
0000
0000
0001
0000
0000
0000
0000
0000
2000
3000
2000
3000
2000
3000
0000
0000
0100
0010
0001
0000
2002
0000
0000
0000
0000
0000
0000
0000
,
3113
0001
0010
0100
1000
0100
0010
0001
0100
0001
0010
0100
1000
0001
1000
0100
,
1000
0001
0100
0001
0100
0010
1000
0010
0100
0010
1000
0010
0100
0001
0100
0001
,
0010
0100
0010
0001
1000
0001
0010
0100
1000
0100
0010
0100
1000
0001
0010
0100
,
0010
0001
1000
0001
1000
0010
1000
0100
1000
0001
0100
0001
0010
0001
0100
0010
,
1000
0001
1000
0001
0100
0001
0100
0010
1000
0010
0100
0010
1000
0100
0010
0001
,
0100
0001
0010
0100
1000
0100
0010
0001
0100
0001
0010
0100
1000
0010
1000
0100
,
1000
0010
0100
0001
0100
0001
0010
0001
0100
0010
1000
0010
0100
0001
0100
0001
,
0010
0100
1000
0001
0010
0100
1000
0001
1000
0100
0010
0100
1001
0100
0010
0001
,
1100
0001
0100
0001
0010
0100
1001
0100
,
0011
1000
0110
0001
1100
0010
1001
0100
,
0011
0100
1000
0001
0100
0010
1100
0001
,
1010
0100
0011
0100
1010
0100
0011
1000
,
0101
0010
1000
0100
0010
0001
0110
0010
,
0011
1000
0110
0001
1010
0100
0011
1000
,
1001
0010
1000
0100
0001
0100
1010
0100
,
0011
0011
0100
0011
1000
0110
0001
0100
,
1010
0100
0001
0010
0001
0100
0001
1000
0010
1000
0010
0100
0001
0010
0100
0010
,
0001
1000
0100
0010
0100
1000
0010
1000
0001
0100
0001
0100
0001
0010
0100
0010
,
0001
0010
0100
1000
0001
1000
0001
0100
0001
0100
0010
1000
0010
0100
0010
1000
,
0010
0100
0001
0010
0001
0100
0001
0010
0100
1000
0100
0010
0001
0100
0010
1000
,
0010
0100
0001
0010
0001
0100
0001
0010
0100
1000
0010
1000
0100
0010
0001
1000
,
0001
0010
0100
1000
0100
1000
0010
1000
0010
0100
0010
0100
0010
1000
0010
0100
,
0001
0100
0001
0010
0100
1000
0100
0010
0001
0010
0100
1000
0001
1000
0100
0010
,
0001
0100
0001
0100
0001
0010
0001
1000
0010
1000
0010
0100
0001
0010
0001
0100
,
1010
0100
0001
0010
0001
0100
0001
0010
0100
1000
0001
1000
0100
0010
0100
1000
,
0100
0010
0100
1000
0100
0010
0001
0010
0100
0010
0001
0010
0100
1000
0001
0100
,
0001
0100
0010
1000
0010
1000
0010
0100
0010
1000
0010
0100
0001
0100
0001
0100
,
0001
0010
0100
1000
0001
0010
0001
0100
0010
1000
0010
1000
0001
0100
0001
0010
,
0001
0010
0100
1000
0010
1000
0001
1000
0100
0010
0001
0010
0100
1000
0001
1000
,
0100
1000
0010
1000
0010
1000
0010
0100
0001
1000
0010
0100
0001
0010
0001
0100
,
0001
0000
0010
0000
0100
0000
1000
0000
1000
0000
0100
0000
0010
0000
0001
0000
0001
0000
0100
0000
0010
0000
1000
0000
1000
0100
0010
0000
1001
0000
0110
0000
,
1001
0010
1100
0001
0110
0001
1100
0010
,
1001
0100
0011
1000
0110
0001
1100
0010
,
1001
0100
0011
1000
0110
1000
0110
0001
,
0110
0000
1000
0000
0110
0000
0001
0000
1010
0000
0001
0000
1010
0100
0000
0001
,
2100
3010
0201
0310
,
2000
3200
0320
0032
,
0203
0000
0000
0000
0320
0000
0000
0000
2030
0000
0000
0000
3200
0000
0000
0300
,
0100
0000
0000
0000
0100
0000
0000
0000
0100
0010
0001
0100
0010
1000
0010
0100
,
1001
0100
0010
0001
0010
0100
1000
0001
1000
0100
1000
0010
1000
0001
1000
0001
,
0100
0001
0100
0001
0010
0001
0100
0001
0100
0010
1000
0010
0100
0001
0100
0001
,
0010
0100
1000
0010
1000
0100
0010
0001
0100
0001
0010
0100
1000
0001
1000
0010
,
1000
0010
0100
0001
0100
0010
1000
0010
1000
0100
1000
0001
0100
0001
0010
0100
,
1001
0000
0000
1000
0100
0010
0001
0100
,
0010
0000
0000
0000
0000
0000
0000
0000
0000
0000
0000
0000
2000
0000
0000
0000
3011
0000
0100
0000
0000
0000
1000
0000
0000
0000
0010
0000
0100
1000
0010
0100
,
0011
0000
0100
0000
0000
0000
1000
0000
0000
0000
0010
0000
1000
0100
0010
0001
1010
0000
0000
0000
0101
0000
0000
0000
0011
0000
0000
0000
0110
0000
0000
0000
,
0011
0000
1001
0000
1010
0000
1100
0000
1001
0100
0010
0001
0010
0100
1000
0100
,
0010
0001
0010
0100
1000
0100
0010
0001
0100
0001
0010
0001
1000
0100
0010
0202
,
0303
0000
0000
0000
;
